#TITLE:THE SAFARI;
#SUBTITLE:(KSD-CDJ-edit);
#ARTIST:SLK-9888.sys;
#TITLETRANSLIT:;
#SUBTITLETRANSLIT:;
#ARTISTTRANSLIT:;
#CREDIT:;
#BANNER:safari_ksd.png;
#BACKGROUND:safari_ksd-bg.png;
#LYRICSPATH:safari_ksd.lrc;
#CDTITLE:cdtitle.png;
#MUSIC:safari_ksd.mp3;
#OFFSET:-0.045;
#SAMPLESTART:26.135;
#SAMPLELENGTH:12.000;
#SELECTABLE:YES;
#BPMS:0.000=147.000;
#STOPS:;
#BGCHANGES:;
// cache tags:
#FIRSTBEAT:16.000;
#LASTBEAT:292.000;
#SONGFILENAME:Songs/Japanese Collaboration Mix/safari_ksd/safari_ksd.sm;
#HASMUSIC:1;
#HASBANNER:1;
#MUSICLENGTH:130.716;
// end cache tags

//---------------dance-single - ----------------
#NOTES:
     dance-single:
     :
     Challenge:
     10:
     0.591,0.726,0.734,0.130,0.187,428.000,96.000,17.000,0.000,0.000:
0000
0000
0000
0000
,
0000
0000
0000
0000
,
0000
0000
0000
0000
,
0000
0000
0000
0000
,
2000
0001
0000
0001
0000
0001
3000
0001
,
0200
0010
0000
0010
0000
0010
0300
0010
,
2000
0100
0000
0100
0000
0100
3000
0100
,
0010
0000
0000
0010
0000
0000
0010
0000
1001
0000
0110
0000
2002
0000
3003
0000
,
0100
1001
0000
1001
0010
1001
0000
1001
,
0100
1001
0000
1001
0010
1001
0000
0110
,
1000
0110
0000
0110
0001
0110
0000
0110
,
1000
0110
0000
0110
0001
0110
0000
1001
,
0100
1001
0000
1001
0010
1001
0000
1001
,
0100
1001
0000
1001
0010
1001
0000
0110
,
1000
0110
0000
0110
0001
0110
0000
0110
,
1000
0110
0000
0110
0001
0000
1010
0000
,
0100
0000
0001
0010
0100
0000
1000
0010
0100
0000
0001
0010
0100
0000
1000
0010
,
0100
0000
0001
0000
0010
0000
0100
2000
0001
0000
0001
0000
3001
0000
0000
0000
,
0010
0000
1000
0100
0010
0000
0001
0100
0010
0000
1000
0100
0010
0000
0001
0100
,
0010
0000
1000
0000
0100
0000
0010
0002
1000
0000
1000
0000
1003
0000
1000
0000
,
0001
0000
0010
1000
0001
0000
0100
1000
0001
0000
0010
1000
0001
0000
0100
1000
,
0001
0000
0010
0000
1000
0000
0001
0200
0010
0000
0010
0000
0310
0000
0000
0000
,
1000
0000
0001
0010
0001
0000
1000
0100
1000
0000
0001
0010
0001
0000
1000
0100
,
1000
1000
0020
1030
,
0100
0100
0010
0001
1000
0100
0010
0001
,
0100
0000
0100
0000
0100
0000
0100
0020
0100
0000
0100
0000
0100
0000
0100
0000
,
0130
0001
0010
0001
1000
0100
1000
0100
,
0010
0000
0010
0000
0010
0000
0010
0200
0010
0000
0010
0000
0010
0000
0010
0000
,
0310
0000
0010
0010
0010
0000
1001
0000
,
0100
0100
0100
0100
0200
0000
0010
0000
,
0310
0000
1001
1010
1100
0000
0011
0000
,
1100
0000
0000
0000
1100
0000
0000
0000
0010
0001
0010
0001
0010
0001
0010
0001
,
1000
0100
1000
0100
1000
0000
0001
0000
0010
0000
0000
0010
0100
0000
0000
0000
,
1000
0100
1000
0100
1000
0000
0001
0000
0010
0000
0000
0010
0100
0000
0000
0000
,
1000
0100
1000
0100
1000
0000
0001
0000
0010
0000
0000
0010
0100
0000
0000
0000
,
1000
0100
1000
0100
1000
0000
0001
0000
0001
0010
0001
0010
0100
1000
0100
1000
,
0001
0010
0001
0010
0001
0000
1000
0000
0110
0000
0000
0000
0110
0000
0000
0000
,
0001
0010
0001
0010
0001
0000
1000
0000
0110
0000
0000
0000
0220
0000
0000
0000
,
0330
0001
0001
0001
0100
0000
0110
0000
,
0000
1000
0000
1000
0100
0010
1001
0000
,
0100
0100
0000
0000
0000
0100
0100
0100
,
0100
0000
0000
1001
0000
0000
0000
0000
,
0010
0010
0000
0000
0000
0010
0010
0010
,
0010
0000
0000
1001
0000
0000
0000
0000
,
0100
0100
0000
0000
0000
0100
0100
0100
,
0100
0000
0000
1001
0000
0000
0000
0000
,
0010
0010
0000
0000
0000
0010
0010
0010
,
0010
0000
0000
1001
0000
0000
0000
0000
,
1000
0110
0000
0001
0001
0110
0000
1000
,
1000
0110
0000
0001
0001
0110
0000
0001
,
0010
1001
0000
0100
0100
1001
0000
0010
,
0010
1001
0000
0100
0100
1001
0000
0010
,
1000
0110
0000
0001
0001
0110
0000
1000
,
1000
0110
0000
0001
0001
0110
0000
0001
,
0010
0000
1001
0000
0000
0000
0100
0000
0001
0010
0001
0010
0100
1000
0100
1000
,
0010
0010
0010
0010
0010
0010
1001
0000
,
0001
1000
0100
0101
,
0001
1000
0100
0101
,
0001
1000
0100
0101
,
0001
1000
0100
0101
,
0001
1000
0100
0101
,
0001
1000
0100
0101
,
0001
1000
0100
0101
,
0010
0100
1000
1002
,
1003
1000
0100
0100
,
0010
0000
0010
0000
0101
1010
0000
0000
,
0001
0001
0010
0010
,
0100
0000
0100
0000
1010
0101
0000
0000
,
1010
0100
0011
0000
1010
0100
0011
0000
,
1010
0100
0011
0000
1010
0101
0000
0000
,
1100
0010
0101
0010
1100
0000
0101
0000
,
1100
0010
0101
0010
1100
0101
0011
1010
,
0220
0000
0000
0000
,
0330
0000
0000
0000
;
