#TITLE:Overdrive;
#SUBTITLE:;
#ARTIST:Arvin;
#TITLETRANSLIT:;
#SUBTITLETRANSLIT:;
#ARTISTTRANSLIT:;
#CREDIT:;
#BANNER:overdrive - bn.png;
#BACKGROUND:overdrive - bg.png;
#LYRICSPATH:;
#CDTITLE:../aCD.png;
#MUSIC:Overdrive.ogg;
#OFFSET:0.009;
#SAMPLESTART:27.440;
#SAMPLELENGTH:12.000;
#SELECTABLE:YES;
#BPMS:0.000=185.000;
#STOPS:;
#BGCHANGES:;
// cache tags:
#FIRSTBEAT:0.000;
#LASTBEAT:496.000;
#SONGFILENAME:Songs/Aoreo's Index Jawn 2/Overdrive - [Aoreo]/Overdrive.sm;
#HASMUSIC:1;
#HASBANNER:1;
#MUSICLENGTH:162.513;
// end cache tags

//---------------dance-single - J. Nero----------------
#NOTES:
     dance-single:
     J. Nero:
     Challenge:
     26:
     1.000,1.000,0.117,0.609,1.000,2128.000,19.000,99.000,10.000,0.000:
1000
0100
1000
0010
0100
0001
0100
0010
1000
0100
0010
0001
0100
0001
0010
0100
,
1000
0010
1000
0100
0010
0001
0010
0100
1000
0010
0100
0001
0010
0001
0100
0010
,
1000
0100
1000
0010
0100
0001
0100
0010
1000
0100
0010
0001
0100
0001
0010
0100
,
1000
0010
1000
0100
0010
0001
0010
0100
1000
0010
0100
0001
0010
0001
0100
0010
,
1000
0001
1000
0100
0010
0001
1000
0001
0100
0010
1000
0100
0010
0001
1000
0001
0100
0010
0100
0001
1000
0100
1000
0001
,
0100
0010
0100
0001
1000
0001
0010
0100
1000
0001
0100
0010
1000
0010
0100
0001
1000
0100
0010
0001
1000
0001
0100
0010
,
1000
0100
0010
0001
0100
0001
1000
0100
0010
0001
0100
0001
1000
0100
0010
0001
0100
0001
1000
0100
0010
0001
0100
0001
,
2000
0000
0000
0000
,
3002
0000
0003
0022
0000
0033
0220
0000
0330
0000
0100
0000
1000
0001
0000
1000
,
0010
0100
0001
0010
0100
1000
0010
0100
0001
0010
0100
1000
0010
0100
0001
0010
0100
1000
0010
0100
0001
0010
0100
1000
,
0020
0000
0000
0000
0000
0000
0030
0000
0000
2020
0000
0000
0000
0000
0000
3030
0000
0000
0202
0000
0000
0000
0000
0000
0303
0000
0000
0000
0000
0000
0100
0000
0001
0000
1000
0000
0001
0000
0000
1000
0000
0000
0000
0000
0000
0100
0000
0000
,
1000
0010
1000
0100
0010
0001
1000
0010
1000
0100
0010
0001
1000
0010
1000
0100
0010
0001
1000
0010
1000
0100
0010
0001
,
1000
0100
1000
0010
0100
0010
1000
0100
0010
0001
0100
0001
0010
0001
0100
0010
,
1000
0100
0010
0001
0100
0001
1000
0100
1000
0010
0100
0001
0010
0100
1000
0001
,
1000
0100
1000
0010
0100
0001
0010
0100
1000
0010
0100
0001
0010
0001
0100
0010
1000
0100
1000
0010
0100
0001
0010
0100
,
1000
0010
0100
0001
1000
0010
1000
0100
0010
0001
0100
0001
1000
0100
0010
0100
1000
0010
0100
0001
0010
0100
1000
0010
,
1000
0001
0100
0001
0020
0000
0000
0000
0130
1000
0010
0100
0002
0000
0000
0000
,
1003
0100
1000
0010
0200
0000
0000
0000
0301
0010
0100
1000
0020
0000
0000
0000
,
1030
0001
0010
0100
2000
0000
0000
0000
3001
0100
0001
0010
0200
0000
0000
0000
,
1300
0010
1000
0100
0020
0000
0000
0000
0031
0100
0001
0010
0200
0000
0000
0000
,
1300
0100
1000
0010
0100
0001
0100
0010
1000
0100
0010
0001
0100
0001
0010
0100
,
1000
0010
1000
0100
0010
0001
0010
0100
1000
0010
0100
0001
0010
0001
0100
0010
,
1000
0100
1000
0010
0100
0001
0100
0010
1000
0100
0010
0001
0100
0001
0010
0100
,
1000
0010
1000
0100
0010
0001
0010
0100
1000
0010
0100
0001
0010
0001
0100
0010
,
1000
0001
1000
0100
0010
0001
1000
0001
0100
0010
1000
0100
0010
0001
1000
0001
0100
0010
0100
0001
1000
0100
1000
0001
,
0100
0010
0100
0001
1000
0001
0010
0100
1000
0001
0100
0010
1000
0010
0100
0001
1000
0100
0010
0001
1000
0001
0100
0010
,
1000
0100
0010
0001
0100
0001
0010
0100
1000
0010
0100
0001
0010
0100
1000
0010
0100
0001
1000
0100
0010
0001
0100
0001
,
2000
0000
0000
0000
,
3002
0000
0003
0022
0000
0033
0220
0000
0330
0000
0100
0000
1000
0001
0000
1000
,
0001
0100
0010
1000
0100
0010
0001
0100
0001
1000
0100
1000
0010
0100
0001
0010
0100
1000
0010
0100
0001
1000
0100
0010
,
0002
0000
0000
0000
0000
0000
0003
0000
0000
2002
0000
0000
0000
0000
0000
3003
0000
0000
2200
0000
0000
0000
0000
0000
3300
0000
0000
0000
0000
0000
0100
0000
0010
0000
0001
0000
1000
0000
0000
0001
0000
0000
0000
0000
0000
0100
0000
0000
,
0001
0100
0001
1000
0100
0010
0001
0100
0010
1000
0010
0100
0001
0010
0100
1000
0010
0100
0001
1000
0100
0010
0001
1000
,
0001
0010
0001
0100
0010
0100
0001
0010
0100
1000
0010
1000
0100
1000
0010
0100
,
0001
0010
0100
1000
0010
1000
0001
0010
0001
0100
0010
1000
0100
0010
0001
1000
,
0001
0010
0001
0100
0010
1000
0100
0010
0001
0100
0010
1000
0100
1000
0010
0100
0001
0010
0001
0100
0010
1000
0100
0010
,
0001
0100
0010
1000
0001
0100
0001
0010
0100
1000
0010
1000
0001
0010
0100
0010
0001
0100
0010
1000
0100
0010
0001
0100
,
0001
1000
0010
1000
0200
0000
0000
0000
0310
0001
0100
0010
2000
0000
0000
0000
,
3001
0010
0001
0100
0020
0000
0000
0000
1030
0100
0010
0001
0200
0000
0000
0000
,
0301
1000
0100
0010
0002
0000
0000
0000
1003
0010
1000
0100
0020
0000
0000
0000
,
0031
0100
0001
0010
0200
0000
0000
0000
1300
0010
1000
0100
0020
0000
0000
0000
,
0031
0000
0000
1000
0000
0000
0100
0000
0000
1000
0000
0000
0010
0000
0000
0100
0000
0000
0010
0000
0000
1000
0000
0000
0100
0000
0000
0010
0000
0000
0001
0000
0000
0100
0000
0000
0001
0000
0000
0010
0000
0000
0100
0000
1000
0000
0001
0000
,
1000
0100
1000
0010
0100
0001
0010
0100
1000
0010
0100
0001
0010
0001
0100
0010
,
1000
0000
0000
0001
0000
0000
0010
0000
0000
0001
0000
0000
0100
0000
0000
0010
0000
0000
0100
0000
0000
0001
0000
0000
0010
0000
0000
0100
0000
0000
1000
0000
0000
0010
0000
0000
1000
0000
0000
0100
0000
0000
0010
0000
0001
0000
1000
0000
,
0001
0010
0001
0100
0010
1000
0100
0010
0001
0100
0010
1000
0100
1000
0010
0100
,
0001
0000
1000
0000
0100
0010
0001
0000
1000
0000
0001
0000
0100
0010
0100
0000
,
0001
1000
0001
0100
0010
1000
0100
0010
0001
0100
0001
1000
0100
0010
0100
1000
0010
0100
0001
0010
0001
0100
0010
1000
,
0100
0010
0001
0100
0001
1000
0100
1000
0010
0100
0001
0010
0100
1000
0001
0100
0010
1000
0010
0100
0001
1000
0100
0010
,
0001
1000
0100
1000
0010
0100
0001
0010
0100
1000
0010
0100
0001
1000
0100
0010
0001
0100
0001
1000
0100
1000
0010
0100
,
0002
0000
0000
0000
0000
2003
3200
0320
,
0032
0000
2003
3020
,
0230
0000
0000
0000
0000
0302
2003
3002
,
0023
0000
0000
0000
0000
0230
2300
3001
,
0101
0100
0010
1010
1000
0100
0120
0000
,
0001
0000
0000
0000
0100
0000
0000
0000
0031
1000
0000
0000
0001
0100
0001
1000
,
0200
0320
0032
2003
,
3020
0000
0000
0000
0000
0000
1030
0001
02M0
M00M
00M0
M302
0M00
00M0
1M03
M000
,
00M1
0100
0010
1000
0100
0010
0001
1000
0010
0100
0001
1000
0100
0010
0001
1000
0001
0100
0010
1000
0010
0100
0001
1000
,
0100
0010
0001
0100
0001
1000
0010
0100
0010
1000
0001
0010
0100
0010
0001
0100
0010
1000
0100
0010
0001
0100
0001
1000
,
0100
0010
0001
0100
0010
1000
0010
0100
0001
1000
0100
0010
0001
1000
0001
0100
0010
0100
0001
1000
0100
0010
0100
1000
,
0001
0100
0010
1000
0010
0100
0001
1000
0100
0010
0001
1000
0001
0100
0010
0100
0001
1000
0100
1000
0010
0100
0001
0010
,
0100
1000
0001
0100
0010
1000
0010
0100
0001
1000
0100
0010
0001
0100
0010
1000
0010
0100
0001
1000
0100
0010
0001
0100
,
0001
1000
0100
1000
0010
0100
0001
1000
0100
0010
0001
1000
0010
0100
0001
0100
0010
1000
0100
0010
0001
0100
0001
1000
,
0100
0010
0100
1000
0001
0100
0010
1000
0010
0100
0001
1000
0100
0010
0001
0100
0001
1000
0100
1000
0010
0100
0001
1000
,
0100
0010
0100
1000
0001
0100
0010
1000
0010
0100
0001
1000
0100
0010
0001
0100
0001
1000
0100
1000
0010
0100
0001
0010
,
0100
1000
0010
0100
0001
0010
0001
0100
0010
1000
0100
0010
0001
0100
0001
1000
0100
1000
0010
0100
0001
0010
0100
1000
,
0001
1000
0100
0010
0001
0100
0001
1000
0010
1000
0100
0010
0001
0100
0001
0010
0100
1000
0010
0100
0010
1000
0100
1000
,
0001
0100
0010
0100
0001
0010
0100
1000
0001
0100
0001
1000
0010
1000
0100
0010
0001
1000
0001
0100
0010
1000
0100
1000
,
0001
0010
0100
1000
0010
0100
0001
1000
0100
1000
0010
0100
0001
1000
0100
0010
0100
1000
0001
0100
0010
1000
0010
0100
,
0001
1000
0100
0010
0001
1000
0001
0100
0010
1000
0010
0100
0001
1000
0100
0010
0001
0100
0001
1000
0100
0010
0001
1000
,
0010
0100
0001
0010
0001
0100
0010
1000
0100
0010
0001
0100
0001
1000
0010
1000
0100
0010
0001
0100
0001
1000
0100
0010
,
0100
1000
0001
0100
0010
1000
0010
0100
0001
1000
0100
0010
0001
0100
0001
1000
0010
0100
0010
1000
0001
0010
0100
1000
,
0010
0100
0001
1000
0100
1000
0010
0100
0001
1000
0100
0010
0100
1000
0001
0100
0010
1000
0010
0100
0001
1000
0100
0010
,
0001
0100
0010
1000
0100
1000
0010
0100
0001
0010
0001
0100
0010
1000
0100
0010
0001
0100
0001
1000
0100
1000
0010
0100
,
0001
0010
0100
1000
0010
1000
0100
0010
0001
0100
0001
1000
0100
1000
0010
0100
0001
1000
0100
1000
0010
0100
0001
0010
,
0100
1000
0001
0010
0001
0100
0010
0100
0001
0010
0100
1000
0010
0100
0010
1000
0100
0010
0001
0100
0001
1000
0100
1000
,
0010
0100
0001
0010
0100
1000
0010
1000
0100
0010
0001
1000
0001
0100
0010
1000
0100
1000
0001
0010
0001
0100
0010
1000
,
0100
0010
0100
1000
0010
0100
0001
0010
0001
0100
0010
1000
0100
0010
0001
0100
0001
0010
0100
0010
0001
0100
0010
1000
,
0100
0010
0001
0100
0001
1000
0100
1000
0010
0100
0001
1000
0100
1000
0010
0100
0001
0010
0100
1000
0010
0100
0001
0010
,
0001
0100
0010
1000
0100
0010
0001
0100
0001
1000
0100
0010
0100
1000
0010
0100
0001
1000
0100
0010
0001
0100
0010
1000
,
0001
0100
0001
0010
0100
1000
0001
0100
0010
1000
0100
0010
0001
0100
0010
1000
0100
0010
0001
0100
0010
1000
0100
0010
,
0001
0100
0001
0010
0100
1000
0001
0100
0010
1000
0100
0010
0001
0100
0010
1000
0100
0010
0001
0100
0010
1000
0100
0010
,
0001
0100
0001
0010
0100
1000
0001
0100
0010
1000
0100
0010
0001
0100
0001
0010
0100
1000
0001
0100
0010
1000
0100
0010
,
0001
0100
0010
1000
0100
0010
0001
0100
0010
1000
0100
0010
0001
0100
0010
1000
0100
1000
0001
0010
0100
1000
0010
0100
,
0001
0010
0001
0100
0010
1000
0010
0100
0001
0010
0100
1000
0010
1000
0100
0010
,
0001
0100
0001
0010
0100
1000
0100
0010
0001
0100
0010
1000
0100
1000
0010
0100
,
0001
0010
0001
0100
0010
1000
0010
0100
0001
0010
0100
1000
0010
1000
0100
0010
,
0001
0100
0001
0010
0100
1000
0100
0010
0001
0100
0010
1000
0100
1000
0010
0100
,
0001
1000
0001
0010
0100
1000
0001
1000
0010
0100
0001
0010
0100
1000
0001
1000
0010
0100
0010
1000
0001
0010
0001
1000
,
0010
0100
0010
1000
0001
1000
0100
0010
0001
1000
0010
0100
0001
0100
0010
1000
0001
0010
0100
1000
0001
1000
0010
0100
,
0001
1000
0100
1000
0010
0100
0001
0010
0100
1000
0010
0100
0001
0100
0010
1000
0100
0010
0001
0100
0010
1000
0100
0010
,
0002
0000
0000
0000
,
2003
0000
3000
2200
0000
3300
0220
0000
0330
0000
0010
0000
0001
1000
0000
0001
,
0100
0010
1000
0100
0010
0001
0100
0010
1000
0100
0010
0001
0100
0010
1000
0100
0010
0001
0100
0010
1000
0100
0010
0001
,
0200
0000
0000
0000
0000
0000
0300
0000
0000
0202
0000
0000
0000
0000
0000
0303
0000
0000
2020
0000
0000
0000
0000
0000
3030
0000
0000
0000
0000
0000
0010
0000
1000
0000
0001
0000
1000
0000
0000
0001
0000
0000
0000
0000
0000
0010
0000
0000
,
0001
0100
0010
1000
0010
0100
0001
1000
0100
0010
0001
0100
0001
1000
0100
0010
0100
1000
0010
0100
0001
1000
0010
0100
,
0001
0010
0001
0100
0010
0100
0001
0010
0100
1000
0010
1000
0100
1000
0010
0100
,
0001
0010
0100
1000
0010
1000
0001
0010
0001
0100
0010
1000
0100
0010
0001
1000
,
0001
0010
0001
0100
0010
1000
0100
0010
0001
0100
0010
1000
0100
1000
0010
0100
0001
0010
0001
0100
0010
1000
0100
0010
,
0001
0100
0010
1000
0001
0100
0001
0010
0100
1000
0010
1000
0001
0010
0100
0010
0001
0100
0010
1000
0100
0010
0001
0100
,
0001
1000
0010
1000
0200
0000
0000
0000
0310
0001
0100
0010
2000
0000
0000
0000
,
3001
0010
0001
0100
0020
0000
0000
0000
1030
0100
0010
0001
0200
0000
0000
0000
,
0301
1000
0100
0010
0002
0000
0000
0000
1003
0010
1000
0100
0020
0000
0000
0000
,
0031
0100
0001
0010
0200
0000
0000
0000
1300
0010
1000
0100
0020
0000
0000
0000
,
0031
0010
0001
0100
0010
1000
0010
0100
0001
0010
0100
1000
0010
1000
0100
0010
,
0001
0100
0001
0010
0100
1000
0100
0010
0001
0100
0010
1000
0100
1000
0010
0100
,
0001
0010
0001
0100
0010
1000
0010
0100
0001
0010
0100
1000
0010
1000
0100
0010
,
0001
0100
0001
0010
0100
1000
0100
0010
0001
0100
0010
1000
0100
1000
0010
0100
,
0001
1000
0001
0010
0100
1000
0001
1000
0010
0100
0001
0010
0100
1000
0001
1000
0010
0100
0010
1000
0001
0010
0001
1000
,
0010
0100
0010
1000
0001
1000
0100
0010
0001
1000
0010
0100
0001
0100
0010
1000
0001
0010
0100
1000
0001
1000
0010
0100
,
0001
1000
0100
1000
0010
0100
0001
0010
0100
1000
0010
0100
0001
0100
0010
1000
0100
0010
0001
0100
0010
1000
0100
0010
,
0002
0000
0000
0000
,
2003
0000
3000
2200
0000
3300
0220
0000
0330
0000
0010
0000
0001
1000
0000
0001
,
0100
0010
1000
0100
0010
0001
0100
0010
1000
0100
0010
0001
0100
0010
1000
0100
0010
0001
0100
0010
1000
0100
0010
0001
,
0200
0000
0000
0000
0000
0000
0300
0000
0000
0202
0000
0000
0000
0000
0000
0303
0000
0000
2020
0000
0000
0000
0000
0000
3030
0000
0000
0000
0000
0000
0010
0000
1000
0000
0001
0000
1000
0000
0000
0001
0000
0000
0000
0000
0000
0010
0000
0000
,
0001
0100
0010
1000
0010
0100
0001
1000
0100
0010
0001
0100
0001
1000
0100
0010
0100
1000
0010
0100
0001
1000
0010
0100
,
0001
0010
0001
0100
0010
0100
0001
0010
0100
1000
0010
1000
0100
1000
0010
0100
,
0001
0010
0100
1000
0010
1000
0001
0010
0001
0100
0010
1000
0100
0010
0001
1000
,
0001
0010
0001
0100
0010
1000
0100
0010
0001
0100
0010
1000
0100
1000
0010
0100
0001
0010
0001
0100
0010
1000
0100
0010
,
0001
0100
0010
1000
0001
0100
0001
0010
0100
1000
0010
1000
0001
0010
0100
0010
0001
0100
0010
1000
0100
0010
0001
0100
,
0001
1000
0010
1000
0200
0000
0000
0000
0310
0001
0100
0010
2000
0000
0000
0000
,
3001
0010
0001
0100
0020
0000
0000
0000
1030
0100
0010
0001
0200
0000
0000
0000
,
0301
1000
0100
0010
0002
0000
0000
0000
1003
0010
1000
0100
0020
0000
0000
0000
,
0031
0100
0001
0010
0200
0000
0000
0000
1300
0010
1000
0100
0020
0000
0000
0000
,
0032
0000
0000
0000
0000
0000
0000
0000
0000
0000
0000
0000
0000
0000
0000
0000
0000
0000
1003
0100
1000
0010
0100
0001
,
1000
0000
0000
0000
;
