#TITLE:Fama Tuba;
#SUBTITLE:;
#ARTIST:Helium Vola;
#TITLETRANSLIT:;
#SUBTITLETRANSLIT:;
#ARTISTTRANSLIT:;
#CREDIT:Arch0wl;
#BANNER:famatuba-bn.png;
#BACKGROUND:famatuba-bg.png;
#LYRICSPATH:;
#CDTITLE:!Arch0wlTitle.png;
#MUSIC:famatuba.ogg;
#OFFSET:-0.306;
#SAMPLESTART:56.100;
#SAMPLELENGTH:13.950;
#SELECTABLE:YES;
#BPMS:0.000=172.000;
#STOPS:;
#BGCHANGES:0.000=famatuba-bg.png=1.000=0=0=1,
99999=-nosongbg-=1.000=0=0=0 // don't automatically add -songbackground-
;
// cache tags:
#FIRSTBEAT:16.000;
#LASTBEAT:405.000;
#SONGFILENAME:Songs/Archmage and Dark0wl Hammer of Thor UltraHyperMegaPack/Fama Tuba/famatuba.sm;
#HASMUSIC:1;
#HASBANNER:1;
#MUSICLENGTH:105.000;
// end cache tags

//---------------dance-single - Arch0wl----------------
#NOTES:
     dance-single:
     Arch0wl:
     Hard:
     9:
     0.762,0.868,0.143,0.000,0.000,545.000,15.000,0.000,0.000,0.000:
0000
0000
0000
0000
,
0000
0000
0000
0000
,
0000
0000
0000
0000
,
0000
0000
0000
0000
,
1000
0010
1000
0010
1000
0010
1000
0010
,
0001
0010
0001
0010
0001
0010
0001
0010
,
0100
0010
0100
0010
0100
0010
0100
0010
,
1000
0100
1000
0001
1000
0100
1000
0001
,
0011
0000
0000
0100
,
1010
0000
0000
0100
,
1001
0000
0000
0100
,
1100
0100
0110
0010
,
0001
0100
0010
0100
0001
0100
0010
0100
,
0001
1000
0100
1000
0001
1000
0100
1000
,
0010
0100
1000
0100
0010
0100
1000
0100
,
0001
0010
0100
0010
0001
0100
0010
0100
,
0001
0010
1000
0010
0001
0010
1000
0010
,
0001
0100
1000
0100
0001
0100
1000
0100
,
0010
1000
0100
1000
0010
1000
0100
1000
,
0010
0100
1000
0100
0010
0001
0100
0001
,
0010
0010
1000
0100
0010
0010
0001
1000
,
0010
0010
1000
0100
0010
0010
0001
0100
,
0010
0010
1000
0100
0010
0010
0001
0100
,
0010
0010
1000
0100
0010
0010
0001
0100
,
0001
0010
0100
1000
0001
0010
0001
1000
,
0010
0100
0001
0010
0100
1000
0100
0010
,
0001
0100
0010
1000
0100
0001
0100
0010
,
0001
1000
0100
1000
0010
0100
0001
0100
,
0010
1000
0001
0100
0010
1000
0010
0100
,
0001
0010
0100
1000
0010
0100
0010
0001
,
1000
0100
0010
0001
1000
0100
0010
1000
,
0100
0010
0001
0010
0100
1000
0010
1000
,
0001
0100
1000
0100
0001
0010
1000
0010
,
0001
0100
0010
1000
0001
0010
0100
1000
,
0001
0100
1000
0100
0001
0010
1000
0010
,
0001
0100
0010
1000
0001
0010
0100
1000
,
1001
0000
0000
0000
,
0000
0000
0000
0000
,
0000
0000
0000
0000
,
0000
0000
0000
0000
,
1000
1000
1000
1000
,
0100
0000
0000
0100
0010
0000
0010
0000
,
0001
0001
0001
0001
,
0100
0000
0000
0100
0010
0000
0010
0000
,
0001
0001
0001
0001
,
0010
0000
0000
0010
1000
0000
1000
0000
,
0100
0100
0100
0100
,
0001
0000
0000
0100
0010
0000
0010
0000
,
0001
1000
1000
1000
,
0010
0000
0000
0100
0001
0000
0001
0000
,
1000
0000
0000
0001
0000
0100
0001
0000
,
0010
0000
0000
0100
0000
1000
0100
0000
,
0010
0000
0000
0001
0000
0100
0001
0000
,
0010
0000
0000
0100
0000
1000
0100
0000
,
1100
0000
0000
0010
,
1100
0000
0000
0001
,
1100
0000
0000
1100
,
0110
0011
1001
0101
,
1000
0010
0100
0010
1000
0010
0100
0010
,
1000
0001
0010
0001
1000
0001
0010
0001
,
0100
0010
0001
0010
0100
0010
0001
0010
,
1000
0100
0010
0100
1000
0010
0100
0010
,
1000
0100
0001
0100
1000
0100
0001
0100
,
1000
0010
0001
0010
1000
0010
0001
0010
,
0100
0001
0010
0001
0100
0001
0010
0001
,
0100
0010
0001
0010
0100
1000
0010
1000
,
0100
0100
0001
0010
0100
0100
1000
0001
,
0100
0100
0001
0010
0100
0100
1000
0010
,
0100
0100
0001
0010
0100
0100
1000
0010
,
0100
0100
0001
0010
0100
0100
1000
0010
,
1000
0100
0010
0001
1000
0100
1000
0001
,
0100
0010
1000
0100
0010
0001
0010
0100
,
1000
0010
0100
0001
0010
1000
0010
0100
,
1000
0001
0010
0001
0100
0010
1000
0010
,
0100
0001
1000
0010
0100
0001
0100
0010
,
1000
0100
0010
0001
0100
0010
0100
1000
,
0001
0010
0100
1000
0001
0010
0100
0001
,
0010
0100
1000
0100
0010
0001
0100
0001
,
1000
0010
0001
0010
1000
0100
0001
0100
,
1000
0010
0100
0001
1000
0100
0010
0001
,
1000
0010
0001
0010
1000
0100
0001
0100
,
1000
0010
0100
0001
1000
0100
0010
0001
,
1001
0000
0000
0000
,
0000
0000
0000
0000
,
0000
0000
0000
0000
,
0000
0000
0000
0000
,
0001
0001
0001
0001
,
0010
0000
0000
0010
0100
0000
0100
0000
,
1000
1000
1000
1000
,
0010
0000
0000
0010
0100
0000
0100
0000
,
1000
1000
1000
1000
,
0100
0000
0000
0100
0001
0000
0001
0000
,
0010
0010
0010
0010
,
1000
0000
0000
0010
0100
0000
0100
0000
,
1000
0001
0001
0001
,
0100
0000
0000
0010
1000
0000
1000
0000
,
0001
0001
0001
0001
,
0000
0000
0000
0000
,
0001
0001
0001
0001
,
0000
0000
0000
0000
,
0000
0000
0000
0000
0000
0000
0000
1000
,
0100
0100
0000
0000
;

//---------------dance-single - Arch0wl----------------
#NOTES:
     dance-single:
     Arch0wl:
     Challenge:
     13:
     1.000,1.000,1.000,0.000,0.748,874.000,142.000,0.000,0.000,0.000:
0000
0000
0000
0000
,
0000
0000
0000
0000
,
0000
0000
0000
0000
,
0000
0000
0000
0000
,
1100
0010
1000
0110
1000
0110
1100
0010
,
0101
0010
0001
0110
0001
0110
0101
0010
,
1100
0010
0100
1010
0100
1010
1100
0010
,
1010
0100
1000
0011
1000
0110
1010
0001
,
0011
0000
0000
1000
0000
1000
0101
0000
,
1010
0000
0000
0001
0000
0001
0110
0000
,
1001
0000
0000
0010
0000
0010
0101
0000
,
1100
0101
0110
1010
,
1001
0100
0010
0100
0001
0100
0010
0100
,
0001
1000
0100
1000
0001
1000
0100
1000
,
0010
0100
1000
0100
0010
0100
1000
0100
,
0001
0010
0100
0010
0001
0100
1010
0100
,
1001
0010
1000
0010
0001
0010
1000
0010
,
0001
0100
1000
0100
0001
0100
1000
0100
,
0010
1000
0100
1000
0010
1000
0100
1000
,
0010
0100
1000
0100
0010
0001
0100
0001
,
0010
1000
0010
1000
0010
0001
0010
0100
0010
0001
0010
0100
0010
0001
0010
0100
,
0001
0010
0001
0010
0001
0100
0001
0010
0001
0100
0001
0010
0001
0100
0001
0010
,
0100
1000
0100
1000
0100
0010
0100
1000
0100
0010
0100
1000
0100
0010
0100
1000
,
0010
0001
0010
0001
0010
1000
0010
0100
0010
1000
0010
0100
0010
1000
0010
0100
,
1001
0010
0100
1000
0001
0010
0001
1000
,
0010
0100
0001
0010
0100
1000
0100
0010
,
0001
0100
0010
1000
0100
0001
0100
0010
,
0001
1000
0100
1000
0010
0100
1001
0100
,
0011
1000
0001
0100
0010
1000
0010
0100
,
0001
0010
0100
1000
0010
0100
0010
0001
,
1000
0100
0010
0001
1000
0100
0010
1000
,
0100
0010
0001
0010
0100
1000
0010
1000
,
0100
0010
0100
0010
0100
0001
0100
1000
0100
0001
0100
1000
0100
0001
0100
1000
,
0010
0001
0010
0001
0010
1000
0010
0100
0010
1000
0010
0100
0010
1000
0010
0100
,
0001
1000
0001
1000
0001
0100
0001
0010
0001
0100
0001
0010
0001
0100
0001
0010
,
0100
1000
0100
1000
0100
0010
0100
0001
0100
0010
0100
0001
0100
0010
0100
0001
,
0100
0000
1000
0000
0100
0010
0001
0100
0010
1000
0100
0000
1000
0000
0100
1000
,
0001
0000
0010
0000
0001
0000
0100
0010
1000
0000
0001
0000
0010
0000
0100
1000
,
0010
0000
0001
0000
0010
0100
0001
0010
0100
1000
0010
0000
0001
0000
0010
1000
,
0001
0000
0100
0000
0010
0000
1000
0001
0010
0000
0100
0000
1000
0000
0100
0000
,
1100
0010
1100
0010
1100
0010
1100
0001
,
0110
1000
0100
0011
1001
0010
1001
0010
,
0101
1000
0101
1000
0101
1000
0101
1000
,
0110
0001
0100
1001
1010
0100
1010
0100
,
1001
0010
1001
0010
1001
0010
1001
0010
,
0101
0010
0100
1001
1100
0010
1100
0001
,
0110
1000
0110
1000
0110
1000
0110
1000
,
0011
0100
1000
0101
0110
1000
0110
1000
,
0101
0010
0101
0010
0101
0010
0101
0010
,
1001
0100
0010
0101
0011
0100
0011
0100
,
1001
0000
0000
0000
0010
0100
1001
0000
0000
0000
0001
0000
0100
0000
0000
0000
,
0010
0000
0000
0000
0100
0001
1010
0000
0000
0000
0010
0000
0100
0000
0000
0000
,
0001
0000
0000
0000
1000
0010
0101
0000
0000
0000
0001
0000
0100
0000
0000
0000
,
0010
0000
0000
0000
1000
0001
0110
0000
0000
0000
0010
0000
0100
0000
0000
0000
,
1100
0000
0000
0000
0001
0100
0001
0000
0000
0000
0001
0000
0010
0000
0000
0000
,
1100
0000
0000
0000
0001
0100
0001
0000
0000
0000
0010
0000
0001
0000
0000
0000
,
1100
0000
0000
0000
0001
0100
0001
0000
0000
0000
0001
0000
1100
0000
0000
0000
,
0110
0011
1001
0101
,
1001
0010
0100
0010
1000
0010
0100
0010
,
1000
0001
0010
0001
1000
0001
0010
0001
,
0100
0010
0001
0010
0100
0010
0001
0010
,
1000
0100
0010
0100
1000
0010
0101
0010
,
1001
0100
0001
0100
1000
0100
0001
0100
,
1000
0010
0001
0010
1000
0010
0001
0010
,
0100
0001
0010
0001
0100
0001
0010
0001
,
0100
0010
0001
0010
0100
1000
0010
1000
,
0100
0001
0100
0001
0100
1000
0100
0010
0100
1000
0100
0010
0100
1000
0100
0010
,
1000
0100
1000
0100
1000
0010
1000
0100
1000
0010
1000
0100
1000
0010
1000
0100
,
0010
0001
0010
0001
0010
0100
0010
0001
0010
0100
0010
0001
0010
0100
0010
0001
,
0100
1000
0100
1000
0100
0001
0100
0010
0100
0001
0100
0010
0100
0001
0100
0010
,
1001
0100
0010
0001
1000
0100
1000
0001
,
0100
0010
1000
0100
0010
0001
0010
0100
,
1000
0010
0100
0001
0010
1000
0010
0100
,
1000
0001
0010
0001
0100
0010
1001
0010
,
1100
0001
1000
0010
0100
0001
0100
0010
,
1000
0100
0010
0001
0100
0010
0100
1000
,
0001
0010
0100
1000
0001
0010
0100
0001
,
0010
0100
1000
0100
0010
0001
0100
0001
,
0010
0100
0010
0100
0010
1000
0010
0001
0010
1000
0010
0001
0010
1000
0010
0001
,
0100
1000
0100
1000
0100
0001
0100
0010
0100
0001
0100
0010
0100
0001
0100
0010
,
1000
0001
1000
0001
1000
0010
1000
0100
1000
0010
1000
0100
1000
0010
1000
0100
,
0010
0001
0010
0001
0010
0100
0010
1000
0010
0100
0010
1000
0010
0100
0010
1000
,
0010
0000
0001
0000
0010
0100
1000
0010
0100
0001
0010
0000
0001
0000
0010
0001
,
1000
0000
0100
0000
1000
0000
0010
0100
0001
0000
1000
0000
0100
0000
0010
0001
,
0100
0000
1000
0000
0100
0010
1000
0100
0010
0001
0100
0000
1000
0000
0100
0001
,
1000
0000
0010
0000
0100
0000
0001
1000
0100
0000
0010
0000
0001
0000
0010
0000
,
0011
0100
0011
0100
0011
0100
0011
1000
,
0110
0001
0010
1100
1001
0100
1001
0100
,
1010
0001
1010
0001
1010
0001
1010
0001
,
0110
1000
0010
1001
0101
0010
0101
0010
,
1001
0100
1001
0100
1001
0100
1001
0100
,
1010
0100
0010
1001
0011
0100
0011
1000
,
0110
0001
0110
0001
0110
0001
0110
0001
,
1100
0010
0001
1010
0110
0001
0110
0001
,
1010
0100
1010
0100
1010
0100
1010
0100
,
1001
0010
0100
1010
1100
0010
1100
0010
,
1010
0100
1010
0100
1010
0100
1010
0000
,
0100
0000
0001
0100
0000
0100
0001
0000
,
1010
0100
1010
0100
1010
0100
1010
0000
,
0000
0000
0000
0000
,
0000
0000
0000
0000
0000
0000
0000
1010
,
1100
1100
0000
0000
;
