#TITLE:Highspeedstar;
#SUBTITLE:(Please Listen With X-Rated Videos Mix);
#ARTIST:VJOL;
#TITLETRANSLIT:;
#SUBTITLETRANSLIT:;
#ARTISTTRANSLIT:;
#CREDIT:;
#BANNER:please listen with bn.png;
#BACKGROUND:please listen with bg.png;
#LYRICSPATH:;
#CDTITLE:;
#MUSIC:Please Listen with X-Rated Videos Mix.ogg;
#OFFSET:0.009;
#SAMPLESTART:39.800;
#SAMPLELENGTH:15.919;
#SELECTABLE:YES;
#BPMS:0.000=241.205;
#STOPS:;
#BGCHANGES:;
// cache tags:
#FIRSTBEAT:0.000;
#LASTBEAT:472.250;
#SONGFILENAME:Songs/SHARPNELSTREAMZ v2/Highspeedstar (PLWXRVM)/plwxrvm.sm;
#HASMUSIC:1;
#HASBANNER:1;
#MUSICLENGTH:119.395;
// end cache tags

//---------------dance-single - 16- (Zaia)----------------
#NOTES:
     dance-single:
     16- (Zaia):
     Challenge:
     16:
     1.000,1.000,0.310,0.762,1.000,1057.000,37.000,91.000,0.000,2.000:
1000
0001
0010
0001
0100
0010
1000
0001
,
1000
0010
0100
0001
0100
0010
1000
0001
1000
0010
1000
0001
0100
0000
0000
0000
,
0001
1000
0100
1000
0001
0010
0001
1000
,
0001
1000
0100
1000
0001
0010
0100
1000
0001
1000
0100
1000
0001
0000
0010
0000
,
0001
1000
0001
0100
0010
1000
0100
1000
,
0010
0100
0001
1000
0100
0010
0100
1000
0001
0010
0001
1000
0001
0000
1000
0000
,
0001
1000
0001
0100
0001
0100
0001
0100
,
0001
1000
0010
1000
0001
1000
0100
0010
0001
1000
0001
1000
0001
1000
0001
0000
,
1000
0001
0100
0001
,
1000
0000
0001
0000
0100
0000
0001
0000
1000
0010
1000
0010
1000
0010
1000
0010
,
1000
0001
1000
0100
,
0010
0000
0100
0000
1000
0000
0001
0000
0100
0010
0100
0010
0100
0010
0100
0010
,
0100
0001
1000
0100
,
0010
0000
0100
0000
1000
0000
0001
0000
1000
0001
1000
0001
1000
0001
1000
0001
,
1000
0100
0010
0001
1000
0100
1000
0001
0010
0100
0010
0001
1000
0001
0100
0001
,
1000
0010
0100
0001
0100
0010
1000
0001
0100
0001
1000
0010
0100
0001
1000
0001
,
1000
0100
0010
0100
1000
0001
0010
0001
1000
0100
1000
0001
1000
0100
0010
0001
,
1000
0001
0100
0010
0100
0001
1000
0010
1000
0010
0100
0001
1000
0010
1000
0001
,
1000
0100
0010
0100
1000
0001
0010
0001
1000
0001
0010
0100
1000
0001
1000
0001
,
0100
0001
1000
0010
0100
0001
0100
0010
1000
0001
1000
0010
0100
0001
1000
0001
,
1000
0100
1000
0001
0010
0001
1000
0100
0010
0001
1000
0001
0010
0001
1000
0001
,
0100
0010
1000
0010
0100
0001
1000
0010
0100
0010
0100
0001
1000
0010
0100
0001
,
1000
0000
0000
0000
,
0000
0000
0000
0000
,
1010
0000
0010
1000
0100
0000
1000
0000
,
0001
0100
0010
0100
0001
0010
0100
0010
,
0001
0000
1000
0100
1000
0000
1000
0000
,
0010
0100
0001
0100
0010
1000
0001
1000
,
1000
0000
0001
1000
0001
0000
0010
0000
,
0100
1000
0010
0100
0001
1000
0100
0010
,
0100
0000
1000
0001
0100
0000
0100
0000
,
0010
0100
0001
0100
0010
1000
0001
0010
,
0010
0000
0100
1000
0001
0000
0100
0010
,
1000
0001
1000
0010
1000
0100
1000
0010
,
0100
0001
0010
0001
1000
0001
0010
0001
,
1000
0100
0010
0100
1000
0001
1000
0001
,
0202
0303
0000
0000
0220
0330
0000
0000
2020
3030
0000
0000
2002
3003
0000
0000
,
2200
3300
0000
0000
0022
0033
0000
0000
2200
3300
0000
0000
2002
3003
0000
0000
,
0202
0303
0000
0000
0220
0330
0000
0000
2002
3003
0000
0000
2200
3300
0000
0000
,
0011
0000
0000
0000
2002
3003
0000
0000
0220
0330
0000
0000
2002
3003
0000
0000
,
1000
0000
0100
0010
0100
1000
0001
0000
0001
0000
0100
0001
1000
0000
1000
0000
,
0100
0010
0001
0000
1000
0001
0010
0000
0010
0000
0100
1000
0001
0000
0001
0000
,
1000
0000
0001
0100
0001
0100
0010
0000
1000
0000
0001
1000
0010
0000
0010
0000
,
0100
0001
1000
0000
0001
1000
0100
0000
0010
0000
0001
0010
0100
0000
0100
0000
,
1000
0000
0001
0010
0001
1000
0100
0000
0100
0000
0010
0100
1000
0000
1000
0000
,
0001
1000
0010
0000
0100
0001
1000
0000
1000
0000
0001
0100
0010
0000
0010
0000
,
1000
0000
0001
0010
0001
0010
0100
0000
1000
0000
0001
1000
0100
0000
0100
0000
,
0010
0001
1000
0000
0001
0100
0010
0000
1000
0000
0010
0100
0001
0000
0001
0000
,
2200
3300
0000
0000
2002
3003
0000
0000
0202
0303
0000
0000
0220
0330
0000
0000
,
2020
3030
0000
0000
2002
3003
0000
0000
0202
0303
0000
0000
0022
0033
0000
0000
,
1000
0000
0100
0000
0010
0000
0100
0000
1000
0001
1000
0001
1000
0001
1000
0001
,
1000
0000
0010
0000
0100
0000
0010
0000
1000
0001
1000
0001
1000
0001
1000
0001
,
2000
3000
0001
0000
0200
0300
0001
0000
0020
0030
0001
0000
0200
0300
0001
0000
,
2000
3000
0010
0000
2000
3000
0100
0000
2000
3000
0010
0000
2000
3000
0100
0000
,
2000
3000
0001
0000
0020
0030
0001
0000
2000
3000
0010
0000
2000
3000
0001
0000
,
0100
0010
0100
0000
0001
1000
0001
0000
0100
0010
0100
0000
0001
1000
0001
0000
,
0100
0010
0100
0010
,
0100
0000
0001
0000
1000
0000
0100
0000
0010
0100
1000
0001
0100
0010
0100
0001
,
1000
0001
1000
0001
,
0100
0000
0010
0000
0100
0000
0001
0000
1000
0100
1000
0001
0010
0100
1000
0001
,
0100
0010
1000
0010
,
0100
0000
0001
0000
0100
0000
0010
0000
0100
0001
1000
0010
1000
0001
0100
0001
,
1000
0100
0010
0001
1000
0001
1000
0100
1000
0001
0100
0001
0100
0010
1000
0001
,
0010
0100
1000
0001
1000
0001
0100
0001
1000
0010
0100
0001
1000
0001
1000
0100
,
0010
0000
0010
0000
0100
0000
1000
0100
1000
0000
0001
0000
0100
0000
0001
0000
,
0010
0000
0010
0000
0100
0000
1000
0100
1000
0000
0001
0000
0010
0000
0010
0000
,
0001
0000
1000
0000
0010
0000
0100
0001
0100
0000
0010
0000
1000
0000
1000
0000
,
0100
0000
0010
0000
0100
0000
1000
0000
0001
0000
0100
0001
1000
0001
0100
0001
,
1000
0000
1000
0000
0001
0000
0010
0100
0010
0000
0001
0000
0100
0000
0100
0000
,
0010
0000
1000
0000
0001
0000
0010
0100
0010
0000
0100
0000
1000
0000
1000
0000
,
0100
0000
0010
0000
0100
0000
1000
0010
1000
0000
0001
0000
0010
0000
0010
0000
,
0100
0000
1000
0000
0001
0000
1000
0000
0100
0000
1000
0001
0100
0000
0001
0000
,
0200
0300
0001
0000
0020
0030
0001
0000
0200
0300
0001
0000
0020
0030
0001
0000
,
2000
3000
0100
0000
2000
3000
0010
0000
2000
3000
0100
0000
2000
3000
0010
0000
,
2000
3000
0100
0000
0020
0030
0100
0000
2000
3000
0100
0000
0020
0030
0100
0000
,
1100
0000
0000
0000
0101
0000
0000
0000
1000
0000
0010
0100
0010
1000
0010
0100
,
0001
0000
0100
0000
0001
0000
1000
0000
1100
0000
0100
0000
1000
0000
0001
0100
,
0010
0000
1000
0000
0001
0000
1000
0000
1010
0000
0010
0000
0100
0000
0001
1000
,
0100
0000
0010
0000
0001
0000
1000
0100
0010
0000
0100
0000
1000
0000
0001
0000
,
1001
0000
0000
0000
0001
0000
0100
0001
0100
0000
0001
1000
0100
1000
0001
1000
,
0100
0010
0100
0010
,
0001
0000
1000
0000
0100
0000
1000
0000
0001
0100
0010
1000
0010
0100
0001
1000
,
0010
1000
0001
1000
,
0100
0000
0010
0000
0100
0000
1000
0000
0001
1000
0001
0010
0100
1000
0001
0100
,
0010
0100
0001
0100
,
0010
0000
1000
0000
0001
0000
1000
0000
0100
1000
0001
0010
0100
0010
0001
1000
,
0010
0100
0001
0100
0010
1000
0001
0010
0001
1000
0010
1000
0001
0010
0100
1000
,
0001
1000
0100
0010
0001
1000
0010
0100
0001
1000
0010
1000
0001
0010
0100
1000
,
0004
0000
0000
0000
,
0000
0000
0000
0000
,
1003
0000
0010
0100
0010
1000
0001
0000
0001
0000
0010
0001
1000
0000
1000
0000
,
0010
0100
0001
0000
1000
0001
0100
0000
0100
0000
0010
1000
0001
0000
0001
0000
,
1000
0000
0001
0010
0001
0010
0100
0000
1000
0000
0001
1000
0100
0000
0100
0000
,
0010
0001
1000
0000
0001
1000
0010
0000
0100
0000
0001
0100
0010
0000
0010
0000
,
1000
0000
0001
0100
0001
1000
0010
0000
0010
0000
0100
0010
1000
0000
1000
0000
,
0001
1000
0100
0000
0010
0001
1000
0000
1000
0000
0001
0010
0100
0000
0100
0000
,
1000
0000
0001
0100
0001
0100
0010
0000
1000
0000
0001
1000
0010
0000
0010
0000
,
0100
0001
1000
0000
0001
0010
0100
0000
1000
0000
0100
0010
0001
0000
0001
0000
,
2000
3000
0010
0000
0200
0300
0010
0000
2000
3000
0010
0000
0200
0300
0001
0000
,
0020
0030
0100
0000
0020
0030
0001
0000
0020
0030
0100
0000
0020
0030
0001
0000
,
0200
0300
0010
0000
2000
3000
0010
0000
0200
0300
0001
0000
0020
0030
0100
0000
,
1100
1010
0101
0011
,
2000
3000
0010
0000
2000
3000
0100
0000
2000
3000
0010
0000
2000
3000
0001
0000
,
0020
0030
0001
0000
0200
0300
0001
0000
0020
0030
0001
0000
0200
0300
0010
0000
,
1000
0001
1000
0010
1000
0001
1000
0010
,
1000
0001
1000
0000
0001
0010
0001
0000
1000
0100
1000
0000
0001
0100
0001
0000
,
4000
0100
0000
0001
0000
0010
0000
0001
,
0000
0100
0000
0001
0000
0010
0000
0001
,
0000
0100
0000
0010
0000
0001
0000
0010
,
3000
0000
1111
0000
0000
1111
0000
0000
,
0001
0100
0001
1000
0001
0010
0001
0100
,
0001
1000
0001
0010
0001
0100
0001
1000
,
0010
1000
0001
1000
0100
1000
0010
1000
,
0001
1000
0100
1000
0010
1000
0001
1000
,
0001
0010
0100
0010
0001
0010
0100
0010
,
0001
0010
0100
0010
0001
0010
0100
0010
,
0001
1000
0010
0100
0010
1000
0010
0100
,
0001
0000
0001
0000
1000
0000
1000
0000
0100
0000
0100
0000
0010
0001
0010
0001
,
2000
3000
0000
0000
0000
0000
0000
0000
0000
0000
0000
0000
0000
0000
0000
0000
;

//---------------dance-single - 13 (Loak)----------------
#NOTES:
     dance-single:
     13 (Loak):
     Hard:
     13:
     1.000,1.000,0.419,0.997,0.712,824.000,50.000,119.000,1.000,0.000:
1001
0000
1000
0010
0000
1000
0100
0010
,
0001
1000
0001
1000
0001
1000
0001
1000
0001
1000
0010
0000
1000
0000
0000
0000
,
0101
0000
0001
0010
0000
0100
1000
0001
,
1000
0010
1000
0010
1000
0010
1000
0010
1000
0010
0100
0000
0001
0000
1000
0000
,
0001
0000
0100
0010
0000
1000
0001
0010
,
0100
1000
0100
1000
0100
1000
0100
1000
0001
0000
0010
0000
0001
0000
0010
0000
,
0100
1000
0001
1000
0010
0100
0001
1000
,
0001
0000
0010
0000
0100
0000
0010
0000
0001
1000
0001
1000
0001
1000
0001
0000
,
0100
0010
1000
0001
,
1000
0000
0001
0000
0010
0000
0001
0000
1000
0010
1000
0010
1000
0010
1000
0010
,
0100
0001
1000
0001
,
0010
0000
0100
0000
1000
0000
0001
0000
0100
0001
0100
0001
0100
0001
0100
0001
,
1000
0001
1000
0100
,
0010
0000
0100
0000
1000
0000
0001
0000
1000
0001
1000
0001
1000
0001
1000
0001
,
0400
0300
0040
0030
0400
0300
0004
0003
1000
0001
1000
0001
1000
0000
0400
0300
,
4000
3000
0004
0003
4000
3000
0040
0030
0100
0001
0100
0001
0100
0000
0004
0003
,
4000
3000
0004
0003
0040
0030
0004
0003
1000
0010
1000
0010
1000
0000
0004
0003
,
0040
0030
0400
0300
0040
0030
0004
0003
1000
0001
1000
0001
1000
0000
0040
0030
,
0400
0300
0040
0030
4000
3000
0004
0003
0010
0001
0010
0001
0010
0000
0004
0003
,
4000
3000
0040
0030
0400
0300
0004
0003
1000
0100
1000
0100
1000
0000
0004
0003
,
0400
0300
0040
0030
0400
0300
0004
0003
1000
0001
1000
0001
1000
0000
0400
0300
,
0040
0030
0004
0003
4000
3000
0004
0003
0100
0001
0100
0001
0100
0000
0040
0030
,
100M
0000
0000
0000
,
0000
0000
0000
0000
,
1001
0000
0001
1000
0010
0000
1000
0000
,
0001
0010
0100
0010
0001
0100
0010
1000
,
0001
0000
1000
0100
1000
0000
0001
0000
,
1000
0010
1000
0100
0010
0001
1000
0010
,
0010
0000
1000
0001
1000
0000
0100
0000
,
0010
0001
1000
0010
0100
0010
1000
0001
,
1000
0000
0001
0010
0100
0000
1000
0000
,
0001
0100
0001
1000
0010
1000
0001
0010
,
0010
0000
0100
1000
0001
0000
0100
0010
,
1000
0001
1000
0010
0100
0001
1000
0100
,
0010
0000
0001
1000
0010
0000
0100
0001
,
1000
0001
0010
0001
1000
0010
0100
0001
,
0202
0303
0000
0000
0220
0330
0000
0000
2020
3030
0000
0000
2002
3003
0000
0000
,
0022
0033
0000
0000
0220
0330
0000
0000
2200
3300
0000
0000
2002
3003
0000
0000
,
0202
0303
0000
0000
0220
0330
0000
0000
2020
3030
0000
0000
2200
3300
0000
0000
,
0044
0033
0000
0000
2002
3003
0000
0000
2020
3030
0000
0000
0202
0303
0000
0000
,
1000
0001
0010
0001
1000
0000
1000
0010
,
0100
0001
1000
0001
0010
0000
0010
0001
,
0100
0000
0100
0010
1000
0000
1000
0001
,
0100
0001
0010
0100
1000
0000
0001
0001
,
0100
0000
0100
0010
1000
0000
1000
0001
,
0010
0100
0010
0001
1000
0000
1000
0010
,
0100
0000
0100
0001
1000
0000
1000
0100
,
0010
0001
1000
0010
0100
0000
0001
0001
,
2002
3003
0000
0000
0022
0033
0000
0000
0220
0330
0000
0000
2200
3300
0000
0000
,
2002
3003
0000
0000
0202
0303
0000
0000
0220
0330
0000
0000
2020
3030
0000
0000
,
1000
0001
0100
0001
1000
0001
1000
0100
,
0010
0001
1000
0001
1000
0010
0100
0001
,
2002
3003
0000
0000
2200
3300
0000
0000
0220
0330
0000
0000
0022
0033
0000
0000
,
2002
3003
0000
0000
2020
3030
0000
0000
0220
0330
0000
0000
0202
0303
0000
0000
,
0001
1000
0100
1000
0001
0100
0001
1000
,
0010
1000
0010
0000
1000
0001
1000
0000
0001
0010
0001
0000
1000
0001
1000
0000
,
0001
1000
0001
1000
,
0001
0000
1000
0000
0010
0000
0100
0000
0001
0100
0001
0100
0001
0100
0001
0100
,
0010
1000
0001
0010
,
0100
0000
0010
0000
0100
0000
1000
0000
0001
0010
0001
0010
0001
0010
0001
0010
,
0100
1000
0001
1000
,
0001
0000
0100
0000
0001
0000
1000
0000
0001
1000
0001
1000
0001
1000
0001
1000
,
0040
0030
0400
0300
0004
0003
0400
0300
0010
1000
0010
1000
0010
0000
4000
3000
,
0004
0003
4000
3000
0004
0003
0040
0030
0100
1000
0100
1000
0100
0000
0040
0030
,
0001
1000
0010
0100
0001
1000
0001
0010
,
0100
1000
0001
1000
0001
0100
0010
1000
,
0001
0010
0100
0010
0001
1000
0001
0100
,
0010
0000
1000
0000
0001
0000
1000
0000
0100
0000
0010
0000
0001
1000
0001
1000
,
0001
0100
0010
1000
0001
1000
0100
0010
,
0001
0010
0001
1000
0010
1000
0001
0100
,
0010
1000
0001
1000
0001
0010
0100
1000
,
0001
0000
1000
0000
0010
0000
0100
0000
0001
0000
1000
0001
1000
0001
1000
0000
,
2002
3003
0000
0000
0022
0033
0000
0000
2020
3030
0000
0000
2002
3003
0000
0000
,
0202
0303
0000
0000
2200
3300
0000
0000
0220
0330
0000
0000
0022
0033
0000
0000
,
2002
3003
0000
0000
2020
3030
0000
0000
0220
0330
0000
0000
0202
0303
0000
0000
,
0001
0000
1000
0000
0001
0000
0010
0000
0000
0000
0001
1000
0001
1000
0001
1000
,
0010
0000
0000
0000
0100
0000
0001
0000
0010
0000
0001
0000
1000
0000
0001
0100
,
0001
0000
0000
0000
1000
0000
0100
0000
0010
0000
0100
0000
1000
0000
0001
1000
,
0001
0010
0001
1000
0001
0010
0001
1000
,
0010
0000
0000
0000
0100
0000
0001
0000
1000
0000
0001
0010
0001
0010
0001
0010
,
0100
1000
0001
1000
,
0010
0000
1000
0000
0001
0000
1000
0000
0010
1000
0010
1000
0010
1000
0010
1000
,
0001
1000
0100
1000
,
0001
0000
0100
0000
0001
0000
1000
0000
0100
1000
0100
1000
0100
1000
0100
1000
,
0001
0100
0010
0100
,
0001
0000
1000
0000
0001
0000
0100
0000
0010
1000
0010
1000
0010
1000
0010
1000
,
0004
0003
0040
0030
0004
0003
4000
3000
0010
1000
0010
1000
0010
0000
0400
0300
,
0004
0003
4000
3000
0004
0003
0040
0030
0100
1000
0100
1000
0100
0000
4000
3000
,
0002
0000
0000
0000
,
0000
0000
0000
0000
,
1003
0000
0001
0000
1000
0010
1000
0000
0002
0000
0000
0000
2003
0000
0000
0000
,
3100
0000
0010
0000
0001
0010
0001
0000
2000
0000
0000
0000
3020
0000
0000
0000
,
0130
0000
0001
0000
1000
0001
1000
0000
0001
0000
0010
0000
0100
1000
0100
0000
,
0010
0000
0001
0000
1000
0001
1000
0000
0020
0000
0000
0000
1030
0000
1000
0000
,
0002
0000
0000
0000
1003
0100
1000
0000
0200
0000
0000
0000
0320
0000
0000
0000
,
0031
0000
1000
0000
0010
0100
0010
0000
2000
0000
0000
0000
3002
0000
0000
0000
,
1003
0000
0100
0000
0010
0001
0010
0000
0001
0000
1000
0000
0001
0100
0001
0000
,
1000
0000
0010
0000
1000
0001
1000
0000
0002
0000
0000
0000
2003
0000
0000
0000
,
3002
0013
0002
1003
0020
0130
0020
1030
,
0002
0013
0002
1003
0200
0310
0200
1300
,
0002
1003
0002
1003
0020
0130
0020
0130
,
0001
0000
1000
0100
1000
0000
0004
0000
,
2003
3010
2000
3001
0020
0130
0020
0031
,
2000
3001
2000
3010
0200
0301
0200
0310
,
1000
0100
1000
0100
0010
0001
0010
0001
,
1000
0001
1000
0000
0010
0100
0010
0000
1000
0001
1000
0000
0100
0010
0100
0000
,
1000
0001
1000
0010
0100
0001
1000
0001
,
0010
0100
1000
0001
0100
0001
1000
0010
,
0100
0001
0100
0001
1000
0010
1000
0100
,
0010
0000
1001
0000
0000
0110
0000
0000
,
0001
0100
0001
0100
0001
0100
0001
0100
,
0001
0100
0001
0100
0001
0100
0001
0100
,
0010
1000
0010
1000
0010
1000
0010
1000
,
0010
1000
0010
1000
0010
1000
0010
1000
,
0001
0010
0001
0010
0001
0010
0001
0010
,
0001
0010
0001
0010
0001
0010
0001
0010
,
0100
1000
0100
1000
0100
1000
0100
1000
,
0001
0000
1000
0000
0001
0000
1000
0000
0001
0000
0100
0000
0001
1000
0001
1000
,
0100
0000
0000
0000
;

//---------------dance-single - 12 (Loak)----------------
#NOTES:
     dance-single:
     12 (Loak):
     Medium:
     12:
     1.000,1.000,0.293,0.930,0.603,629.000,35.000,111.000,0.000,0.000:
1001
0000
1000
0010
0000
1000
0100
0010
,
0004
4000
0000
0000
0000
0000
0000
0003
3000
0000
0010
0000
1000
0000
0000
0000
,
0101
0000
0001
0010
0000
0100
1000
0001
,
4000
0040
0000
0000
0000
0000
0000
3000
0030
0000
0100
0000
0001
0000
1000
0000
,
0001
0000
0100
0010
0000
1000
0001
0010
,
0400
4000
0000
0000
0000
0000
0000
0300
3001
0000
0010
0000
0001
0000
0010
0000
,
0100
1000
0001
1000
0010
0100
0001
1000
,
0001
0000
0010
0000
0100
0000
0010
0000
0001
1000
0001
1000
0001
1000
0001
0000
,
0100
0010
1000
0001
,
1000
0000
0001
0000
0010
0000
0001
0000
4000
0040
0000
0000
0000
0000
0000
3000
,
0130
0001
1000
0100
,
0010
0000
0001
0000
1000
0000
0010
0000
0400
0004
0000
0000
0000
0000
0000
0300
,
1003
0001
1000
0100
,
0010
0000
0100
0000
1000
0000
0001
0000
4000
0004
0000
0000
0000
0000
0000
3000
,
0403
0300
0040
0030
0400
0300
0004
0003
4000
3000
0004
0003
4000
3000
0400
0300
,
4000
3000
0004
0003
0400
0300
0040
0030
0400
0300
0004
0003
4000
3000
0004
0003
,
4000
3000
0004
0003
0040
0030
0004
0003
4000
3000
0040
0030
4000
3000
0004
0003
,
0040
0030
0400
0300
0040
0030
0004
0003
4000
3000
0004
0003
0400
0300
0040
0030
,
0400
0300
0040
0030
4000
3000
0004
0003
0040
0030
0400
0300
0040
0030
0004
0003
,
4000
3000
0040
0030
0400
0300
0004
0003
4000
3000
0040
0030
4000
3000
0004
0003
,
0040
0030
0400
0300
0040
0030
0004
0003
4000
3000
0004
0003
4000
3000
0040
0030
,
0400
0300
0004
0003
4000
3000
0004
0003
4000
3000
0400
0300
0040
0030
0004
0003
,
1000
0000
0000
0000
,
0000
0000
0000
0000
,
0001
0000
1000
0001
0100
0000
0001
0000
,
1000
0100
0010
0100
1000
0000
0001
1000
,
0010
0000
0100
0010
0100
0000
0001
0000
,
1000
0001
1000
0100
0010
0000
0001
1000
,
1000
0000
0001
1000
0001
0000
0100
0000
,
0010
1000
0001
0010
0100
0000
1000
0010
,
0100
0000
0001
1000
0100
0000
1000
0000
,
0001
0100
0001
1000
0010
0000
1000
0100
,
0100
0000
1000
0001
0100
0000
0001
0000
,
1000
0001
1000
0100
0010
0000
0001
1000
,
0010
0000
0100
0001
0100
0000
0001
0000
,
1000
0001
0100
0010
0100
0000
0001
1000
,
0020
0030
0000
0000
0220
0330
0000
0000
2000
3000
0000
0000
2002
3003
0000
0000
,
0002
0003
0000
0000
0022
0033
0000
0000
2000
3000
0000
0000
2020
3030
0000
0000
,
0002
0003
0000
0000
2200
3300
0000
0000
2000
3000
0000
0000
0202
0303
0000
0000
,
0044
0033
0000
0000
2002
3003
0000
0000
2000
3000
0000
0000
2020
3030
0000
0000
,
1000
0001
0010
0001
1000
0000
1000
0010
,
0100
0001
1000
0001
0010
0000
0010
0001
,
0100
0000
0100
0010
1000
0000
1000
0001
,
0100
0001
0010
0100
1000
0000
0001
0001
,
0100
0000
0100
0010
1000
0000
1000
0001
,
0010
0100
0010
0001
1000
0000
1000
0010
,
0100
0000
0100
0001
1000
0000
1000
0100
,
0010
0001
1000
0010
0100
0000
0001
0001
,
2000
3000
0000
0000
0022
0033
0000
0000
0002
0003
0000
0000
2200
3300
0000
0000
,
2000
3000
0000
0000
0202
0303
0000
0000
0020
0030
0000
0000
2020
3030
0000
0000
,
1000
0100
1000
0100
0010
0001
0010
0001
,
1000
0001
1000
0001
0100
0010
0100
0010
,
2000
3000
0000
0000
2200
3300
0000
0000
0002
0003
0000
0000
0202
0303
0000
0000
,
2000
3000
0000
0000
2020
3030
0000
0000
0200
0300
0000
0000
0202
0303
0000
0000
,
0001
1000
0100
1000
0001
0100
0001
1000
,
0010
1000
0010
0000
1000
0001
1000
0000
0001
0010
0001
0000
1000
0001
1000
0000
,
0001
1000
0001
1000
,
0001
0000
1000
0000
0010
0000
0100
0000
0004
0400
0000
0000
0000
0000
0000
0003
,
0310
1000
0001
0010
,
0100
0000
0010
0000
0100
0000
1000
0000
0004
0040
0000
0000
0000
0000
0000
0003
,
0130
1000
0001
1000
,
0010
0000
0100
0000
0001
0000
1000
0000
0004
4000
0000
0000
0000
0000
0000
0003
,
3040
0030
0400
0300
0004
0003
0400
0300
0040
0030
4000
3000
0040
0030
4000
3000
,
0004
0003
4000
3000
0004
0003
0040
0030
0400
0300
4000
3000
0400
0300
0040
0030
,
0001
0000
1000
0010
0200
0000
0302
0000
,
1003
0100
1000
0001
0020
0000
0032
0000
,
1003
0010
1000
0001
0200
0000
0320
0000
,
1030
0000
0001
0000
1000
0000
0100
0000
0020
0000
0000
0000
0031
1000
0001
1000
,
0001
0000
0100
0010
2000
0000
3002
0000
,
0013
0100
1000
0100
0020
0000
0032
0000
,
1003
0010
1000
0001
0020
0000
0230
0000
,
1300
0000
0001
0000
0100
0000
0010
0000
0100
0000
0001
1000
0001
1000
0001
0000
,
2000
3000
0000
0000
0022
0033
0000
0000
2000
3000
0000
0000
2002
3003
0000
0000
,
0002
0003
0000
0000
2020
3030
0000
0000
0200
0300
0000
0000
2002
3003
0000
0000
,
0002
0003
0000
0000
2020
3030
0000
0000
2000
3000
0000
0000
0202
0303
0000
0000
,
0001
0000
1000
0000
0001
0000
0010
0000
0000
0000
0001
1000
0001
1000
0001
1000
,
0010
0000
0000
0000
0100
0000
0001
0000
0010
0000
0001
0000
1000
0000
0001
0100
,
0001
0000
0000
0000
1000
0000
0100
0000
0010
0000
0100
0000
1000
0000
0001
1000
,
0001
0010
0001
1000
0001
0010
0001
1000
,
0010
0000
0000
0000
0100
0000
0001
0000
1000
0000
0001
0010
0001
0010
0001
0010
,
0100
1000
0001
1000
,
0010
0000
0100
0000
0001
0000
1000
0000
0004
0040
0000
0000
0000
0000
0000
0003
,
0130
1000
0001
1000
,
0010
0000
0100
0000
0001
0000
1000
0000
0400
4000
0000
0000
0000
0000
0000
0300
,
3001
0100
0010
0100
,
0001
0000
1000
0000
0001
0000
0100
0000
0040
4000
0000
0000
0000
0000
0000
0030
,
3004
0003
0040
0030
0004
0003
4000
3000
0040
0030
4000
3000
0004
0003
0400
0300
,
0004
0003
4000
3000
0004
0003
0040
0030
0400
0300
4000
3000
0004
0003
0400
0300
,
0002
0000
0000
0000
,
0000
0000
0000
0000
,
1003
0000
0001
0000
1000
0010
1000
0000
0002
0000
0000
0000
2003
0000
0000
0000
,
3100
0000
0010
0000
0001
0010
0001
0000
2000
0000
0000
0000
3020
0000
0000
0000
,
0130
0000
0001
0000
1000
0001
1000
0000
0001
0000
0010
0000
0100
1000
0100
0000
,
0010
0000
0001
0000
1000
0001
1000
0000
0020
0000
0000
0000
1030
0000
1000
0000
,
0002
0000
0000
0000
1003
0100
1000
0000
0200
0000
0000
0000
0320
0000
0000
0000
,
0031
0000
1000
0000
0010
0100
0010
0000
2000
0000
0000
0000
3002
0000
0000
0000
,
1003
0000
0100
0000
0010
0001
0010
0000
0001
0000
1000
0000
0001
0100
0001
0000
,
1000
0000
0010
0000
1000
0001
1000
0000
0002
0000
0000
0000
2003
0000
0000
0000
,
3002
0013
0002
1003
0020
0130
0020
1030
,
0002
0013
0002
1003
0200
0310
0200
1300
,
0002
1003
0002
1003
0020
0130
0020
0130
,
0001
0000
1000
0100
1000
0000
0004
0000
,
2003
3010
2000
3001
0020
0130
0020
0031
,
2000
3001
2000
3010
0200
0301
0200
0310
,
1000
0100
1000
0100
0010
0001
0010
0001
,
1000
0001
1000
0000
0010
0100
0010
0000
1000
0001
1000
0000
0100
0010
0100
0000
,
1000
0001
1000
0010
,
0100
0001
1000
0001
,
0010
0100
1000
0001
,
0100
0000
1001
0000
0000
0110
0000
0000
,
0001
0100
0001
0100
0001
0100
0001
0100
,
0001
0100
0001
0100
0001
0100
0001
0100
,
0010
1000
0010
1000
0010
1000
0010
1000
,
0010
1000
0010
1000
0010
1000
0010
1000
,
0001
0010
0001
0010
0001
0010
0001
0010
,
0001
0010
0001
0010
0001
0010
0001
0010
,
0100
1000
0100
1000
0100
1000
0100
1000
,
0001
0000
1000
0000
0001
0000
1000
0000
0001
0000
0100
0000
0001
1000
0001
1000
,
0100
0000
0000
0000
;

//---------------dance-single - 10 (Loak)----------------
#NOTES:
     dance-single:
     10 (Loak):
     Easy:
     10:
     0.915,1.000,0.117,0.737,0.017,650.000,14.000,88.000,0.000,0.000:
0001
0000
1000
0010
0000
1000
0100
0010
,
0004
0000
0000
0000
0003
1000
1000
0000
,
0001
0000
1000
0010
0000
0100
0001
1000
,
0040
0000
0000
0000
0030
0100
0001
1000
,
0001
0000
0010
0100
0000
1000
0001
0100
,
0040
0000
0000
0030
1000
0001
0100
0001
,
0010
0100
0010
0001
1000
0001
0100
0010
,
1000
0010
1000
0001
0040
0000
0000
0000
,
0130
0010
0001
1000
,
0001
1000
0010
1000
0004
0000
0000
0000
,
0103
0001
1000
0100
,
0010
0001
1000
0010
0400
0000
0000
0000
,
0301
1000
0001
0010
,
0100
0010
0001
1000
0004
0000
0000
0000
,
1003
0010
1000
0010
1000
0001
0010
0001
,
0010
0100
0010
0001
1000
0001
0100
0001
,
0100
0010
1000
0001
1000
0010
1000
0001
,
0010
0100
0010
0001
1000
0001
0100
0010
,
0100
0010
1000
0001
1000
0100
0010
0001
,
1000
0001
0100
0001
1000
0010
1000
0001
,
0010
0100
0010
0001
1000
0001
1000
0010
,
0100
0001
1000
0001
1000
0100
0010
0001
,
1000
0000
0000
0000
,
0000
0000
0000
0000
,
0001
0000
1000
0001
0100
0000
0001
0000
,
1000
0100
0010
0100
1000
0000
0001
1000
,
0010
0000
0100
0010
0100
0000
0001
0000
,
1000
0001
1000
0100
0010
0000
0001
1000
,
1000
0000
0001
1000
0001
0000
0100
0000
,
0010
1000
0001
0010
0100
0000
1000
0010
,
0100
0000
0001
1000
0100
0000
1000
0000
,
0001
0100
0001
1000
0010
0000
1000
0100
,
0100
0000
1000
0001
0100
0000
0001
0000
,
1000
0001
1000
0100
0010
0000
0001
1000
,
0010
0000
0100
0001
0100
0000
0001
0000
,
1000
0001
0100
0010
0100
0000
0001
1000
,
0020
0030
0000
0000
0200
0300
0000
0000
0002
0003
0000
0000
2000
3000
0000
0000
,
0002
0003
0000
0000
0020
0030
0000
0000
0200
0300
0000
0000
2000
3000
0000
0000
,
0002
0003
0000
0000
2000
3000
0000
0000
0020
0030
0000
0000
0200
0300
0000
0000
,
4004
3003
0000
0000
0002
0003
0000
0000
2000
3000
0000
0000
0020
0030
0000
0000
,
1000
0001
0010
0001
1000
0000
1000
0010
,
0100
0001
1000
0001
0010
0000
0010
0001
,
0100
0000
0100
0010
1000
0000
1000
0001
,
0100
0001
0010
0100
1000
0000
0001
0001
,
0100
0000
0100
0010
1000
0000
1000
0001
,
0010
0100
0010
0001
1000
0000
1000
0010
,
0100
0000
0100
0001
1000
0000
1000
0100
,
0010
0001
1000
0010
0100
0000
0001
0001
,
2000
3000
0000
0000
0002
0003
0000
0000
0200
0300
0000
0000
0020
0030
0000
0000
,
2000
3000
0000
0000
0002
0003
0000
0000
0020
0030
0000
0000
0200
0300
0000
0000
,
1000
0100
1000
0100
0010
0001
0010
0001
,
1000
0001
1000
0001
0100
0010
0100
0010
,
2000
3000
0000
0000
0002
0003
0000
0000
0020
0030
0000
0000
0002
0003
0000
0000
,
2000
3000
0000
0000
0020
0030
0000
0000
0200
0300
0000
0000
0002
0003
0000
0000
,
1000
0001
0010
0001
1000
0010
1000
0001
,
4000
3000
0004
0003
4000
3000
0004
0003
,
1000
0010
1000
0100
,
0010
0001
1000
0010
0400
0000
0000
0000
,
0310
1000
0001
0010
,
0100
0010
0100
1000
0004
0000
0000
0000
,
0103
0010
1000
0001
,
0010
0100
1000
0001
4000
0000
0000
0000
,
3010
0100
0001
0100
0010
1000
0010
1000
,
0001
1000
0001
0010
0100
1000
0100
0010
,
0001
0000
1000
0010
0200
0000
0302
0000
,
1003
0100
1000
0001
0020
0000
0032
0000
,
1003
0000
0001
1000
0200
0000
0320
0000
,
0031
1000
0001
0100
0020
0000
4030
0000
,
3001
0000
0010
0100
2000
0000
3002
0000
,
0103
0010
1000
0010
0200
0000
0302
0000
,
1003
0000
0001
1000
0020
0000
0230
0000
,
0301
1000
0100
0010
0100
0000
4000
0000
,
0002
3003
0000
0000
0020
0030
0000
0000
0002
0003
0000
0000
2000
3000
0000
0000
,
0020
0030
0000
0000
2000
3000
0000
0000
0002
0003
0000
0000
0200
0300
0000
0000
,
0002
0003
0000
0000
0020
0030
0000
0000
0200
0300
0000
0000
2000
3000
0000
0000
,
0001
0000
1000
0010
0100
0000
0100
0000
,
0001
0000
1000
0001
0010
0001
1000
0000
,
0010
0000
0100
0001
1000
0001
0010
0000
,
0001
0000
1000
0010
0100
0010
1000
0000
,
0001
0000
0100
0001
1000
0000
0004
0000
,
1003
0001
1000
0001
,
0100
0010
1000
0001
0040
0000
0000
0000
,
0130
1000
0001
1000
,
0010
0100
0001
1000
0400
0000
0000
0000
,
1300
0001
0100
0001
,
1000
0001
1000
0010
0400
0000
0000
0000
,
0301
0010
0001
1000
0010
1000
0001
0100
,
0001
1000
0001
0010
0100
1000
0001
0100
,
0002
0000
0000
0000
,
0000
0000
0000
0000
,
1003
0000
0001
1000
0020
0000
2030
0000
,
3100
0010
0001
1000
0002
0000
0203
0000
,
0310
0000
0010
1000
0100
0000
0100
0010
,
0001
1000
0010
0100
0020
0000
1030
0000
,
0002
0000
1003
0010
0200
0000
0302
0000
,
1003
0001
0010
0001
0100
0000
0002
0000
,
1003
0000
1000
0010
0100
0000
0100
0001
,
1000
0001
1000
0001
0020
0000
0230
0000
,
2300
3001
2000
3001
0200
0310
0200
0310
,
2000
3001
2000
3001
0020
0130
0020
0130
,
2000
3001
2000
3001
0200
0310
0200
0310
,
1000
0000
0001
0010
0001
0000
4000
0000
,
3002
0103
0002
0103
2000
3010
2000
3010
,
0002
0013
0002
0013
0200
1300
0200
1300
,
0001
1000
0001
1000
0010
0100
0010
0100
,
0004
0003
4000
3000
0004
0003
4000
3000
,
0010
1000
0001
0010
,
0100
1000
0001
1000
,
0010
0100
0001
1000
,
0001
0000
0100
0000
0000
0010
0000
0000
,
1000
0010
1000
0010
1000
0010
1000
0010
,
1000
0010
1000
0010
1000
0010
1000
0010
,
0100
0001
0100
0001
0100
0001
0100
0001
,
0100
0001
0100
0001
0100
0001
0100
0001
,
1000
0100
1000
0100
1000
0100
1000
0100
,
1000
0100
1000
0100
1000
0100
1000
0100
,
0010
0001
0010
0001
0010
0001
0010
0001
,
1000
0000
0001
0000
1000
0000
0001
0000
1000
0000
0001
0000
1000
0001
1000
0001
,
1000
0000
0000
0000
;

//---------------dance-single - 5 (Loak)----------------
#NOTES:
     dance-single:
     5 (Loak):
     Beginner:
     5:
     0.380,0.445,0.000,0.000,0.000,318.000,0.000,0.000,0.000,0.000:
0001
0000
0000
0000
,
1000
1000
1000
0000
,
0010
0000
0000
0000
,
0100
0100
0100
0001
,
0001
0000
0000
0000
,
1000
1000
1000
0001
,
0100
0100
0010
0010
,
1000
1000
0001
0001
,
0010
0000
0000
0000
,
0001
0001
1000
1000
,
0010
0000
0000
0000
,
0100
0100
0001
0001
,
1000
0000
0000
0000
,
0001
0001
0010
0010
,
0100
1000
0100
1000
,
0001
1000
0001
1000
,
0001
0100
0001
0100
,
0010
0100
0010
0100
,
0001
1000
0001
1000
,
0001
0010
0001
0010
,
0100
1000
0100
1000
,
0001
1000
0001
1000
,
0010
0000
0000
0000
,
0000
0000
0000
0000
,
1000
0000
0001
0000
,
0010
0100
0010
0000
,
0001
0000
1000
0000
,
0010
0100
0010
0100
,
0001
0000
1000
0000
,
0001
0010
0001
0000
,
1000
0000
0010
0000
,
0100
0001
0100
0001
,
1000
0000
0001
0000
,
0010
0100
0010
0000
,
0001
0000
1000
0000
,
0010
0100
0010
0100
,
0001
0001
1000
1000
,
0100
0100
0010
0010
,
0001
0001
1000
1000
,
0010
0010
0100
0100
,
0001
0000
0000
0000
,
1000
0000
0000
0000
,
0100
0000
0010
0000
,
0001
0000
0000
0000
,
1000
0000
0000
0000
,
0010
0000
0000
0000
,
0100
0000
0001
0000
,
1000
0000
0000
0000
,
0001
0001
0010
0010
,
0100
0100
1000
1000
,
0001
0001
0001
0001
,
1000
1000
1000
1000
,
0010
0010
0100
0100
,
0001
0001
1000
1000
,
0100
0100
0100
0100
,
0010
0010
0010
0010
,
0001
0000
0000
0000
,
1000
0001
1000
0000
,
0010
0000
0000
0000
,
0100
0001
0100
0000
,
0001
0000
0000
0000
,
1000
0100
1000
0000
,
0001
0100
0001
0100
,
0010
1000
0010
1000
,
0001
0000
1000
0000
,
0100
0010
0100
0000
,
1000
0000
0001
0000
,
0100
0010
0100
0010
,
1000
0000
0001
0000
,
1000
0100
1000
0000
,
0001
0000
0100
0000
,
0010
1000
0010
1000
,
0001
0001
0100
0100
,
0010
0010
1000
1000
,
0001
0001
0001
0001
,
0010
0010
0010
0010
,
0100
0100
1000
1000
,
0001
0001
0010
0010
,
0001
0001
0001
0001
,
1000
1000
1000
1000
,
0010
0000
0000
0000
,
0100
0001
0100
0000
,
0010
0000
0000
0000
,
1000
0001
1000
0000
,
0100
0000
0000
0000
,
0010
0001
0010
0000
,
0001
1000
0001
1000
,
0010
1000
0010
1000
,
0001
0000
0000
0000
,
0000
0000
0000
0000
,
1000
0000
0000
0000
,
0001
0000
0000
0000
,
0100
0000
0010
0000
,
1000
0000
0000
0000
,
0001
0000
0000
0000
,
1000
0000
0000
0000
,
0100
0000
0010
0000
,
0001
0000
0000
0000
,
1000
1000
1000
1000
,
0010
0010
0010
0010
,
0100
0100
0001
0001
,
1000
1000
0001
0001
,
0010
0010
0010
0010
,
0100
0100
0100
0100
,
1000
1000
0001
0001
,
0100
0100
0010
0010
,
1000
0000
0000
0000
,
0000
0000
0000
0000
,
0000
0000
0000
0000
,
0000
0000
0001
0000
0000
0001
0000
0000
,
1000
0000
0001
0000
,
1000
0000
0001
0000
,
0100
0000
0010
0000
,
0100
0000
0010
0000
,
1000
0000
0001
0000
,
1000
0000
0001
0000
,
0010
0000
0100
0000
,
0010
0000
0100
0000
,
1000
0000
0000
0000
;
