#TITLE:Poker Face;
#SUBTITLE:Sexuality Violation;
#ARTIST:Lady Gaga;
#TITLETRANSLIT:;
#SUBTITLETRANSLIT:;
#ARTISTTRANSLIT:;
#CREDIT:;
#BANNER:Poker Face-bn.png;
#BACKGROUND:Poker Face-bg.png;
#LYRICSPATH:;
#CDTITLE:GazeboCD.png;
#MUSIC:Poker Face.ogg;
#OFFSET:-0.163;
#SAMPLESTART:56.642;
#SAMPLELENGTH:24.168;
#SELECTABLE:YES;
#BPMS:0.000=238.000;
#STOPS:;
#BGCHANGES:;
// cache tags:
#FIRSTBEAT:16.000;
#LASTBEAT:832.000;
#SONGFILENAME:Songs/Sexuality Violation 2/Poker Face - [Gazebo]/Poker Face.sm;
#HASMUSIC:1;
#HASBANNER:1;
#MUSICLENGTH:211.694;
// end cache tags

//---------------dance-single - Gazebo----------------
#NOTES:
     dance-single:
     Gazebo:
     Challenge:
     17:
     1.000,1.000,0.071,0.548,1.000,1791.000,15.000,116.000,20.000,0.000:
0000
0000
0000
0000
,
0000
0000
0000
0000
,
0000
0000
0000
0000
,
0000
0000
0000
0000
,
0001
0001
0100
0100
,
0010
0010
1000
1000
,
0001
0001
1000
0100
,
0010
0001
0001
0001
,
1000
1000
0010
0010
,
0100
0100
0001
0001
,
1000
1000
0001
0010
,
0100
1000
1000
1000
,
0001
0001
0100
0100
,
0010
0010
1000
1000
,
0001
0001
1000
0100
,
0010
0001
0001
0001
,
4000
0000
3040
0000
,
0430
0000
0340
0000
,
4030
0000
3004
0000
,
0023
0230
0320
0230
,
4300
0000
3004
0000
,
0403
0000
0304
0000
,
4003
0000
3400
0000
,
0320
0032
0023
0032
,
1MM3
0000
0000
0000
0001
1000
0001
0000
0100
0001
0100
0000
0010
1000
0010
0000
,
1000
0001
1000
0000
0001
0010
0001
0000
1000
0100
1000
0000
0001
0100
0001
0000
,
0100
0010
0100
0000
0010
1000
0010
0000
1000
0001
1000
0000
0001
0010
0001
0000
,
1000
1000
1001
1000
,
0001
0100
0001
0000
1000
0001
1000
0000
0010
1000
0010
0000
0100
0001
0100
0000
,
0001
1000
0001
0000
1000
0100
1000
0000
0001
0010
0001
0000
1000
0010
1000
0000
,
0010
0100
0010
0000
0100
0001
0100
0000
0001
1000
0001
0000
1000
0100
1000
0000
,
0001
4000
0000
0000
,
3010
0100
0010
0000
1000
0001
1000
0000
0001
0010
0001
0000
1000
0001
1000
0000
,
0010
1000
0010
0000
1000
0001
1000
0000
0001
0010
0001
0000
1000
0001
1000
0000
,
0010
1000
0010
0000
1000
0001
1000
0000
0001
0010
0001
0000
0010
0100
0010
0000
,
0002
0203
0302
0203
,
0310
1000
0010
0000
1000
0001
1000
0000
0100
1000
0100
0000
0010
0001
0010
0000
,
0001
1000
0001
0000
1000
0010
1000
0000
0001
0100
0001
0000
1000
0100
1000
0000
,
0100
0010
0100
0000
0010
0001
0010
0000
0001
1000
0001
0000
1000
0010
1000
0000
,
0002
0203
0302
0203
,
0340
0000
0000
0000
0000
0000
0000
0000
0100
0000
0030
0000
1000
0001
1000
0001
,
0010
0100
1000
0001
1000
0001
0100
0010
1000
0000
0000
0000
0001
0000
0000
0000
,
0040
0000
0000
0000
0000
0000
0000
0000
0100
0000
0030
0000
0001
1000
0001
1000
,
0010
0100
0001
1000
0001
1000
0100
0010
0001
0010
0001
1000
0001
0100
0010
1000
,
0001
0000
0000
0000
1000
0010
1000
0000
0001
0100
0001
0000
1000
0001
1000
0000
,
0001
0000
0000
0000
0010
0000
0000
0000
0011
0000
0000
0000
0001
1000
0001
0000
,
1000
0100
1000
0000
0001
0010
0001
0000
1000
0000
0000
0000
0001
0000
0000
0000
,
2000
3020
2030
3020
,
0430
0000
0000
0000
0000
0000
0000
0000
0010
0000
0300
0000
1000
0001
1000
0001
,
0100
0010
1000
0001
1000
0001
0010
0100
1000
0000
0000
0000
0001
0000
0000
0000
,
0400
0000
0000
0000
0000
0000
0000
0000
0010
0000
0300
0000
0001
1000
0001
1000
,
0100
0010
0001
1000
0001
1000
0010
0100
0001
0100
0001
1000
0001
0010
0100
1000
,
0001
0000
0000
0000
1000
0100
1000
0000
0001
0010
0001
0000
1000
0001
1000
0000
,
0001
0000
0000
0000
0100
0000
0000
0000
0101
0000
0000
0000
0001
1000
0001
0000
,
1000
0010
1000
0000
0001
0100
0001
0000
2000
0000
0000
0000
0002
0000
0000
0000
,
0000
0000
3003
0000
,
1000
0100
1000
0100
0010
0001
0010
0100
1000
0001
1000
0001
0100
0010
0100
0001
,
1000
0100
1000
0100
0010
0001
0010
0100
1000
0001
1000
0001
0100
0010
0100
0001
,
1000
0010
1000
0001
0100
0001
1000
0001
1000
0010
0100
0001
1000
0001
0010
0100
,
1000
0001
0010
0001
1000
0100
1000
0001
0010
0100
0010
0001
1000
0100
1000
0001
,
0100
0001
1000
0010
1000
0010
0100
0001
1000
0100
1000
0001
0010
0100
1000
0001
,
1000
0001
0010
0001
1000
0100
1000
0001
0010
0001
1000
0100
0010
0001
1000
0001
,
2000
3020
0230
0302
,
2003
3020
0230
0302
,
1003
0100
1000
0100
0010
0001
0010
0100
1000
0001
1000
0001
0100
0010
0100
0001
,
1000
0100
1000
0100
0010
0001
0010
0100
1000
0001
1000
0001
0100
0010
0100
0001
,
1000
0010
1000
0001
0100
0001
1000
0001
1000
0010
0100
0001
1000
0001
0010
0100
,
1000
0001
0010
0001
1000
0100
1000
0001
0010
0100
0010
0001
1000
0100
1000
0001
,
0100
0001
1000
0010
1000
0010
0100
0001
1000
0100
1000
0001
0010
0100
1000
0001
,
1000
0001
0010
0001
1000
0100
1000
0001
0010
0001
1000
0100
0010
0001
1000
0001
,
2000
3020
0230
0302
,
2003
3020
0230
0302
,
1MM3
0000
0000
0000
0001
0010
0001
0000
1000
0100
1000
0000
0001
0010
0001
0000
,
0100
0001
0100
0000
0010
0100
0010
0000
1000
0001
1000
0000
0001
0010
0001
0000
,
1000
0100
1000
0000
0010
1000
0010
0000
1000
0001
1000
0000
0001
0000
0000
0000
,
0010
0100
0100
0100
,
0100
0000
0000
0000
1000
0010
1000
0000
0001
0100
0001
0000
1000
0010
1000
0000
,
0100
1000
0100
0000
0010
0100
0010
0000
0001
1000
0001
0000
1000
0010
1000
0000
,
0001
0100
0001
0000
0010
0001
0010
0000
0001
1000
0001
0000
1000
0000
0000
0000
,
0010
0100
0100
0100
,
M1M1
0000
0000
0000
0001
1000
0001
0000
0100
0001
0100
0000
0010
1000
0010
0000
,
1000
0001
1000
0000
0001
0010
0001
0000
1000
0100
1000
0000
0001
0100
0001
0000
,
0100
0010
0100
0000
0010
1000
0010
0000
1000
0001
1000
0000
0001
0010
0001
0000
,
1000
0001
1000
0000
0001
0000
0000
0000
1001
0000
0000
0000
0001
0000
0000
0000
,
0100
0000
0000
0000
0001
1000
0001
0000
0010
0001
0010
0000
0100
1000
0100
0000
,
1000
0001
1000
0000
0001
0100
0001
0000
1000
0010
1000
0000
0001
0010
0001
0000
,
0010
0100
0010
0000
0100
1000
0100
0000
1000
0001
1000
0000
0001
0100
0001
0000
,
1000
0004
1000
0000
,
1003
0000
0000
0000
0001
1000
0001
0000
1000
0010
1000
0000
0001
1000
0001
0000
,
0010
0001
0010
0000
0001
1000
0001
0000
1000
0010
1000
0000
0001
1000
0001
0000
,
0010
0001
0010
0000
0001
1000
0001
0000
1000
0010
1000
0000
0010
0100
0010
0000
,
2000
3200
2300
3200
,
0310
0001
0010
0000
0001
1000
0001
0000
0100
0001
0100
0000
0010
1000
0010
0000
,
1000
0001
1000
0000
0001
0010
0001
0000
1000
0100
1000
0000
0001
0100
0001
0000
,
0100
0010
0100
0000
0010
1000
0010
0000
1000
0001
1000
0000
0001
0010
0001
0000
,
2000
3200
2300
3200
,
0340
0000
0000
0000
0000
0000
0000
0000
0100
0000
0030
0000
0001
1000
0001
1000
,
0010
0100
0001
1000
0001
1000
0100
0010
0001
0000
0000
0000
1000
0000
0000
0000
,
0040
0000
0000
0000
0000
0000
0000
0000
0100
0000
0030
0000
1000
0001
1000
0001
,
0010
0100
1000
0001
1000
0001
0100
0010
1000
0010
1000
0001
1000
0100
0010
0001
,
1000
0000
0000
0000
0001
0010
0001
0000
1000
0100
1000
0000
0001
1000
0001
0000
,
1000
0000
0000
0000
0010
0000
0000
0000
1010
0000
0000
0000
1000
0001
1000
0000
,
0001
0100
0001
0000
1000
0010
1000
0000
0001
0000
0000
0000
1000
0000
0000
0000
,
0002
0023
0032
0023
,
0430
0000
0000
0000
0000
0000
0000
0000
0010
0000
0300
0000
0001
1000
0001
1000
,
0100
0010
0001
1000
0001
1000
0010
0100
0001
0000
0000
0000
1000
0000
0000
0000
,
0400
0000
0000
0000
0000
0000
0000
0000
0010
0000
0300
0000
1000
0001
1000
0001
,
0100
0010
1000
0001
1000
0001
0010
0100
1000
0100
1000
0001
1000
0010
0100
0001
,
1000
0000
0000
0000
0001
0100
0001
0000
1000
0010
1000
0000
0001
1000
0001
0000
,
1000
0000
0000
0000
0100
0000
0000
0000
1100
0000
0000
0000
1000
0001
1000
0000
,
0001
0010
0001
0000
1000
0100
1000
0000
0002
0000
0000
0000
2000
0000
0000
0000
,
0000
0000
3003
0000
,
0001
0100
0001
0100
0010
1000
0010
0100
0001
1000
0001
1000
0100
0010
0100
1000
,
0001
0100
0001
0100
0010
1000
0010
0100
0001
1000
0001
1000
0100
0010
0100
1000
,
0001
0010
0001
1000
0100
1000
0001
1000
0001
0010
0100
1000
0001
1000
0010
0100
,
0001
1000
0010
1000
0001
0100
0001
1000
0010
0100
0010
1000
0001
0100
0001
1000
,
0100
1000
0001
0010
0001
0010
0100
1000
0001
0100
0001
1000
0010
0100
0001
1000
,
0001
1000
0010
1000
0001
0100
0001
1000
0010
1000
0001
0100
0010
1000
0001
1000
,
0002
0023
0230
2300
,
3002
0023
0230
2300
,
3001
0100
0001
0100
0010
1000
0010
0100
0001
1000
0001
1000
0100
0010
0100
1000
,
0001
0100
0001
0100
0010
1000
0010
0100
0001
1000
0001
1000
0100
0010
0100
1000
,
0001
0010
0001
1000
0100
1000
0001
1000
0001
0010
0100
1000
0001
1000
0010
0100
,
0001
1000
0010
1000
0001
0100
0001
1000
0010
0100
0010
1000
0001
0100
0001
1000
,
0100
1000
0001
0010
0001
0010
0100
1000
0001
0100
0001
1000
0010
0100
0001
1000
,
0001
1000
0010
1000
0001
0100
0001
1000
0010
1000
0001
0100
0010
1000
0001
1000
,
0002
0023
0230
2300
,
3002
0023
0230
2300
,
3MM1
0000
0000
0000
1000
0010
1000
0000
0001
0100
0001
0000
1000
0010
1000
0000
,
0100
1000
0100
0000
0010
0100
0010
0000
0001
1000
0001
0000
1000
0010
1000
0000
,
0001
0100
0001
0000
0010
0001
0010
0000
0001
1000
0001
0000
1000
0000
0000
0000
,
0010
0100
0100
0100
,
0100
0000
0000
0000
0001
0010
0001
0000
1000
0100
1000
0000
0001
0010
0001
0000
,
0100
0001
0100
0000
0010
0100
0010
0000
1000
0001
1000
0000
0001
0010
0001
0000
,
1000
0100
1000
0000
0010
1000
0010
0000
1000
0001
1000
0000
0100
0000
0000
0000
,
0010
0001
0001
0001
,
4MM1
0000
0000
0000
0000
0000
0000
0000
0010
0000
3000
0000
0001
0100
0010
1000
,
0001
0010
0001
0010
0100
1000
0001
1000
0001
0100
0010
0100
0001
0100
0010
1000
,
0004
0000
0000
0000
0000
0000
0000
0000
0100
0000
0003
0000
1000
0100
0010
0001
,
1000
0010
0100
0010
1000
0001
0010
0100
0010
0001
1000
0100
1000
0001
0100
0010
,
4000
0000
0000
0000
0000
0000
0000
0000
0010
0000
3000
0000
0001
0100
0010
1000
,
0001
0010
0001
0010
0100
1000
0001
1000
0001
0100
0010
0100
0001
0100
0010
1000
,
0004
0000
0000
0000
0000
0000
0000
0000
0100
0000
0003
0000
1000
0100
0010
0001
,
1000
0010
0100
0010
1000
0001
0010
0100
1000
0000
0000
0000
1000
0000
0000
0000
,
MM11
0001
1000
1000
,
0010
0100
0001
0001
,
1000
0100
0010
0010
,
0001
1000
0000
0000
0001
0000
1000
0000
,
0010
0100
0001
0001
,
1000
0100
0010
0100
,
1000
0001
0100
0010
,
0100
0001
0010
0100
,
1MM1
1000
0001
0001
,
0100
0100
0010
0010
,
1000
0001
0010
0100
,
1000
1000
0001
0001
,
1000
0010
0100
0001
,
0010
0100
0010
0001
,
1000
0001
0000
0000
0100
0000
0010
0000
,
1000
0100
0010
0001
,
1MM1
2000
3020
0230
,
0300
0002
0023
0230
,
0300
0100
0100
1000
,
0100
0010
0001
0000
,
0002
0000
1000
2000
,
0000
0000
3003
0000
,
0002
0203
0320
2030
,
3002
0203
0320
2030
,
3001
0010
0001
0010
0100
1000
0100
0010
0001
1000
0001
1000
0010
0100
0010
1000
,
0001
0010
0001
0010
0100
1000
0100
0010
0001
1000
0001
1000
0010
0100
0010
1000
,
0001
0100
0001
1000
0010
1000
0001
1000
0001
0100
0010
1000
0001
1000
0100
0010
,
0001
1000
0100
1000
0001
0010
0001
1000
0100
0010
0100
1000
0001
0010
0001
1000
,
0010
1000
0001
0100
0001
0100
0010
1000
0001
0010
0001
1000
0100
0010
0001
1000
,
0001
1000
0100
1000
0001
0010
0001
1000
0100
1000
0001
0010
0100
1000
0001
1000
,
0002
0203
0320
2030
,
3002
0203
0320
2030
,
3001
0010
0001
0010
0100
1000
0100
0010
0001
1000
0001
1000
0010
0100
0010
1000
,
0001
0010
0001
0010
0100
1000
0100
0010
0001
1000
0001
1000
0010
0100
0010
1000
,
0001
0100
0001
1000
0010
1000
0001
1000
0001
0100
0010
1000
0001
1000
0100
0010
,
0001
1000
0100
1000
0001
0010
0001
1000
0100
0010
0100
1000
0001
0010
0001
1000
,
0010
1000
0001
0100
0001
0100
0010
1000
0001
0010
0001
1000
0100
0010
0001
1000
,
0001
1000
0100
1000
0001
0010
0001
1000
0100
1000
0001
0010
0100
1000
0001
1000
,
0002
0023
0230
2300
,
3002
0023
0230
2300
,
3001
0100
0001
0100
0010
1000
0010
0100
0001
1000
0001
1000
0100
0010
0100
1000
,
0001
0100
0001
0100
0010
1000
0010
0100
0001
1000
0001
1000
0100
0010
0100
1000
,
0001
0010
0001
1000
0100
1000
0001
1000
0001
0010
0100
1000
0001
1000
0010
0100
,
0001
1000
0010
1000
0001
0100
0001
1000
0010
0100
0010
1000
0001
0100
0001
1000
,
0100
1000
0001
0010
0001
0010
0100
1000
0001
0100
0001
1000
0010
0100
0001
1000
,
0001
1000
0010
1000
0001
0100
0001
1000
0010
1000
0001
0100
0010
1000
0001
1000
,
0002
0023
0230
2300
,
3002
0023
0230
2300
,
3MM1
0000
0000
0000
1000
0010
1000
0000
0001
0100
0001
0000
1000
0010
1000
0000
,
0100
1000
0100
0000
0010
0100
0010
0000
0001
1000
0001
0000
1000
0010
1000
0000
,
0001
0100
0001
0000
0010
0001
0010
0000
0001
1000
0001
0000
1000
0000
0000
0000
,
0010
0100
0101
0001
,
1000
0000
0000
0000
0001
0010
0001
0000
1000
0100
1000
0000
0001
0010
0001
0000
,
0100
0001
0100
0000
0010
0100
0010
0000
1000
0001
1000
0000
0001
0010
0001
0000
,
2000
3200
0320
0032
,
2003
3200
0320
0032
,
1MM3
0000
0000
0000
0001
0100
0001
0000
1000
0010
1000
0000
0001
0100
0001
0000
,
0010
0001
0010
0000
0100
0010
0100
0000
1000
0001
1000
0000
0001
0100
0001
0000
,
1000
0010
1000
0000
0100
1000
0100
0000
1000
0001
1000
0000
0001
0000
0000
0000
,
0100
0010
0010
0010
,
0010
0000
0000
0000
1000
0001
1000
0000
0001
0010
0001
0000
1000
0100
1000
0000
,
0010
1000
0010
0000
0100
0010
0100
0000
0001
1000
0001
0000
1000
0100
1000
0000
,
0001
0010
0001
0000
1000
0001
1000
0000
0010
1000
0010
0000
0100
0000
0000
0000
,
0001
1000
1000
1000
,
1000
0000
0000
0000
;

//---------------dance-single - Gazebo----------------
#NOTES:
     dance-single:
     Gazebo:
     Hard:
     15:
     0.913,1.000,0.071,0.548,0.699,1200.000,15.000,116.000,20.000,0.000:
0000
0000
0000
0000
,
0000
0000
0000
0000
,
0000
0000
0000
0000
,
0000
0000
0000
0000
,
0001
0001
0100
0100
,
0010
0010
1000
1000
,
0001
0001
1000
0100
,
0010
0001
0001
0001
,
1000
1000
0010
0010
,
0100
0100
0001
0001
,
1000
1000
0001
0010
,
0100
1000
1000
1000
,
0001
0001
0100
0100
,
0010
0010
1000
1000
,
0001
0001
1000
0100
,
0010
0001
0001
0001
,
4000
0000
3040
0000
,
0430
0000
0340
0000
,
4030
0000
3004
0000
,
0023
0230
0320
0230
,
4300
0000
3004
0000
,
0403
0000
0304
0000
,
4003
0000
3400
0000
,
0320
0032
0023
0032
,
1MM3
0001
0100
0010
,
0100
0001
1000
0001
,
0010
0100
1000
0001
,
1000
1000
1001
1000
,
0001
0100
0001
0100
,
0010
1000
0001
0010
,
0001
1000
0100
0010
,
0001
4000
0000
0000
,
3010
0100
0001
1000
,
0100
1000
0001
1000
,
0100
0010
0001
1000
,
0002
0203
0302
0203
,
0310
1000
0001
1000
,
0100
0010
0001
0010
,
0001
1000
0010
1000
,
0002
0203
0302
0203
,
0340
0000
0000
0000
0000
0000
0000
0000
0100
0000
0030
0000
1000
0001
1000
0001
,
0010
0100
1000
0001
1000
0001
0100
0010
1000
0000
0000
0000
0001
0000
0000
0000
,
0040
0000
0000
0000
0000
0000
0000
0000
0100
0000
0030
0000
0001
1000
0001
1000
,
0010
0100
0001
1000
0001
1000
0100
0010
0001
0010
0001
1000
0001
0100
0010
1000
,
0001
0100
0001
1000
,
0001
0010
0011
0001
,
1000
0100
0010
0001
,
2000
3020
2030
3020
,
0430
0000
0000
0000
0000
0000
0000
0000
0010
0000
0300
0000
1000
0001
1000
0001
,
0100
0010
1000
0001
1000
0001
0010
0100
1000
0000
0000
0000
0001
0000
0000
0000
,
0400
0000
0000
0000
0000
0000
0000
0000
0010
0000
0300
0000
0001
1000
0001
1000
,
0100
0010
0001
1000
0001
1000
0010
0100
0001
0100
0001
1000
0001
0010
0100
1000
,
0001
1000
0100
1000
,
0001
0100
0101
0001
,
0010
0100
2000
0002
,
0000
0000
3003
0000
,
1000
0100
1000
0100
0010
0001
0010
0100
1000
0001
1000
0001
0100
0010
0100
0001
,
1000
0100
1000
0100
0010
0001
0010
0100
1000
0001
1000
0001
0100
0010
0100
0001
,
1000
0010
1000
0001
0100
0001
1000
0001
1000
0010
0100
0001
1000
0001
0010
0100
,
1000
0001
0010
0001
1000
0100
1000
0001
1000
0000
0000
0000
0000
0000
0000
0000
,
0010
0100
0010
0100
0001
0000
0001
0000
,
1000
0100
0010
0100
,
2000
3020
0230
0302
,
2003
3020
0230
0302
,
1003
0100
1000
0100
0010
0001
0010
0100
1000
0001
1000
0001
0100
0010
0100
0001
,
1000
0100
1000
0100
0010
0001
0010
0100
1000
0001
1000
0001
0100
0010
0100
0001
,
1000
0010
1000
0001
0100
0001
1000
0001
1000
0010
0100
0001
1000
0001
0010
0100
,
1000
0001
0010
0001
1000
0100
1000
0001
1000
0000
0000
0000
0000
0000
0000
0000
,
0010
0100
0010
0100
0001
0000
0001
0000
,
1000
0100
0010
0100
,
2000
3020
0230
0302
,
2003
3020
0230
0302
,
1MM3
0001
0001
0001
,
0100
0010
1000
0001
,
0001
0010
0100
1000
,
0001
0100
0100
0100
,
0100
0010
0010
0010
,
1000
0001
1000
0100
,
0100
0010
0001
1000
,
0001
0100
0100
0100
,
M1M1
0001
1000
0100
,
0010
0100
1000
0001
,
0100
0010
1000
0001
,
0100
0001
1001
0001
,
0100
0001
1000
0100
,
1000
0100
0010
0001
,
1000
0010
0100
0010
,
1000
0004
1000
0000
,
1003
0100
0010
0100
,
1000
0010
0100
0010
,
1000
0010
0100
0001
,
2000
3200
2300
3200
,
0310
0001
1000
0001
,
0100
0010
1000
0010
,
0100
0001
1000
0010
,
2000
3200
2300
3200
,
0340
0000
0000
0000
0000
0000
0000
0000
0100
0000
0030
0000
0001
1000
0001
1000
,
0010
0100
0001
1000
0001
1000
0100
0010
0001
0000
0000
0000
1000
0000
0000
0000
,
0040
0000
0000
0000
0000
0000
0000
0000
0100
0000
0030
0000
1000
0001
1000
0001
,
0010
0100
1000
0001
1000
0001
0100
0010
1000
0010
1000
0001
1000
0100
0010
0001
,
1000
0001
0010
0001
,
1000
0010
1010
1000
,
0001
0100
0010
1000
,
0002
0023
0032
0023
,
0430
0000
0000
0000
0000
0000
0000
0000
0010
0000
0300
0000
0001
1000
0001
1000
,
0100
0010
0001
1000
0001
1000
0010
0100
0001
0000
0000
0000
1000
0000
0000
0000
,
0400
0000
0000
0000
0000
0000
0000
0000
0010
0000
0300
0000
1000
0001
1000
0001
,
0100
0010
1000
0001
1000
0001
0010
0100
1000
0100
1000
0001
1000
0010
0100
0001
,
1000
0001
0100
0001
,
1000
0100
1100
1000
,
0010
0100
0002
2000
,
0000
0000
3003
0000
,
0001
0100
0001
0100
0010
1000
0010
0100
0001
1000
0001
1000
0100
0010
0100
1000
,
0001
0100
0001
0100
0010
1000
0010
0100
0001
1000
0001
1000
0100
0010
0100
1000
,
0001
0010
0001
1000
0100
1000
0001
1000
0001
0010
0100
1000
0001
1000
0010
0100
,
0001
1000
0010
1000
0001
0100
0001
1000
0001
0000
0000
0000
0000
0000
0000
0000
,
0010
0100
0010
0100
1000
0000
1000
0000
,
0001
0100
0010
0100
,
0002
0023
0230
2300
,
3002
0023
0230
2300
,
3001
0100
0001
0100
0010
1000
0010
0100
0001
1000
0001
1000
0100
0010
0100
1000
,
0001
0100
0001
0100
0010
1000
0010
0100
0001
1000
0001
1000
0100
0010
0100
1000
,
0001
0010
0001
1000
0100
1000
0001
1000
0001
0010
0100
1000
0001
1000
0010
0100
,
0001
1000
0010
1000
0001
0100
0001
1000
0001
0000
0000
0000
0000
0000
0000
0000
,
0010
0100
0010
0100
1000
0000
1000
0000
,
0001
0100
0010
0100
,
0002
0023
0230
2300
,
3002
0023
0230
2300
,
3MM1
1000
1000
1000
,
0010
0100
0001
1000
,
1000
0100
0010
0001
,
1000
0010
0010
0010
,
0010
1000
1000
1000
,
0001
0010
0100
0010
,
0010
0001
1000
0010
,
0100
0001
0001
0001
,
4MM1
0000
0000
0000
0000
0000
0000
0000
0010
0000
3000
0000
0001
0100
0010
1000
,
0001
0010
0001
0010
0100
1000
0001
1000
0001
0100
0010
0100
0001
0100
0010
1000
,
0004
0000
0000
0000
0000
0000
0000
0000
0100
0000
0003
0000
1000
0100
0010
0001
,
1000
0010
0100
0010
1000
0001
0010
0100
0010
0001
1000
0100
1000
0001
0100
0010
,
4000
0000
0000
0000
0000
0000
0000
0000
0010
0000
3000
0000
0001
0100
0010
1000
,
0001
0010
0001
0010
0100
1000
0001
1000
0001
0100
0010
0100
0001
0100
0010
1000
,
0004
0000
0000
0000
0000
0000
0000
0000
0100
0000
0003
0000
1000
0100
0010
0001
,
1000
0010
0100
0010
1000
0001
0010
0100
1000
0000
0000
0000
1000
0000
0000
0000
,
MM11
0001
1000
1000
,
0010
0100
0001
0001
,
1000
0100
0010
0010
,
0001
1000
0000
0000
0001
0000
1000
0000
,
0010
0100
0001
0001
,
1000
0100
0010
0100
,
1000
0001
0100
0010
,
0100
0001
0010
0100
,
1MM1
1000
0001
0001
,
0100
0100
0010
0010
,
1000
0001
0010
0100
,
1000
1000
0001
0001
,
1000
0010
0100
0001
,
0010
0100
0010
0001
,
1000
0001
0000
0000
0100
0000
0010
0000
,
1000
0100
0010
0001
,
1MM1
2000
3020
0230
,
0300
0002
0023
0230
,
0300
0100
0100
1000
,
0100
0010
0001
0000
,
0002
0000
1000
2000
,
0000
0000
3003
0000
,
0002
0203
0320
2030
,
3002
0203
0320
2030
,
3001
0010
0001
0010
0100
1000
0100
0010
0001
1000
0001
1000
0010
0100
0010
1000
,
0001
0010
0001
0010
0100
1000
0100
0010
0001
1000
0001
1000
0010
0100
0010
1000
,
0001
0100
0001
1000
0010
1000
0001
1000
0001
0100
0010
1000
0001
1000
0100
0010
,
0001
1000
0100
1000
0001
0010
0001
1000
0001
0000
0000
0000
0000
0000
0000
0000
,
0100
0010
0100
0010
1000
0000
1000
0000
,
0001
0010
0100
0010
,
0002
0203
0320
2030
,
3002
0203
0320
2030
,
3001
0010
0001
0010
0100
1000
0100
0010
0001
1000
0001
1000
0010
0100
0010
1000
,
0001
0010
0001
0010
0100
1000
0100
0010
0001
1000
0001
1000
0010
0100
0010
1000
,
0001
0100
0001
1000
0010
1000
0001
1000
0001
0100
0010
1000
0001
1000
0100
0010
,
0001
1000
0100
1000
0001
0010
0001
1000
0001
0000
0000
0000
0000
0000
0000
0000
,
0100
0010
0100
0010
1000
0000
1000
0000
,
0001
0100
0010
0100
,
0002
0023
0230
2300
,
3002
0023
0230
2300
,
3001
0100
0001
0100
0010
1000
0010
0100
0001
1000
0001
1000
0100
0010
0100
1000
,
0001
0100
0001
0100
0010
1000
0010
0100
0001
1000
0001
1000
0100
0010
0100
1000
,
0001
0010
0001
1000
0100
1000
0001
1000
0001
0010
0100
1000
0001
1000
0010
0100
,
0001
1000
0010
1000
0001
0100
0001
1000
0001
0000
0000
0000
0000
0000
0000
0000
,
0010
0100
0010
0100
1000
0000
1000
0000
,
0001
0100
0010
0100
,
0002
0023
0230
2300
,
3002
0023
0230
2300
,
3MM1
1000
1000
1000
,
0010
0100
0001
1000
,
1000
0100
0010
0001
,
1000
0001
0101
0001
,
1000
0010
0010
0010
,
0100
0001
1000
0001
,
2000
3200
0320
0032
,
2003
3200
0320
0032
,
1MM3
0001
0001
0001
,
0100
0010
1000
0001
,
0001
0010
0100
1000
,
0001
0100
0100
0100
,
0100
0001
0001
0001
,
1000
0100
0010
0001
,
0001
1000
0010
0100
,
0001
1000
1000
1000
,
1000
0000
0000
0000
;

//---------------dance-single - Gazebo----------------
#NOTES:
     dance-single:
     Gazebo:
     Medium:
     13:
     0.906,1.000,0.128,0.548,1.000,1189.000,27.000,116.000,20.000,0.000:

0000
0000
0000
0000
,
0000
0000
0000
0000
,
0000
0000
0000
0000
,
0000
0000
0000
0000
,
0001
0001
0100
0100
,
0010
0010
1000
1000
,
0001
0001
1000
0100
,
0010
0001
0001
0001
,
1000
1000
0010
0010
,
0100
0100
0001
0001
,
1000
1000
0001
0010
,
0100
1000
1000
1000
,
0001
0001
0100
0100
,
0010
0010
1000
1000
,
0001
0001
1000
0100
,
0010
0001
0001
0001
,
4000
0000
3040
0000
,
0430
0000
0340
0000
,
4030
0000
3004
0000
,
0023
0230
0320
0230
,
4300
0000
3004
0000
,
0403
0000
0304
0000
,
4003
0000
3400
0000
,
0320
0032
0023
0032
,
1MM3
0001
0100
0010
,
0100
0001
1000
0001
,
0010
0100
1000
0001
,
1000
1000
1001
1000
,
0001
0100
0001
0100
,
0010
1000
0001
0010
,
0001
1000
0100
0010
,
0001
4000
0000
0000
,
3010
0100
0001
1000
,
0100
1000
0001
1000
,
0100
0010
0001
1000
,
0002
0203
0302
0203
,
0310
1000
0001
1000
,
0100
0010
0001
0010
,
0001
1000
0010
1000
,
0002
0203
0302
0203
,
0340
0000
0000
0000
0000
0000
0000
0000
0000
1030
0001
1000
,
0100
0010
0100
1000
0001
0010
0001
1000
0010
0100
0001
1000
,
0400
0000
0000
0000
0000
0000
0000
0000
0000
1300
0001
1000
,
0010
0100
0010
1000
0001
0100
0001
1000
0100
0010
0001
1000
,
0001
0100
0001
1000
,
0001
0010
0011
0001
,
1000
0100
0010
0001
,
2000
3020
2030
3020
,
0430
0000
0000
0000
0000
0000
0000
0000
0000
0301
1000
0001
,
0010
0100
0010
0001
1000
0100
1000
0001
0100
0010
1000
0001
,
0040
0000
0000
0000
0000
0000
0000
0000
0000
0031
1000
0001
,
0100
0010
0100
0001
1000
0010
1000
0001
0010
0100
1000
0001
,
1000
0001
0010
0001
,
1000
0010
1010
1000
,
0100
0010
0002
2000
,
0000
0000
3003
0000
,
1000
0100
1000
0010
0100
0001
1000
0001
1000
0100
0010
0100
,
0010
0100
1000
0010
0100
0001
1000
0001
1000
0100
0010
0100
,
0010
0100
1000
0001
0100
0001
1000
0010
1000
0001
0010
0001
,
1000
0100
0010
0001
1000
0010
1000
0001
0100
0010
0100
0001
,
1000
0100
1000
0100
0010
0001
1000
0010
1000
0001
0100
0001
,
1000
0010
1000
0001
1000
0001
0100
0001
1000
0100
0010
0001
,
2000
3020
0230
0302
,
2003
3020
0230
0302
,
1003
0100
1000
0010
0100
0001
1000
0001
1000
0100
0010
0100
,
0010
0100
1000
0010
0100
0001
1000
0001
1000
0100
0010
0100
,
0010
0100
1000
0001
0100
0001
1000
0010
1000
0001
0010
0001
,
1000
0100
0010
0001
1000
0010
1000
0001
0100
0010
0100
0001
,
1000
0100
1000
0100
0010
0001
1000
0010
1000
0001
0100
0001
,
1000
0010
1000
0001
1000
0001
0100
0001
1000
0100
0010
0001
,
2000
3020
0230
0302
,
2003
3020
0230
0302
,
1MM3
0001
0001
0001
,
0100
0010
1000
0001
,
0001
0010
0100
1000
,
0001
0100
0100
0100
,
0100
0010
0010
0010
,
1000
0001
1000
0100
,
0100
0010
0001
1000
,
0001
0100
0100
0100
,
M1M1
0001
1000
0100
,
0010
0100
1000
0001
,
0100
0010
1000
0001
,
0100
0001
1001
0001
,
0100
0001
1000
0100
,
1000
0100
0010
0001
,
1000
0010
0100
0010
,
1000
0004
1000
0000
,
1003
0100
0010
0100
,
1000
0010
0100
0010
,
1000
0010
0100
0001
,
2000
3200
2300
3200
,
0310
0001
1000
0001
,
0100
0010
1000
0010
,
0100
0001
1000
0010
,
2000
3200
2300
3200
,
0340
0000
0000
0000
0000
0000
0000
0000
0000
0031
1000
0001
,
0100
0010
0100
0001
1000
0010
1000
0001
0010
0100
1000
0001
,
0400
0000
0000
0000
0000
0000
0000
0000
0000
0301
1000
0001
,
0010
0100
0010
0001
1000
0100
1000
0001
0100
0010
1000
0001
,
1000
0001
0010
0001
,
1000
0010
1010
1000
,
0001
0100
0010
1000
,
0002
0023
0032
0023
,
0430
0000
0000
0000
0000
0000
0000
0000
0000
1300
0001
1000
,
0010
0100
0010
1000
0001
0100
0001
1000
0100
0010
0001
1000
,
0040
0000
0000
0000
0000
0000
0000
0000
0000
1030
0001
1000
,
0100
0010
0100
1000
0001
0010
0001
1000
0010
0100
0001
1000
,
0001
1000
0010
1000
,
0001
0010
0011
0001
,
0100
0010
2000
0002
,
0000
0000
3003
0000
,
0001
0100
0001
0010
0100
1000
0001
1000
0001
0100
0010
0100
,
0010
0100
0001
0010
0100
1000
0001
1000
0001
0100
0010
0100
,
0010
0100
0001
1000
0100
1000
0001
0010
0001
1000
0010
1000
,
0001
0100
0010
1000
0001
0010
0001
1000
0100
0010
0100
1000
,
0001
0100
0001
0100
0010
1000
0001
0010
0001
1000
0100
1000
,
0001
0010
0001
1000
0001
1000
0100
1000
0001
0100
0010
1000
,
0002
0023
0230
2300
,
3002
0023
0230
2300
,
3001
0100
0001
0010
0100
1000
0001
1000
0001
0100
0010
0100
,
0010
0100
0001
0010
0100
1000
0001
1000
0001
0100
0010
0100
,
0010
0100
0001
1000
0100
1000
0001
0010
0001
1000
0010
1000
,
0001
0100
0010
1000
0001
0010
0001
1000
0100
0010
0100
1000
,
0001
0100
0001
0100
0010
1000
0001
0010
0001
1000
0100
1000
,
0001
0010
0001
1000
0001
1000
0100
1000
0001
0100
0010
1000
,
0002
0023
0230
2300
,
3002
0023
0230
2300
,
3MM1
1000
1000
1000
,
0010
0100
0001
1000
,
1000
0100
0010
0001
,
1000
0010
0010
0010
,
0010
1000
1000
1000
,
0001
0010
0100
0010
,
0010
0001
1000
0010
,
0100
0001
0001
0001
,
4MM1
0000
0000
0000
0000
0000
0000
0000
0000
3001
0010
0001
,
1000
0010
1000
0010
0100
0001
1000
0100
1000
0100
0010
0001
,
4000
0000
0000
0000
0000
0000
0000
0000
0000
3001
0100
0001
,
1000
0100
1000
0001
0010
0001
1000
0010
1000
0001
0100
0001
,
4000
0000
0000
0000
0000
0000
0000
0000
0000
3001
0010
0001
,
1000
0010
1000
0010
0100
0001
1000
0100
1000
0100
0010
0001
,
4000
0000
0000
0000
0000
0000
0000
0000
0000
3001
0100
0001
,
1000
0100
1000
0001
0010
0001
1000
0000
0000
1000
0000
0000
,
MM11
0001
1000
1000
,
0010
0100
0001
0001
,
1000
0100
0010
0010
,
0001
1000
0000
0000
0001
0000
1000
0000
,
0010
0100
0001
0001
,
1000
0100
0010
0100
,
1000
0001
0100
0010
,
0100
0001
0010
0100
,
1MM1
1000
0001
0001
,
0100
0100
0010
0010
,
1000
0001
0010
0100
,
1000
1000
0001
0001
,
1000
0010
0100
0001
,
0010
0100
0010
0001
,
1000
0001
0000
0000
0100
0000
0010
0000
,
1000
0100
0010
0001
,
1MM1
2000
3020
0230
,
0300
0002
0023
0230
,
0300
0100
0100
1000
,
0100
0010
0001
0000
,
0002
0000
1000
2000
,
0000
0000
3003
0000
,
0002
0203
0320
2030
,
3002
0203
0320
2030
,
3001
0010
0001
0100
0010
1000
0001
1000
0001
0010
0100
0010
,
0100
0010
0001
0100
0010
1000
0001
1000
0001
0010
0100
0010
,
0100
0010
0001
1000
0010
1000
0001
0100
0001
1000
0100
1000
,
0001
0010
0100
1000
0001
0100
0001
1000
0010
0100
0010
1000
,
0001
0010
0001
0010
0100
1000
0001
0100
0001
1000
0010
1000
,
0001
0100
0001
1000
0001
1000
0010
1000
0001
0010
0100
1000
,
0002
0203
0320
2030
,
3002
0203
0320
2030
,
3001
0010
0001
0100
0010
1000
0001
1000
0001
0010
0100
0010
,
0100
0010
0001
0100
0010
1000
0001
1000
0001
0010
0100
0010
,
0100
0010
0001
1000
0010
1000
0001
0100
0001
1000
0100
1000
,
0001
0010
0100
1000
0001
0100
0001
1000
0010
0100
0010
1000
,
0001
0010
0001
0010
0100
1000
0001
0100
0001
1000
0010
1000
,
0001
0100
0001
1000
0001
1000
0010
1000
0001
0100
0010
1000
,
0002
0023
0230
2300
,
3002
0023
0230
2300
,
3001
0100
0001
0010
0100
1000
0001
1000
0001
0100
0010
0100
,
0010
0100
0001
0010
0100
1000
0001
1000
0001
0100
0010
0100
,
0010
0100
0001
1000
0100
1000
0001
0010
0001
1000
0010
1000
,
0001
0100
0010
1000
0001
0010
0001
1000
0100
0010
0100
1000
,
0001
0100
0001
0100
0010
1000
0001
0010
0001
1000
0100
1000
,
0001
0010
0001
1000
0001
1000
0100
1000
0001
0100
0010
1000
,
0002
0023
0230
2300
,
3002
0023
0230
2300
,
3MM1
1000
1000
1000
,
0010
0100
0001
1000
,
1000
0100
0010
0001
,
1000
0001
0101
0001
,
1000
0010
0010
0010
,
0100
0001
1000
0001
,
2000
3200
0320
0032
,
2003
3200
0320
0032
,
1MM3
0001
0001
0001
,
0100
0010
1000
0001
,
0001
0010
0100
1000
,
0001
0100
0100
0100
,
0100
0001
0001
0001
,
1000
0100
0010
0001
,
0001
1000
0010
0100
,
0001
1000
1000
1000
,
1000
0000
0000
0000
;

//---------------dance-single - Gazebo----------------
#NOTES:
     dance-single:
     Gazebo:
     Easy:
     10:
     0.753,0.835,0.128,0.548,0.000,963.000,27.000,116.000,20.000,0.000:
0000
0000
0000
0000
,
0000
0000
0000
0000
,
0000
0000
0000
0000
,
0000
0000
0000
0000
,
0001
0001
0100
0100
,
0010
0010
1000
1000
,
0001
0001
1000
0100
,
0010
0001
0001
0001
,
1000
1000
0010
0010
,
0100
0100
0001
0001
,
1000
1000
0001
0010
,
0100
1000
1000
1000
,
0001
0001
0100
0100
,
0010
0010
1000
1000
,
0001
0001
1000
0100
,
0010
0001
0001
0001
,
4000
0000
3040
0000
,
0430
0000
0340
0000
,
4030
0000
3004
0000
,
0023
0230
0320
0230
,
4300
0000
3004
0000
,
0403
0000
0304
0000
,
4003
0000
3400
0000
,
0320
0032
0023
0032
,
1MM3
0001
0100
0010
,
0100
0001
1000
0001
,
0010
0100
1000
0001
,
1000
1000
1001
1000
,
0001
0100
0001
0100
,
0010
1000
0001
0010
,
0001
1000
0100
0010
,
0001
4000
0000
0000
,
3010
0100
0001
1000
,
0100
1000
0001
1000
,
0100
0010
0001
1000
,
0002
0203
0302
0203
,
0310
1000
0001
1000
,
0100
0010
0001
0010
,
0001
1000
0010
1000
,
0002
0203
0302
0203
,
0340
0000
0000
0000
0000
0000
1030
0001
,
0100
0001
0100
0001
1000
0100
0010
0001
,
0400
0000
0000
0000
0000
0000
0301
1000
,
0100
1000
0001
1000
0100
0010
0001
1000
,
0001
0100
0001
1000
,
0001
0010
0011
0001
,
1000
0100
0010
0001
,
2000
3020
2030
3020
,
0430
0000
0000
0000
0000
0000
0301
1000
,
0100
1000
0100
1000
0001
0100
0010
1000
,
0400
0000
0000
0000
0000
0000
1300
0001
,
0100
0001
1000
0001
0100
0010
1000
0001
,
1000
0001
0010
0001
,
1000
0010
1010
1000
,
0100
0010
0002
2000
,
0000
0000
3003
0000
,
1000
0001
0100
0001
0010
0001
1000
0100
,
1000
0001
0100
0001
0010
0001
1000
0100
,
1000
0001
0100
0001
0100
0001
1000
0001
,
0010
0100
1000
0001
0010
0001
0010
0001
,
1000
0010
0100
0001
0010
0001
0010
0100
,
1000
0001
1000
0001
0010
0100
1000
0001
,
2000
3020
0230
0302
,
2003
3020
0230
0302
,
1003
0001
0100
0001
0010
0001
1000
0100
,
1000
0001
0100
0001
0010
0001
1000
0100
,
1000
0001
0100
0001
0100
0001
1000
0001
,
0010
0100
1000
0001
0010
0001
0010
0001
,
1000
0010
0100
0001
0010
0001
0010
0100
,
1000
0001
1000
0001
0010
0100
1000
0001
,
2000
3020
0230
0302
,
2003
3020
0230
0302
,
1MM3
0001
0001
0001
,
0100
0010
1000
0001
,
0001
0010
0100
1000
,
0001
0100
0100
0100
,
0100
0010
0010
0010
,
1000
0001
1000
0100
,
0100
0010
0001
1000
,
0001
0100
0100
0100
,
M1M1
0001
1000
0100
,
0010
0100
1000
0001
,
0100
0010
1000
0001
,
0100
0001
1001
0001
,
0100
0001
1000
0100
,
1000
0100
0010
0001
,
1000
0010
0100
0010
,
1000
0004
1000
0000
,
1003
0100
0010
0100
,
1000
0010
0100
0010
,
1000
0010
0100
0001
,
2000
3200
2300
3200
,
0310
0001
1000
0001
,
0100
0010
1000
0010
,
0100
0001
1000
0010
,
2000
3200
2300
3200
,
0340
0000
0000
0000
0000
0000
0031
1000
,
0010
1000
0010
1000
0001
0010
0100
1000
,
0040
0000
0000
0000
0000
0000
1030
0001
,
0010
0001
1000
0001
0010
0100
1000
0001
,
1000
0001
0010
0001
,
1000
0010
1010
1000
,
0001
0100
0010
1000
,
0002
0023
0032
0023
,
0430
0000
0000
0000
0000
0000
1300
0001
,
0100
0001
0100
0001
1000
0100
0010
0001
,
0400
0000
0000
0000
0000
0000
0301
1000
,
0100
1000
0001
1000
0100
0010
0001
1000
,
0001
1000
0010
1000
,
0001
0010
0011
0001
,
0100
0010
2000
0002
,
0000
0000
3003
0000
,
0001
1000
0100
1000
0010
1000
0001
0100
,
0001
1000
0100
1000
0010
1000
0001
0100
,
0001
1000
0100
1000
0100
1000
0001
1000
,
0010
0100
0001
1000
0010
1000
0010
1000
,
0001
0010
0100
1000
0010
1000
0010
0100
,
0001
1000
0001
1000
0010
0100
0001
1000
,
0002
0023
0230
2300
,
3002
0023
0230
2300
,
3001
1000
0100
1000
0010
1000
0001
0100
,
0001
1000
0100
1000
0010
1000
0001
0100
,
0001
1000
0100
1000
0100
1000
0001
1000
,
0010
0100
0001
1000
0010
1000
0010
1000
,
0001
0010
0100
1000
0010
1000
0010
0100
,
0001
1000
0001
1000
0010
0100
0001
1000
,
0002
0023
0230
2300
,
3002
0023
0230
2300
,
3MM1
1000
1000
1000
,
0010
0100
0001
1000
,
1000
0100
0010
0001
,
1000
0010
0010
0010
,
0010
1000
1000
1000
,
0001
0010
0100
0010
,
0010
0001
1000
0010
,
0100
0001
0001
0001
,
4MM1
0000
0000
0000
0000
0000
3001
0010
,
0100
1000
0100
0010
0001
0100
0001
1000
,
0004
0000
0000
0000
0000
0000
1003
0100
,
0010
0001
0100
0001
1000
0010
1000
0100
,
4000
0000
0000
0000
0000
0000
3001
0100
,
0010
1000
0010
0100
0001
0010
0001
1000
,
0004
0000
0000
0000
0000
0000
1003
0010
,
0100
0001
0010
0001
1000
0000
1000
0000
,
MM11
0001
1000
1000
,
0010
0100
0001
0001
,
1000
0100
0010
0010
,
0001
1000
0000
0000
0001
0000
1000
0000
,
0010
0100
0001
0001
,
1000
0100
0010
0100
,
1000
0001
0100
0010
,
0100
0001
0010
0100
,
1MM1
1000
0001
0001
,
0100
0100
0010
0010
,
1000
0001
0010
0100
,
1000
1000
0001
0001
,
1000
0010
0100
0001
,
0010
0100
0010
0001
,
1000
0001
0000
0000
0100
0000
0010
0000
,
1000
0100
0010
0001
,
1MM1
2000
3020
0230
,
0300
0002
0023
0230
,
0300
0100
0100
1000
,
0100
0010
0001
0000
,
0002
0000
1000
2000
,
0000
0000
3003
0000
,
0002
0203
0320
2030
,
3002
0203
0320
2030
,
3001
1000
0010
1000
0100
1000
0001
0010
,
0001
1000
0010
1000
0100
1000
0001
0010
,
0001
1000
0010
1000
0010
1000
0001
1000
,
0100
0010
0001
1000
0100
1000
0100
1000
,
0001
0100
0010
1000
0100
1000
0100
0010
,
0001
1000
0001
1000
0100
0010
0001
1000
,
0002
0203
0320
2030
,
3002
0203
0320
2030
,
3001
1000
0100
1000
0010
1000
0001
0100
,
0001
1000
0100
1000
0010
1000
0001
0100
,
0001
1000
0100
1000
0100
1000
0001
1000
,
0010
0100
0001
1000
0010
1000
0010
1000
,
0001
0010
0100
1000
0010
1000
0010
0100
,
0001
1000
0001
1000
0010
0100
0001
1000
,
0002
0023
0230
2300
,
3002
0023
0230
2300
,
3001
1000
0100
1000
0010
1000
0001
0100
,
0001
1000
0100
1000
0010
1000
0001
0100
,
0001
1000
0100
1000
0100
1000
0001
1000
,
0010
0100
0001
1000
0010
1000
0010
1000
,
0001
0010
0100
1000
0010
1000
0010
0100
,
0001
1000
0001
1000
0010
0100
0001
1000
,
0002
0023
0230
2300
,
3002
0023
0230
2300
,
3MM1
1000
1000
1000
,
0010
0100
0001
1000
,
1000
0100
0010
0001
,
1000
0001
0101
0001
,
1000
0010
0010
0010
,
0100
0001
1000
0001
,
2000
3200
0320
0032
,
2003
3200
0320
0032
,
1MM3
0001
0001
0001
,
0100
0010
1000
0001
,
0001
0010
0100
1000
,
0001
0100
0100
0100
,
0100
0001
0001
0001
,
1000
0100
0010
0001
,
0001
1000
0010
0100
,
0001
1000
1000
1000
,
1000
0000
0000
0000
;
