#TITLE:Hora De Verdad;
#SUBTITLE:Pop'n Music FEVER! (2006);
#ARTIST:Vandalusia改;
#TITLETRANSLIT:;
#SUBTITLETRANSLIT:;
#ARTISTTRANSLIT:;
#CREDIT:;
#BANNER:Hora De Verdad.jpg;
#BACKGROUND:Hora De Verdad-bg.jpg;
#LYRICSPATH:;
#CDTITLE:!kmTitle.png;
#MUSIC:Hora De Verdad.mp3;
#OFFSET:-0.432;
#SAMPLESTART:24.410;
#SAMPLELENGTH:16.820;
#SELECTABLE:YES;
#BPMS:0.000=140.010;
#STOPS:;
#BGCHANGES:;
// cache tags:
#FIRSTBEAT:0.000;
#LASTBEAT:245.500;
#SONGFILENAME:Songs/VGMP 3/Hora de Verdad (Kil & Malice)/Hora De Verdad.sm;
#HASMUSIC:1;
#HASBANNER:1;
#MUSICLENGTH:111.177;
// end cache tags

//---------------dance-single - ----------------
#NOTES:
     dance-single:
     :
     Hard:
     10:
     1.000,1.000,1.000,0.153,1.000,698.000,118.000,17.000,0.000,8.000:

1000
1000
0100
0010
0000
0000
0000
0000
0000
0000
0000
0000
,
0000
0000
0000
0010
0001
0010
0100
0010
0001
0010
0100
0010
,
0100
0000
0000
0000
1000
0000
0000
0000
0100
0000
0000
0000
0010
0000
0000
0000
0000
0000
0100
0000
0000
0000
0000
0000
0000
1000
0000
0000
0000
0000
0000
0000
0000
0000
0000
0000
0000
0000
0000
0000
0000
0000
0000
0000
0000
0000
0000
0000
,
0000
0000
0000
0000
0000
0000
1000
0100
0010
0001
0010
0100
,
1000
0000
0000
0000
0000
0000
0000
0000
0000
0000
0001
0010
,
0001
0000
0000
0000
0000
0000
0000
0000
0000
0000
0000
0000
0000
0000
0000
0000
0000
0000
0000
0000
0000
0000
0000
0000
0000
0000
0000
0000
0000
0000
0000
0000
0000
0000
0000
0000
0000
0000
0001
0000
0000
0000
0000
0000
0000
0000
0000
0100
0000
0000
0000
0000
0000
0000
0000
0001
0000
0000
0000
0000
0000
0000
0000
0000
,
0000
0010
0000
0000
0000
0000
0000
0000
0000
0100
0000
0000
0000
0000
0000
0000
0000
1000
0000
0000
0000
0000
0000
0000
0000
0000
0100
0000
0000
0000
0000
0000
0000
0000
0000
0000
0000
0000
0000
0000
0000
0000
0000
0000
0000
0000
0000
0000
0000
0000
0000
0000
0000
0000
0010
0000
0000
0000
0000
0000
0100
0000
0000
0000
,
0000
1000
0000
0000
0000
0100
0000
0000
0000
0000
0000
0000
0000
0000
0000
0000
0000
0000
0000
0000
0000
0000
0100
0000
0000
0000
0000
0001
0000
0000
0000
0000
,
2010
0000
0000
0000
0000
0000
0000
0000
0000
0000
0100
0010
0001
0000
0000
0000
,
3000
0000
0010
0001
0100
0010
1001
0100
0011
0000
1000
0000
0000
0000
0000
0000
,
0000
0000
1000
1000
1010
0000
0100
0000
0100
0000
1010
0000
0101
0010
1100
0001
,
0110
1000
0100
1000
0010
0000
0100
0001
0010
0001
0100
0001
1010
0001
0100
0001
,
0010
0000
1001
0100
0010
1000
0001
0100
1010
0000
0000
0000
0101
0000
1010
0000
,
0000
0101
1010
0000
1000
0100
1010
0101
,
0011
1000
0100
0010
1000
0100
0001
0000
0000
1000
0100
0001
0010
0000
0000
0000
,
0010
0001
0010
0100
1000
0000
0000
0000
0000
0000
0000
0000
0000
0000
0000
0000
0010
0000
1000
0000
0100
0000
0001
0000
0010
0000
1000
0000
0100
0000
1000
0000
,
0010
0100
0001
0010
1100
0000
1100
1100
1100
0000
0110
0000
0011
0000
0110
0000
,
1001
0000
0100
0001
0100
0010
1000
0001
0100
0010
1000
0100
0001
0000
0000
1000
,
0100
0000
0000
0010
0000
0000
0001
0000
0000
0000
0000
0000
0000
0000
0000
0000
0000
0000
0010
0000
0100
0000
1000
0000
0100
0000
0000
0000
0000
0000
0000
0000
0000
0000
0000
0000
1000
0000
0000
0100
0000
0000
0001
0000
0000
0010
0000
0000
,
0100
0001
0010
1000
0010
0100
1000
0010
1000
0100
0010
1000
0010
0100
1000
0100
,
0001
0010
0100
0001
0010
1000
0100
0010
0100
1000
0100
0000
0100
0010
0100
1000
,
0100
0000
0100
0010
0100
0001
0100
0010
0001
1000
0100
0010
0001
1000
0100
0010
,
0100
1000
0100
0000
0100
0010
0100
1000
0100
0000
0100
0010
0100
0010
0001
1000
,
0100
0010
1000
0010
0001
0100
1010
0001
0010
0100
0010
1000
0001
0100
0010
0100
,
0001
1000
0110
0001
0010
0100
0010
1000
0001
1000
0100
0010
0001
0100
1001
0010
,
0100
0001
0010
0100
1001
0100
0010
1000
0100
0001
1010
0001
1100
0110
0011
0100
,
0011
0101
0110
1001
0110
1010
1100
0000
0010
0001
1000
0100
0001
0000
0000
1000
,
0100
0000
0001
0000
0010
0000
0000
0000
0000
0000
0000
0000
0010
0001
0010
0100
1001
0000
0100
0000
1000
0000
0100
0000
0010
0000
0001
0000
1100
0000
0010
0000
,
1000
0001
0010
1000
0100
1000
0010
0100
0001
0010
1001
0010
0100
1000
0010
0001
,
0100
0010
1000
0100
0001
0010
1000
0000
0100
0010
1000
0100
0001
0000
0000
1000
,
0100
0000
0000
0010
0000
0000
0001
0000
0000
0000
0000
0000
0000
0000
0000
0000
0000
0000
0010
0000
0100
0000
1000
0000
0110
0000
0000
1000
0000
0000
0010
0000
0000
0001
0000
0000
0100
0000
0000
0010
0000
0000
0001
0000
0000
0010
0000
0000
,
0100
0001
0010
0100
1000
0100
0010
0100
1000
0010
1002
0000
0000
0000
0123
0000
,
1032
0000
0123
1032
0000
0003
2002
3003
,
0000
0000
0000
0000
,
0000
0000
0000
0000
,
0000
0000
0000
0000
,
0000
0000
0000
0000
0000
0000
0000
0000
0000
0000
0000
0000
0000
0000
0100
0010
,
0000
0100
0000
0010
0100
0010
0000
0100
0000
0010
0100
0010
0000
0100
2000
0000
,
3002
0000
1003
0100
0010
0100
0001
0010
0100
0001
0010
0100
0010
0100
1000
0010
,
0001
0010
0100
1000
0001
1000
0100
1000
1000
0100
0010
0010
0100
1000
0001
0010
,
1000
0001
0010
1000
0010
0100
1000
0100
1000
0010
0001
0010
0001
0100
0010
0100
,
0010
0001
1000
0001
0010
0100
0010
1000
0100
1000
0010
0001
1000
0100
1000
0010
,
1000
0001
0100
1000
0100
0010
0100
0001
0110
1000
0011
0100
1001
0010
0101
0010
,
0100
1000
0001
1000
0011
0100
1000
0001
0010
1000
0101
0010
0100
0001
0010
1000
,
0011
0100
1010
0001
0110
1000
0001
0010
0100
0001
0010
0100
0010
0100
1000
0100
,
0001
0010
0100
0010
0001
1000
0100
1000
1000
0100
0010
0010
0100
1000
0001
0010
,
1000
0001
0010
1000
0010
0100
1000
0100
1000
0010
0001
0010
0001
0100
0010
0100
,
0010
0001
1000
0001
0010
0100
0010
1000
0100
1000
0010
0001
1000
0100
1000
0010
,
1000
0001
0100
1000
0100
0010
0100
0001
0110
1000
0011
0100
1001
0010
1100
0000
,
1100
1100
1100
0000
1100
0000
1100
0000
1100
0000
1010
0000
1010
1010
1010
0000
,
0101
1000
0011
0100
1010
0001
1100
0000
1100
1100
1100
0000
1100
0000
1100
0000
,
1100
0000
0000
0000
0000
0000
1010
0000
0000
0000
0000
0000
1010
0000
0000
1010
0000
0000
1010
0000
0000
0000
0000
0000
0001
0000
0010
0000
0100
0000
1000
0000
0000
0001
0000
0000
0010
0000
0000
0100
0000
0000
1010
0000
0000
0100
0000
0000
,
1000
0010
1100
0100
0101
0010
0001
0100
0001
0010
0001
0100
0001
0010
1001
1000
,
1100
0000
1000
0000
1000
0000
1001
0100
0010
0001
1000
0010
1100
0010
0001
1000
,
0010
0100
1010
0001
0100
0010
0001
1000
0011
0101
0110
1001
1010
1100
1001
0000
,
1000
0000
0100
0000
0010
0000
0100
0000
0001
0000
0000
0000
0000
0000
1000
0000
0100
0000
0010
0000
0001
0000
0000
0000
0000
0000
0000
0000
0010
0001
0010
0100
,
1001
0100
1000
0010
0100
0001
1010
0001
0100
0001
0010
1000
0100
1000
0010
0100
,
0001
1000
0101
0010
0100
0010
1000
0100
0001
0010
0100
1000
0001
0100
0011
0000
,
1000
0000
0000
0100
0000
0000
0010
0000
0000
0100
0000
0000
0001
0000
0000
0000
0000
0000
0000
0000
0000
1000
0000
0000
0100
0000
0000
1000
0000
0000
0001
0000
0000
0000
0000
0000
0000
0000
0000
0000
0000
0000
0010
0000
0100
0000
1000
0000
,
0110
1000
0100
0001
1000
0001
1010
0001
0010
0100
1000
0010
1100
0001
0100
0010
,
1100
0110
1002
0000
0000
0000
0123
0000
1032
0000
0000
0000
0123
0000
1032
0000
,
0010
0100
0013
0000
2002
0000
3003
0000
0000
0000
0000
0000
0000
0000
0000
0000
;

//---------------dance-single - ----------------
#NOTES:
     dance-single:
     :
     Challenge:
     10:
     1.000,1.000,1.000,0.854,1.000,757.000,224.000,95.000,0.000,18.000:


2000
3000
2000
3000
0200
0300
0020
0000
0000
0000
0000
0000
0000
0000
0000
0000
0000
0000
0000
0000
0000
0000
0000
0000
,
0000
0000
0030
0000
0000
0000
0020
0030
0002
0003
0200
0300
0002
0003
2000
3000
0020
0030
0200
0300
2000
3000
0002
0003
,
0200
0000
0300
0000
2000
0000
3000
0000
0020
0000
0030
0000
2000
0000
3000
0000
0000
0000
0200
0000
0300
0000
0000
0000
0000
2000
0000
0000
0000
0000
0000
0000
0000
0000
0000
0000
0000
0000
0000
0000
0000
0000
0000
0000
0000
0000
0000
0000
,
0000
0000
0000
0000
0000
0000
0000
0000
0000
0000
0000
0000
0000
0000
0000
0000
0000
0000
0000
3000
0000
0000
0000
0000
2000
0000
3000
0000
0200
0000
0300
0000
0020
0000
0030
0000
0002
0000
0003
0000
0200
0000
0300
0000
2000
0000
3000
0000
,
0200
0000
0000
0000
0000
0000
0000
0000
0000
0000
0000
0000
0000
0000
0000
0000
0000
0000
0000
0000
0000
0000
0000
0000
0000
0000
0000
0000
0000
0000
0000
0000
0000
0300
0000
0000
0000
0000
0000
0000
0002
0000
0003
0000
0200
0000
0300
0000
,
0002
0000
0000
0000
0000
0000
0000
0000
0000
0000
0000
0000
0000
0000
0000
0000
0000
0000
0000
0000
0000
0000
0000
0000
0000
0000
0003
0000
0000
0200
0000
0300
0000
0000
0000
0000
2000
0000
3000
0000
0000
0000
0000
0020
0000
0030
0000
0000
,
0200
0000
0000
0000
0000
0000
0000
0000
0300
0000
0000
0000
0000
0000
0000
0000
0000
0000
0000
0000
0000
0000
0000
0000
2000
0000
0000
0000
0000
0000
0000
0000
0000
0000
0000
0000
3000
0000
0000
0000
0000
0000
0000
0000
0000
0000
0000
0000
0000
0000
0000
0000
0200
0000
0000
0000
0000
0000
0000
0000
0000
0000
0000
0000
0000
0000
0000
0000
0300
0000
0000
0000
0000
0000
0000
0000
0000
0000
0000
0000
0020
0000
0000
0000
0000
0000
0000
0000
0000
0000
0000
0000
0000
0000
0000
0000
0000
0000
0000
0000
0000
0000
0000
0000
0000
0000
0000
0000
0000
0000
0000
0000
0000
0000
0000
0000
0000
0000
0000
0000
0000
0000
0000
0000
0000
0000
0000
0000
0000
0000
0000
0000
0000
0000
0000
0000
0030
0000
0000
0000
0000
0000
0000
0000
0000
0000
0000
0000
0000
0000
0000
0000
0000
0000
0000
0000
0000
0000
0000
0000
0000
0000
0002
0000
0000
0000
0000
0000
0003
0000
0000
0000
0000
0000
0000
0000
0000
0000
0000
0000
0200
0000
0000
0000
0000
0000
0300
0000
0000
0000
0000
0000
,
0000
0000
0000
2000
0000
0000
0000
0000
0000
0000
0000
0000
0000
0000
0000
0000
0000
0000
0000
0000
0000
3000
0000
0000
0000
0000
0000
0000
0000
0000
0200
0000
0000
0000
0000
0000
0000
0000
0000
0000
0000
0000
0000
0000
0000
0000
0000
0000
0000
0000
0000
0000
0000
0000
0000
0000
0000
0000
0000
0000
0000
0000
0000
0000
0000
0000
0000
0000
0000
0000
0000
0000
0000
0000
0000
0300
0000
0000
0000
0000
0000
0000
0000
0000
0000
0000
0000
0000
0000
0000
0000
0000
0000
0000
0000
0000
1001
0000
0000
0000
0000
0000
0000
0000
0000
0000
0000
0000
0000
0000
0000
0000
0000
0000
0000
0000
0000
0000
0000
0000
0000
0000
0000
0000
0100
0000
0000
0000
0000
0000
0000
0000
0000
0000
0000
0000
0000
0000
0000
0000
0000
0000
0000
0000
0000
0000
0000
0000
0000
0000
0000
0000
0000
0000
0000
0000
0010
0000
0000
0000
0000
0000
0000
0000
0000
0000
0000
0000
0000
0000
0000
0000
0000
0000
0000
0000
0000
0000
0000
0000
0000
0000
0000
0000
0000
0000
0000
0000
0000
0000
0000
0000
,
2101
3000
0000
0000
0000
0000
0000
0000
1000
0000
0000
0000
0010
0000
0000
0000
1000
0000
0000
0000
0000
0000
0000
0000
1001
0000
0000
0000
0000
0000
0000
0000
1001
0000
0000
0000
0000
0000
0000
0000
1000
0000
0000
0000
0110
0000
0000
0000
1001
0000
0000
0000
0000
0000
0000
0000
1000
0000
0000
0000
0010
0000
0000
0000
,
1000
0000
0000
0000
0000
0000
0000
0000
0101
0000
0000
0000
0010
0000
0000
0000
1100
0000
0000
0000
0010
0000
0000
0000
2001
3000
0000
0000
0100
0000
0000
0000
2010
3000
0000
0000
0000
0000
0000
0000
1100
0000
0000
0000
0010
0000
0000
0000
1000
0000
0000
0000
0000
0000
0000
0000
1000
0000
0000
0000
0000
0000
0000
0000
,
1100
0000
0000
0000
0010
0000
0000
0000
2000
3000
0000
0000
0200
0300
0000
0000
2001
3000
0000
0000
0000
0000
0000
0000
0011
0000
0000
0000
1000
0000
0000
0000
0011
0000
0000
0000
0000
0000
0000
0000
1002
0003
0000
0000
0000
0000
0000
0000
1001
0000
0000
0000
0110
0000
0000
0000
0001
0000
0000
0000
1100
0000
0000
0000
,
0012
0003
0000
0000
0000
0000
0000
0000
0011
0000
0000
0000
1000
0000
0000
0000
0011
0000
0000
0000
0000
0000
0000
0000
1100
0000
0000
0000
0000
0000
0000
0000
0011
0000
0000
0000
1000
0000
0000
0000
0011
0000
0000
0000
0100
0000
0000
0000
1001
0000
0000
0000
0000
0000
0000
0000
0011
0000
0000
0000
1000
0000
0000
0000
,
0011
0000
0100
0000
1001
0000
0000
0000
1001
0000
0100
0000
0011
0000
0001
0000
1020
0000
0000
0000
1000
0030
0000
0000
0102
0000
1003
0000
1020
0000
0000
0000
,
1000
0030
0000
0000
0000
0000
0000
0000
0102
0000
0000
0000
1003
0000
0000
0000
1020
0000
0000
0000
0000
0000
0000
0000
1130
0000
0000
0000
1000
0000
0000
0000
0011
0000
0000
0000
0100
0000
0000
0000
1001
0000
0000
0000
0001
0000
0000
0000
1100
0000
0000
0000
0000
0000
0000
0000
0110
0000
0000
0000
0000
0000
0000
0000
,
1011
0100
1000
0010
1000
0100
0001
0000
0000
0100
1000
0001
0100
0000
0000
0000
,
0100
0000
0001
0000
0100
0000
1000
0000
0000
0000
0000
0000
0000
0000
0000
0000
0000
0000
0000
0000
0000
0000
0000
0000
0010
0000
0000
1000
0000
0000
0100
0000
0000
0001
0000
0000
0100
0000
0000
0010
0000
0000
0100
0000
0000
1000
0000
0000
,
0010
1000
0001
0100
1001
0000
1011
0101
1001
0000
1011
0000
0101
0010
1001
0000
,
2120
0000
0000
3030
0000
0000
1000
0000
0011
0000
0100
0000
1010
0000
0100
0000
1000
0000
0010
0000
1000
0000
0100
0000
0001
0000
0000
0000
0000
0000
0100
0000
,
1000
0000
0000
0100
0000
0000
0001
0000
0000
0000
0000
0000
0000
0000
0000
0000
0000
0000
0100
0000
0010
0000
0100
0000
1000
0000
0000
0000
0000
0000
0000
0000
0000
0000
0000
0000
1000
0000
0000
0010
0000
0000
0001
0000
0000
0100
0000
0000
,
1000
0010
0100
0001
1000
0010
1000
0100
1000
0001
1100
0010
1001
0100
1010
0100
,
0011
0001
0100
0100
0010
0010
1100
0010
0100
1000
0100
0000
0100
0010
0100
1000
,
0100
0000
0000
0000
0000
0000
0000
0000
0000
0000
0000
0000
0000
0000
0000
0000
0000
0000
0000
0000
0000
0000
0000
0000
1100
0000
0000
0000
0000
0000
0000
0000
0000
0000
0000
0000
0010
0000
0000
0000
0000
0000
0000
0000
0000
0000
0000
0000
0100
0000
0000
0000
0000
0000
0000
0000
0000
0000
0000
0000
0001
0000
0000
0000
0000
0000
0000
0000
0000
0000
0000
0000
1000
0000
0000
0000
0000
0000
0000
0000
0000
0000
0000
0000
0100
0000
0000
0000
0000
0000
0000
0000
0010
0000
0000
0000
0000
0000
0000
0001
0000
0000
0000
0000
0000
0000
0000
0000
1000
0000
0000
0000
0000
0000
0000
0000
0000
0000
0000
0000
0100
0000
0000
0000
0000
0000
0000
0000
0000
0000
0000
0000
1000
0000
0000
0000
0000
0000
0000
0000
0000
0000
0000
0000
0001
0000
0000
0000
0000
0000
0000
0000
0000
0000
0000
0000
1000
0000
0000
0000
0000
0000
0000
0000
0000
0000
0000
0000
0100
0000
0000
0000
0000
0000
0000
0000
0000
0000
0000
0000
0010
0000
0000
0000
0000
0000
0000
0000
0000
0000
0000
0000
,
0100
1000
0100
0000
0100
0010
0100
1000
0100
0000
0100
0010
0100
0001
1000
0100
,
0001
0000
0000
0000
0010
0000
0000
0000
1000
0000
0000
0000
0100
0000
0000
0000
1020
0030
0000
0000
0002
0003
0000
0000
0020
0030
0000
0000
0100
0000
0000
0000
1000
0000
0000
0000
0010
0000
0000
0000
0100
0000
0000
0000
1000
0000
0000
0000
0001
0000
0000
0000
1000
0000
0000
0000
0100
0000
0000
0000
0010
0000
0000
0000
,
1002
0003
0000
0000
0020
0030
0000
0000
0002
0003
0000
0000
0100
0000
0000
0000
1000
0000
0000
0000
0001
0000
0000
0000
1000
0000
0000
0000
0010
0000
0000
0000
0100
0000
0000
0000
0001
0000
0000
0000
1000
0000
0000
0000
0100
0000
0000
0000
1002
0003
0000
0000
0020
0030
0000
0000
0102
0003
0000
0000
1000
0000
0000
0000
,
0010
0000
0000
0000
0100
0000
0000
0000
1002
0003
0000
0000
0020
0030
0000
0000
1002
0003
0000
0000
0100
0000
0000
0000
1000
0000
0000
0000
0100
0000
0000
0000
1020
0030
0000
0000
0002
0003
0000
0000
0120
0030
0000
0000
1000
0000
0000
0000
0011
0000
0000
0000
0100
0000
0000
0000
1001
0000
0000
0000
0100
0000
0000
0000
,
0011
1001
0010
1100
0011
0100
1001
0100
1000
0010
1000
0100
0001
0000
0000
0100
,
1000
0000
0000
0001
0000
0000
0100
0000
0000
0000
0000
0000
0000
0000
0000
0000
0000
0000
0100
0000
0001
0000
0100
0000
1000
0000
0000
0010
0000
0000
0100
0000
0000
1000
0000
0000
0100
0000
0000
0001
0000
0000
0110
0000
0000
1000
0000
0000
,
0100
0001
0100
0010
0100
1000
0010
1000
0001
0100
1001
0010
0100
1010
0100
1000
,
0011
0100
1010
0100
1010
0101
1000
0010
1000
0001
0100
0010
0001
0000
0000
1000
,
0100
0000
0000
1000
0000
0000
0001
0000
0000
0000
0000
0000
0000
0000
0000
0000
0000
0000
0010
0000
0100
0000
1000
0000
0100
0000
0000
1000
0000
0000
0010
0000
0000
0100
0000
0000
1000
0000
0000
0101
0000
0000
1010
0000
0000
0100
0000
0000
,
1000
0000
0000
0010
0000
0000
0100
0000
0000
1000
0000
0000
0110
0000
0000
1000
0000
0000
0011
0000
0000
0100
0000
0000
1010
0000
0000
0101
0000
0000
2020
0000
0000
3030
0000
0000
0000
0000
0000
0000
0000
0000
1011
0000
0100
0000
0010
0000
,
2002
0000
0000
0000
0000
0000
0000
0000
0000
0000
0000
0000
0003
0000
0000
0000
0000
0000
0000
0000
0000
0000
0000
0000
0000
0000
0000
0000
0000
0000
3000
0000
0000
0000
0000
0000
0000
0000
0000
0000
0000
0000
0000
0000
0000
0000
0000
0000
1011
0000
0000
0000
0000
0000
0000
0000
0100
0000
0000
0000
0000
0000
0000
0000
0010
0000
0000
0000
0000
0000
0000
0000
2002
0000
0000
0000
0000
0000
0000
0000
0000
0000
0000
0000
0003
0000
0000
0000
0000
0000
0000
0000
0000
0000
0000
0000
0000
0000
0000
0000
0000
0000
0000
0000
3000
0000
0000
0000
0000
0000
0000
0000
0000
0000
0000
0000
0000
0000
0000
0000
0000
0000
0000
0000
0000
0000
0000
0000
0000
0000
0000
0000
0000
0000
0000
0000
0000
0000
0000
0000
0000
0000
0000
0000
2022
0000
0000
0030
0000
0000
0000
0000
0000
0000
0000
0000
0000
0000
0000
0000
3003
0000
0000
0000
0000
0000
0000
0000
0000
0000
0000
0000
0000
0000
0000
0000
0000
0000
0000
0000
0000
0000
0000
0000
0000
0000
0000
0000
0000
0000
0000
0000
,
0000
0000
0000
0000
0000
1000
0000
0000
0100
0000
0000
0010
0000
0000
0000
0000
0000
0000
0000
0000
0000
0000
0000
0000
0000
0100
0000
0000
0000
0000
0000
0000
0000
0000
0000
0000
0000
0000
0000
1000
0000
0000
0000
0000
0000
0010
0000
0000
0000
0000
0000
0000
0000
1000
0000
0000
0000
0000
0000
0000
0000
0000
0001
0000
,
0000
0000
0000
0000
0000
0000
0000
0000
0000
0000
0000
0000
0010
0000
0000
0000
1000
0000
0000
0000
0000
0100
0000
0000
0000
1000
0000
0000
0000
0000
0010
0000
0000
0100
0000
0000
0000
1000
0000
0000
0000
0100
0000
0000
1000
0000
0000
0000
0010
0000
0000
0000
0100
0000
0000
0000
0000
0001
0000
0000
1000
0000
0000
0000
,
0000
0010
0000
0000
0000
0000
0000
0000
0000
0000
0000
0000
0000
0000
0000
0000
0000
0000
0000
0000
0000
0000
0000
0010
0000
0000
1000
0000
0000
0000
0100
0000
0000
0000
0001
0000
0000
0000
1000
0000
0000
0100
0000
0000
0010
0000
0000
0000
1000
0000
0000
0000
0000
0001
0000
0000
0000
0000
0000
1100
0000
0000
0000
0000
,
0000
0001
0000
0000
0000
0000
0000
0000
0000
0000
0000
0000
0000
0000
0000
0000
0000
0000
0000
0000
0000
0100
0000
0000
0000
0000
1000
0000
0000
0000
0010
0000
0000
0000
0000
1000
0000
0000
0000
0100
0000
0000
0000
0010
0000
0000
1000
0000
0000
0000
0000
0100
0000
0000
0000
0000
1000
0000
0000
0000
0100
0000
0000
0000
,
0000
0000
0000
0100
0000
0000
0000
0000
0000
0100
0000
0000
1001
0000
0000
0100
0000
0000
0000
0000
0000
0100
0000
0000
0001
0000
0000
1100
0000
0000
0010
0000
1000
0000
0100
0000
0010
0000
1000
0000
0100
0000
1001
0000
0000
1000
0000
0000
,
0212
0000
0000
0000
0303
0000
1000
0000
0000
0100
0000
0000
1010
0000
0000
0100
0000
0000
1001
0000
0000
0010
0000
0000
1000
0000
0000
0001
0000
0000
1010
0000
0000
0100
0000
0000
1000
0000
0000
1000
0000
0000
0100
0000
0000
0001
0000
0000
,
1010
0100
1000
0100
1010
0010
1000
0010
1001
0100
1010
0001
1100
0001
1010
0100
,
1000
0001
1010
0100
1001
0010
1100
0010
1001
0010
0101
0010
1100
0001
1000
0100
,
1010
0001
0100
0010
1001
0100
1010
0100
1000
0010
0101
1000
0010
0100
1001
0100
,
1010
0100
1001
0010
1001
0100
1010
0100
0011
0001
1100
0100
0011
0010
1001
0110
,
1000
0010
1001
0100
0011
1100
0001
0010
1100
0010
1001
0110
1000
0011
1100
0010
,
1001
0000
1011
0000
0111
0000
1010
0100
1001
0010
1000
0001
1010
0100
1000
1000
,
0100
0001
1010
0100
1000
0100
1010
0010
0100
0001
1010
0100
1001
0100
1010
0001
,
1010
0100
1000
0001
1010
0100
1001
0010
1100
0010
1001
0010
1001
0100
1010
0001
,
1100
0001
1010
0100
1001
0010
0101
0010
1100
0010
1001
0100
1001
0100
0011
0100
,
1001
0100
1010
0100
1001
0010
1001
0100
1011
0100
1001
0000
1101
0000
0110
0000
,
1000
0000
1010
0000
1010
0000
1010
0000
1010
0100
1001
0000
1001
0001
0100
0000
,
1010
1000
0011
0000
1001
0110
1001
0000
1010
0100
1010
0000
1010
0000
1010
0000
,
1010
0000
0000
0000
0000
0000
1001
0000
0000
0000
0000
0000
1001
0000
0000
0100
0000
0000
1001
0000
0000
0000
0000
0000
1010
0000
0001
0000
0010
0000
0100
0000
0000
1000
0000
0000
0010
0000
0000
0100
0000
0000
1001
0000
0000
0000
0000
0000
,
1000
0000
0000
0000
0000
0000
0000
0000
1002
0003
0000
0000
0020
0030
0000
0000
1002
0003
0000
0000
0000
0000
0000
0000
0110
0000
0000
0000
0000
0000
0000
0000
1001
0000
0000
0000
0000
0000
0000
0000
1010
0000
0000
0000
0000
0000
0000
0000
1000
0000
0000
0000
0000
0000
0000
0000
1020
0030
0000
0000
0002
0003
0000
0000
,
1020
0030
0000
0000
0000
0000
0000
0000
0110
0000
0000
0000
0000
0000
0000
0000
0101
0000
0000
0000
0000
0000
0000
0000
1011
0000
0000
0000
0100
0000
0000
0000
0010
0000
0000
0000
1000
0000
0000
0000
0011
0000
0000
0000
0100
0000
0000
0000
1001
0000
0000
0000
0100
0000
0000
0000
0010
0000
0000
0000
1000
0000
0000
0000
,
0100
0000
0000
0001
0000
0000
1010
0000
0000
0100
0000
0000
1000
0000
0000
0100
0000
0000
1001
0000
0100
0000
0010
0000
1001
0000
0000
0001
0000
0000
0100
0000
0000
0000
0000
0000
1000
0000
0000
0000
0000
0000
1001
0000
0000
0100
0000
0000
,
1000
0000
0000
0010
0000
0000
1000
0000
0000
0100
0000
0000
0001
0000
0000
0000
0000
0000
0000
0000
0000
0100
0000
0000
1000
0000
0000
0001
0000
0000
0100
0000
0000
0000
0000
0000
0000
0000
0000
0000
0000
0000
0100
0000
0001
0000
0100
0000
,
1000
0010
0100
1000
0100
0001
0110
1000
0100
0001
0100
0010
0100
1000
0010
1000
,
0001
0100
1001
0010
0100
1010
0100
1000
0011
0100
1010
0100
1010
0101
1000
0010
,
1000
0000
0000
0001
0000
0000
0100
0000
0000
0010
0000
0000
0001
0000
0000
0000
0000
0000
0000
0000
0000
1000
0000
0000
0100
0000
0000
1000
0000
0000
0001
0000
0000
0000
0000
0000
0000
0000
0000
0000
0000
0000
0010
0000
0100
0000
1000
0000
,
0100
1000
0100
0010
0100
1001
0110
0001
1000
0010
0100
1000
0110
1000
0011
0100
,
1010
0000
0000
0000
0000
0000
0000
0000
0000
0000
0000
0000
0101
0000
0000
0000
0000
0000
0000
0000
0000
0000
0000
0000
2020
0000
0000
0000
0000
0000
0000
0000
0000
0000
0000
0000
3030
0000
0000
0000
0000
0000
0000
0000
0000
0000
0000
0000
0000
0000
0000
0000
0000
0000
0000
0000
0000
0000
0000
0000
0000
0000
0000
0000
0000
0000
0000
0000
0000
0000
0000
0000
1011
0000
0000
0000
0000
0000
0000
0000
0100
0000
0000
0000
0000
0000
0000
0000
0010
0000
0000
0000
0000
0000
0000
0000
2002
0000
0000
0000
0000
0000
0000
0000
0000
0000
0000
0000
0003
0000
0000
0000
0000
0000
0000
0000
0000
0000
0000
0000
0000
0000
0000
0000
0000
0000
3000
0000
0000
0000
0000
0000
0000
0000
0000
0000
0000
0000
0000
0000
0000
0000
0000
0000
1011
0000
0000
0000
0000
0000
0000
0000
0100
0000
0000
0000
0000
0000
0000
0000
0010
0000
0000
0000
0000
0000
0000
0000
2002
0000
0000
0000
0000
0000
0000
0000
0000
0000
0000
0000
0003
0000
0000
0000
0000
0000
0000
0000
0000
0000
0000
0000
,
0000
3000
0000
0000
0000
0000
2012
0000
3003
0000
0000
0000
0000
0000
0000
0000
0000
0000
0000
0000
0000
0000
0000
0000
;
