#TITLE:ZENITH;
#SUBTITLE:;
#ARTIST:TERRA;
#TITLETRANSLIT:;
#SUBTITLETRANSLIT:;
#ARTISTTRANSLIT:;
#CREDIT:;
#BANNER:TERRA.jpg;
#BACKGROUND:TERRA-bg.jpg;
#LYRICSPATH:;
#CDTITLE:;
#MUSIC:ZENITH.mp3;
#OFFSET:-0.080;
#SAMPLESTART:42.624;
#SAMPLELENGTH:12.000;
#SELECTABLE:YES;
#BPMS:0.000=190.000;
#STOPS:;
#BGCHANGES:;
// cache tags:
#FIRSTBEAT:4.000;
#LASTBEAT:380.000;
#SONGFILENAME:Songs/keyboard/ZENITH/ZENITH.sm;
#HASMUSIC:1;
#HASBANNER:1;
#MUSICLENGTH:122.052;
// end cache tags

//---------------dance-single - MANIAC----------------
#NOTES:
     dance-single:
     MANIAC:
     Hard:
     8:
     0.658,0.778,0.410,0.188,0.041,489.000,50.000,23.000,0.000,0.000:

0000
0000
0000
0000
,
0010
0000
0000
0000
0110
0000
0000
1000
,
0010
0100
0001
0011
,
0100
0000
0000
1000
0100
0000
0000
0000
,
0000
0000
0000
0000
0001
0100
0010
0000
,
0110
0000
1001
0000
,
1010
0000
1100
0000
,
1001
0000
0000
0000
0001
0010
0100
0000
,
2000
0000
0000
0000
3100
1000
0001
0100
,
0000
0000
0000
0000
0000
0000
1000
0010
1000
0000
0001
0000
0010
0000
0000
0000
,
0100
0000
1000
0000
,
0001
0000
0110
0000
,
1000
0000
0000
1000
0001
0000
0000
0000
,
0100
0000
0000
0001
1000
0000
0000
0000
,
0010
0000
0010
0000
0010
0000
0010
1000
,
0010
0010
0010
0010
,
1000
0100
0001
0010
,
0000
1000
1000
0001
0001
0000
0000
0000
,
0010
0000
0001
0010
0001
0100
0001
0010
,
0100
0000
1000
0010
0001
0010
1000
0010
,
0100
0000
0001
0010
0001
0100
0001
0010
,
0100
0000
0001
0100
1000
0010
0001
0010
,
1000
0110
0100
0101
,
0001
0011
0010
0110
,
1000
0001
0100
0000
0010
1000
0100
0000
,
0010
0100
0010
0100
0010
0100
0010
0100
,
1000
0000
0001
0100
1000
0000
0001
0010
,
0100
0000
1000
0010
0001
0000
1000
0100
,
0010
0001
1000
0000
0001
0000
0100
0000
,
0010
1000
0100
0000
0001
0100
0010
1000
,
0001
0100
0001
0000
0010
0100
0010
0000
,
1000
0100
0001
0000
1000
0000
0010
0000
,
0001
0100
1000
0000
0100
0001
0010
0000
,
1100
0000
0000
0101
0000
0000
0011
0000
0000
0000
0000
0000
0000
0000
0000
0000
,
0020
0000
1000
0000
0130
0001
0010
0000
,
0200
0000
0001
0000
0310
0001
0100
0000
,
0020
0000
1000
0000
0130
0001
1000
0100
,
0020
0000
0001
0000
0130
1000
0010
0100
,
0002
0000
0010
0000
0103
0010
1000
0000
,
2000
0000
0010
0000
3100
0001
0100
1000
,
0001
0100
1000
0001
,
0010
0000
0100
0001
0010
0100
0001
0000
,
1000
0011
1000
0101
,
0010
0100
0010
0200
0000
0300
0000
0000
,
0001
1010
0001
1100
,
0100
0010
0100
0020
0000
0030
0000
0000
,
0001
0110
1000
0110
,
0010
1001
0100
1001
,
0010
0100
0010
0000
1000
0001
0100
0000
,
0001
0001
0100
0010
1000
1000
0100
0010
,
0100
0110
0000
0000
,
0100
1100
0000
0000
,
0100
0000
0101
0000
0000
0010
0000
0100
,
1001
1000
0001
0000
,
0100
0001
0100
0001
0000
0000
0000
0000
,
0100
1000
0100
1000
0000
0000
0000
0000
,
0010
0100
0010
0001
0000
0000
0000
0000
,
0010
0100
0010
1000
0001
0100
0010
0000
,
2000
0000
3100
0100
0010
0001
0100
0010
,
2000
0000
3001
0001
1000
0100
1000
0010
,
0200
0000
0300
0001
0200
0000
0300
0010
,
1000
1000
1000
0000
0100
0100
0100
0000
,
0010
0001
0010
0000
0100
1000
0001
0000
,
0100
0010
0100
0000
0001
1000
0010
0000
,
0010
0100
0001
0010
0100
1000
0010
1000
,
0001
0100
0001
0010
0001
1000
0010
0100
,
0010
0000
0010
0000
0010
0000
0010
1000
,
0100
0000
0100
0000
0100
0010
0100
1000
,
1000
0000
1000
0000
1000
0000
1001
0100
,
0001
0000
0001
0010
0011
0000
1100
0000
,
0110
0001
1000
0010
1000
0001
0100
0000
,
0011
0100
1000
0010
1000
0001
0100
0000
,
1010
0100
0001
1000
0010
0010
0100
0010
,
1000
0001
1000
0001
1000
0000
0000
0000
0010
0100
0010
0100
0010
0000
0000
0000
,
1000
0100
0010
0001
2000
0000
3100
0010
,
0001
0100
0010
1000
0002
0000
0103
0010
,
1000
0000
0100
0010
0001
0000
0010
0001
,
0100
1000
0100
0001
,
0012
0000
0003
1000
2010
0000
3000
0001
,
0100
0000
0000
0110
0000
0000
1000
0000
,
0001
0100
0010
1000
0100
0010
0001
0010
,
0002
0000
0203
0000
0320
0000
1030
0010
,
0100
0000
0110
0000
0100
0000
0001
1000
,
0001
0000
0010
0100
0010
0001
0010
0000
,
0100
0000
0100
1000
0100
0000
0100
0001
,
0100
0000
0010
0100
0010
0000
0001
0000
,
1001
1010
0110
0001
,
1001
0011
0110
1000
,
1000
0100
0001
0000
0001
0100
1000
0000
,
1001
1010
0011
1001
,
0010
1000
0100
0002
0000
0103
0110
0000
,
0010
0001
0100
2000
0000
3100
0110
0000
,
0100
0001
0010
0001
0100
1000
0100
0010
,
2000
0001
0001
3001
,
1000
0100
1000
0000
0001
0100
0001
0000
1000
0100
1000
0000
0001
0100
0001
0000
,
1001
0000
0000
0000;
