#TITLE:Chiyopop;
#SUBTITLE:EXoduz Violation II;
#ARTIST:GORESHIT;
#TITLETRANSLIT:;
#SUBTITLETRANSLIT:;
#ARTISTTRANSLIT:;
#CREDIT:;
#BANNER:../Banner.png;
#BACKGROUND:../Background.png;
#LYRICSPATH:;
#CDTITLE:;
#MUSIC:ChiyoPop.ogg;
#OFFSET:0.340;
#SAMPLESTART:96.491;
#SAMPLELENGTH:12.000;
#SELECTABLE:YES;
#DISPLAYBPM:152.000;
#BPMS:0.000=152.000,2.000=149.000,3.000=151.000,4.000=152.000,18.000=150.000,19.000=152.000,34.000=150.000,35.000=152.000,62.000=148.000,63.000=153.000,64.000=152.000,97.000=148.000,97.500=153.000,98.000=152.000,114.000=148.000,114.500=153.000,115.000=152.000,161.000=148.000,161.500=158.000,162.000=152.000,169.000=148.000,169.500=158.000,170.000=152.000,176.000=148.000,176.500=158.000,177.000=152.000,192.000=148.000,192.500=158.000,193.000=152.000,201.000=148.000,201.500=158.000,202.000=152.000,209.000=148.000,209.500=158.000,210.000=152.000,233.000=148.000,233.500=158.000,234.000=152.000,354.000=148.000,354.500=158.000,355.000=152.000,481.000=148.000,481.500=158.000,482.000=152.000,545.000=148.000,545.500=158.000,546.000=152.000,577.000=148.000,577.500=158.000,578.000=152.000,641.000=148.000,641.500=158.000,642.000=152.000,681.000=148.000,681.500=158.000,682.000=152.000,777.000=148.000,777.500=158.000,778.000=152.000;
#STOPS:;
#BGCHANGES:;
// cache tags:
#FIRSTBEAT:2.000;
#LASTBEAT:995.000;
#SONGFILENAME:Songs/EXoduz Violation II/ChiyoPop - [Ov3rHell3XoduZ]/sm.sm;
#HASMUSIC:1;
#HASBANNER:1;
#MUSICLENGTH:395.221;
// end cache tags

//---------------dance-single - ----------------
#NOTES:
     dance-single:
     :
     Beginner:
     13:
     1.000,1.000,0.071,0.660,1.000,2635.000,28.000,261.000,4.000,1.000:
0000
0000
2000
3200
,
0320
0032
2003
3020
,
0230
0302
0023
0230
,
2300
3002
0203
0302
,
2003
3200
0320
0032
,
2003
3020
0230
0302
,
0023
0230
2300
3002
,
0203
0302
2003
3200
,
0320
0032
2003
3020
,
0230
0302
2003
3200
,
2300
3002
0023
0230
,
2300
3020
0230
0302
,
2003
3200
0320
0230
,
2300
3002
0203
0302
,
2003
3020
0230
0302
,
2003
3200
0320
0000
,
0031
0000
1000
0100
0000
0010
0001
0000
4000
0000
0000
0000
0000
0000
0000
0000
,
0000
0000
0000
0000
,
3040
0000
0000
0000
,
0000
0000
0430
0000
,
0000
0000
0300
0011
1100
1000
0010
0100
,
0001
1000
0100
1000
0001
0010
0100
1000
,
0001
0100
0010
1000
1100
0100
0010
0001
,
1000
0001
0100
0010
1010
1000
1100
0100
,
0110
0000
0010
0000
0011
0000
0001
0000
1001
1000
0100
0010
0001
1000
0010
1000
,
0100
0010
0001
0010
0001
1000
0010
0100
0001
0100
0001
0010
0100
1000
0001
1000
,
0100
1000
0100
0010
0001
1000
0010
1000
0010
0100
0001
1000
0001
0010
0001
1000
,
0100
1000
0100
0010
0001
1000
0010
0100
0001
1000
0100
1000
0100
0010
0001
0010
,
0100
1000
0001
0100
0001
1000
0001
1000
0100
0000
0010
0000
0001
0000
1000
0000
,
0010
0100
0001
1000
0100
1000
0001
0010
,
0100
0000
1000
0000
0001
0000
0100
0000
0001
1000
0010
1000
0001
0100
0001
0100
,
0010
1000
0010
0100
0001
0100
0001
1000
0100
1000
0001
0010
0001
1000
0100
1000
,
0100
0010
0001
1000
0001
0100
0001
1000
1010
0000
0100
0001
1000
0000
0100
0010
,
0001
0000
1000
0010
0100
0000
0001
0010
0100
0000
1000
0001
0100
0000
0010
1000
,
0100
0000
0010
0001
1000
0000
0001
0010
0100
0000
1000
0001
0100
0000
0010
1000
,
0100
0000
0010
0001
1000
0000
0001
0010
0100
0000
1000
0001
0100
0000
0010
1000
,
0100
0000
0010
0001
1000
0000
0001
0010
0100
0000
1000
0010
0100
0000
0001
1000
,
0100
0000
0010
0001
1000
0000
0010
0100
0001
0000
1000
0100
0010
0000
0100
1000
,
0001
0000
0100
0010
1000
0000
0100
0010
0001
0000
1000
0000
0010
0000
0100
0000
,
0001
0000
1000
0000
0001
0000
0010
0000
0100
1000
0001
0100
0001
1000
0010
1000
,
0010
0000
0100
0000
0001
0000
1000
0000
0100
0000
1000
0000
0100
0000
0010
0000
0001
0000
0010
0000
0001
0000
1000
0000
0010
0000
0000
0000
0000
0000
0100
0000
0000
0001
0000
0000
0010
0000
0000
0000
0000
0000
0100
0000
0000
1000
0000
0000
,
0010
0000
0100
0001
1000
0000
0100
0010
0001
0000
1000
0010
1000
0000
0001
0100
,
0001
0000
1000
0100
0010
0000
0001
1000
0010
0000
0100
0001
0100
0000
0001
0010
,
0001
0000
1000
0010
1000
0000
0001
0100
0001
0000
1000
0010
0100
0000
0001
0010
,
0100
0000
1000
0010
0100
0000
0001
0010
0001
0000
1000
0100
0010
0000
0001
1000
,
0001
0000
0100
0001
0100
0000
0010
1000
0100
0000
0010
0001
0010
0000
0100
1000
,
0100
0000
0010
0001
1000
0000
0010
0100
0001
0000
0100
0001
1000
0000
0001
1000
,
0001
0000
1000
0100
1000
0000
0001
0010
0100
0000
1000
0100
1000
0000
0001
0010
,
0100
0000
1000
0010
1000
0000
0001
0100
0001
0000
0010
0100
0010
0000
0001
0100
,
0001
0000
1000
0010
1000
0000
0001
0100
0010
0000
1000
0100
1000
0000
0001
0010
,
0001
0000
1000
0100
0010
0000
0001
1000
0001
0000
0100
0010
1000
0000
0100
0010
,
0001
0000
1000
0100
1000
0000
0001
0010
0100
0000
1000
0010
0100
0000
0001
1000
,
0100
0000
1000
0001
0100
0000
0001
0100
0001
0000
1000
0010
1000
0000
0100
0010
,
0001
0000
0010
0100
1000
0000
0001
0100
0001
0000
1000
0100
0010
0000
0100
1000
,
0001
0000
0100
0001
0100
0000
0001
0000
0222
0000
0000
0000
0000
0000
0000
0000
,
0000
0000
0000
0000
0333
0000
0000
0000
0001
1000
0010
0100
0001
0100
0001
1000
,
0100
0000
0010
0000
0001
0000
1000
0000
0001
0000
0100
0000
0001
0000
1000
0000
0001
0000
1000
0000
0100
0000
1000
0000
0100
0000
0000
0000
0000
0000
0010
0000
0000
0001
0000
0000
0010
0000
0000
0000
0000
0000
0100
0000
0000
1000
0000
0000
,
0001
0000
1000
0010
0100
0000
0001
0010
0100
0000
1000
0100
1000
0000
0001
1000
,
0010
0000
1000
0001
0010
0000
0100
1000
0010
0000
0100
0001
0100
0000
0010
1000
,
0010
0000
1000
0100
1000
0000
0010
0001
0010
0000
0100
1000
0001
0000
0100
0001
,
0010
0000
0100
1000
0100
0000
0010
0001
1000
0000
0001
0100
0001
0000
1000
0010
,
0100
0000
0001
0010
0001
0000
1000
0100
1000
0000
0001
0010
0100
0000
0010
0001
,
1000
0000
0010
0100
0001
0000
1000
0100
1000
0000
0001
0010
0001
0000
1000
0010
,
1000
0000
0001
0010
0001
0000
1000
0100
1000
0000
0001
0010
0100
0000
1000
0001
,
0100
0000
0001
1000
0100
0000
1000
0100
1000
0000
0001
0010
0100
0000
1000
0010
,
1000
0000
0100
0010
0100
0000
0010
0001
0010
0000
0100
1000
0001
0000
1000
0010
,
1000
0000
0001
0010
0001
0000
1000
0100
1000
0000
0001
0100
0001
0000
1000
0001
,
1000
0000
0100
0010
0001
0000
1000
0010
0100
0000
0001
0010
0100
0000
1000
0100
,
1000
0000
0001
0100
0001
0000
1000
0001
0200
0000
0310
1000
0100
0000
0010
0001
,
0010
0000
0100
1000
0001
0000
0100
0001
0100
0000
0010
1000
0010
0000
0100
0001
,
1000
0000
0100
0010
0001
0000
1000
0001
2000
0000
3001
1000
0001
0000
0100
0001
,
0100
0000
0010
1000
0100
0000
0010
0001
0020
0000
0130
1000
0002
0000
1003
0001
,
2000
0000
3001
0100
0002
0000
1003
0001
0101
0000
0100
0000
0010
0000
1000
0000
,
0100
0010
0001
1000
0001
0010
0100
1000
,
0001
1000
0010
1000
0100
0010
0001
0100
,
0001
0010
0100
1000
0001
0100
0001
1000
,
0001
1000
0010
0100
0001
1000
0100
1000
,
0100
0010
0001
0010
0001
1000
0010
0100
,
0001
1000
0001
0010
0100
1000
0100
1000
,
0010
0000
0100
0000
0001
0000
0010
0000
0001
0000
1000
0000
0100
0000
0010
0001
,
1000
0000
0010
0100
0000
0010
0100
0000
1001
0000
1000
0000
0010
0000
0100
0000
,
0001
1000
0100
1000
0001
0010
0100
1000
,
0010
0100
0001
0010
0001
1000
0100
0010
,
0001
1000
0001
0010
0001
1000
0010
1000
,
0001
0100
0001
1000
0100
0010
0100
1000
,
0001
0010
0100
0010
0001
1000
0100
0010
,
0100
1000
0001
0100
0001
1000
0100
1000
,
0001
0000
0100
0000
0001
0000
1000
0000
0100
0000
1000
0000
0001
0000
0100
0001
,
1000
0000
0001
0100
0000
0001
0100
0000
0101
0000
0001
1000
0010
0000
0100
0001
,
0010
0000
0100
1000
0100
0000
0010
0001
0010
0000
0100
1000
0001
0000
0100
0001
,
0100
0000
0010
1000
0010
0000
0100
0001
1000
0000
0100
0010
0001
0000
0010
0100
,
4000
0000
0000
0000
,
0000
0000
0000
0000
0000
0000
0000
0000
0000
0000
0000
0000
3000
0000
0000
0100
0010
0001
0010
0001
1000
0010
1000
0010
,
0100
0001
1000
0001
0010
0001
0010
0001
1000
0001
0100
0001
0100
0001
0010
0100
1000
0100
1000
0001
1000
0010
1000
0010
,
0100
0000
0001
0000
1000
0000
0001
0000
1000
0000
0100
0000
1000
0000
0100
0000
0010
0000
0001
0000
0010
0000
0001
0000
1000
0000
0000
0000
0000
0000
0010
0000
0000
0100
0000
0000
0001
0000
0000
0000
0000
0000
0010
0000
0000
0100
0000
0000
,
1000
0000
0100
0010
0001
0000
1000
0010
1000
0000
0001
0100
0001
0000
1000
0100
,
1000
0000
0001
0010
0001
0000
1000
0010
1000
0000
0001
0100
0001
0000
1000
0100
,
0010
0000
0100
1000
0001
0000
0100
0001
0100
0000
0001
0100
0001
0000
1000
0010
,
0100
0000
0010
1000
0100
0000
0010
0001
0010
0000
0100
1000
0001
0000
0100
0001
,
0100
0000
0010
1000
0010
0000
0100
0001
1000
0000
0100
0010
0001
0000
1000
0010
,
1000
0000
0001
0100
0001
0000
1000
0100
1000
0000
0100
0010
0001
0000
1000
0010
,
1000
0000
0001
0100
0001
0000
1000
0100
0010
0000
0001
1000
0010
0000
1000
0001
,
0010
0000
0100
1000
0001
0000
0100
0001
0100
0000
0001
0010
0100
0000
1000
0001
,
1000
0000
0100
0010
0001
0000
1000
0010
1000
0000
0001
0100
0001
0000
1000
0100
,
1000
0000
0001
0010
0001
0000
1000
0010
0100
0000
0001
0010
0100
0000
1000
0001
,
0100
0000
0001
1000
0001
0000
1000
0100
1000
0000
0001
0010
0100
0000
1000
0001
,
1000
0000
0001
0100
0001
0000
1000
0100
0010
0000
0001
1000
0001
0000
0010
0100
,
1000
0000
0001
0100
0001
0000
1000
0010
1000
0000
0001
0100
0001
0000
1000
0100
,
0010
0000
0100
1000
0100
0000
0010
0001
1000
0000
0010
1000
0010
0000
0100
0001
,
1000
0000
0100
0010
0001
0000
1000
0010
1000
0000
0001
0010
0001
0000
1000
0100
,
0010
0000
0100
1000
0001
0000
0100
0001
0100
0000
0010
1000
0100
0000
0010
0001
,
0010
0000
0100
1000
0001
0000
0100
0001
0100
0000
0010
1000
0010
0000
0100
0001
,
0010
0000
0100
1000
0100
0000
0010
0001
1000
0000
0010
0100
0001
0000
1000
0100
,
1000
0000
0001
0010
0100
0000
0010
0001
1000
0000
0010
0100
0010
0000
1000
0100
,
0010
0000
0100
1000
0001
0000
0100
0001
0100
0000
0010
1000
0100
0000
0010
0001
,
1000
0000
0010
0100
0001
0000
0010
0100
1000
0000
0100
0010
0100
0000
0010
0001
,
1000
0000
0010
1000
0010
0000
0100
0001
1000
0000
0100
0010
0001
0000
0010
0100
,
1000
0000
0001
0100
0001
0000
1000
0001
1000
0000
0010
0100
0010
0000
1000
0100
,
1000
0000
0001
0100
0001
0000
1000
0010
1000
0001
0100
0001
1000
0100
0010
0001
,
0010
0100
1000
0100
0010
0001
0010
0100
1000
0100
0010
0001
0010
0100
1000
0100
,
0010
0000
0001
0000
0010
0000
0001
0000
0010
0000
0100
0000
1000
0000
0100
0000
1000
0000
0001
0000
0100
0000
0001
0000
1000
0000
0000
0000
0000
0000
0001
0000
0000
0100
0000
0000
0010
0000
0000
0000
0000
0000
1000
0000
0000
0100
0000
0000
,
1000
0000
0001
0010
0100
0000
1000
0010
1000
0000
0001
0100
0001
0000
1000
0100
,
0010
0000
0100
1000
0001
0000
0000
0000
1000
0010
1000
0010
1000
0000
0000
0000
,
0001
0100
0001
0100
0001
0000
0000
0000
1000
0100
1000
0100
1000
0000
0000
0000
,
0001
0010
0001
0010
0001
0000
0000
0000
1000
0000
0001
0100
0010
0000
1000
0100
,
1000
0000
0001
0010
0100
0000
0010
0001
0010
0000
0100
1000
0100
0000
1000
0010
,
1000
0000
0001
0100
0001
0000
1000
0100
0010
0000
0100
1000
0100
0000
0010
0001
,
1000
0000
0010
1000
0010
0000
0100
0001
1000
0000
0100
1000
0001
0000
1000
0001
,
1000
0000
0001
0100
0000
0001
0100
0000
0110
0000
1000
0100
1000
0000
0001
0010
,
0001
0000
1000
0100
0010
0000
0001
0100
0001
0000
1000
0100
1000
0000
0001
0100
,
0001
0000
1000
0010
1000
0000
0001
0100
0010
0000
1000
0100
1000
0000
0001
0010
,
0100
0000
1000
0100
1000
0000
0001
0010
0100
0000
1000
0100
0010
0000
0001
0010
,
0100
0000
1000
0001
1000
0000
0001
1000
0001
0000
1000
0010
1000
0000
0100
0010
,
0001
0000
0100
0001
0100
0000
0001
0100
0001
0000
1000
0010
1000
0000
0010
0100
,
0010
0000
0100
0001
0100
0000
0001
0010
0100
1000
0001
0100
0001
1000
0010
1000
,
0100
0010
0001
0100
0001
1000
0001
0010
0002
2003
3020
0230
0302
2003
3200
0320
,
0031
0100
0001
1000
0001
0100
0001
1000
0001
0010
0001
1000
0002
0000
0000
0000
0000
0000
0203
0000
0000
0000
0000
0000
,
0302
0023
0032
2003
,
3200
2300
3020
0230
,
0302
0203
0302
0023
,
0230
0300
1100
1000
1010
0000
0200
0000
,
0302
2003
3200
2300
,
3002
0023
0032
2003
,
3020
0000
0000
0000
0230
0000
0000
0000
0302
0000
0000
0000
1003
0000
0100
0010
,
0001
0000
1000
0010
0000
1000
0010
0000
0200
0000
0000
0000
0302
0000
0000
0000
,
0023
0230
2300
3002
,
0203
0302
2003
3020
,
0230
0302
0023
0230
,
2300
3000
1100
1000
1001
0000
0200
0000
,
0320
2030
3200
0320
,
0230
2300
3002
0203
,
0302
0000
0000
0000
2003
0000
0000
0000
3200
0000
0000
0000
0310
0000
0001
1000
,
0001
0000
0100
0010
0000
0100
0010
0000
1000
0000
0100
0000
1000
0000
0001
0000
,
0010
0001
1000
0001
0100
0001
1000
0010
,
1000
0001
0010
0001
1000
0100
1000
0001
,
0100
0001
0010
0100
1000
0001
0100
0001
,
1000
0100
0010
0100
1000
0001
0010
0001
,
1000
0010
1000
0001
0100
0001
1000
0001
,
0010
0001
1000
0100
0010
0100
1000
0001
,
0100
0000
0001
0000
1000
0000
0001
0000
0010
0000
0100
0000
1000
0000
0001
1000
,
0010
0000
0100
0001
0000
0010
0100
0000
1000
0000
0001
0000
0100
0000
0001
0000
,
1000
0001
0010
0001
1000
0100
0010
0100
,
1000
0001
0100
0001
1000
0001
0010
0100
,
1000
0100
0010
0001
1000
0001
0100
0001
,
1000
0010
1000
0001
0101
0100
0010
1000
,
0100
0010
0001
1000
1001
0001
0100
0001
,
0010
0100
1000
0001
1001
1000
0100
1000
,
0110
0100
0001
0010
0110
0100
1100
1000
,
1000
0010
0100
0001
1000
0001
0010
0001
1000
0001
0100
0001
1000
0000
0000
0000
0000
0000
0000
0000
0000
0000
0000
0000
,
0000
0000
0000
0000
,
0100
0000
0000
0000
0000
0000
0000
0000
0000
0000
0000
0000
0000
0000
0000
0000
0000
0000
0000
0000
0000
0000
0000
0000
0100
0000
0000
0000
0000
0000
0000
0000
0000
0000
0000
0000
0000
0000
0000
0000
0000
0000
0000
0000
0000
0000
0000
0000
0100
0000
0000
0000
0000
0000
0000
0000
0010
0000
0000
0000
0000
0000
0000
0000
0001
0000
0000
0000
0000
0000
0000
0000
1000
0000
0000
0000
0000
0000
0010
0000
0000
0000
0000
0000
0100
0000
0000
0000
0000
0000
0010
0000
0000
0000
0000
0000
0100
0000
0000
0000
0000
0000
0000
0000
0000
0000
0000
0000
0000
0000
0000
0000
0000
0000
0000
0000
0000
0000
0000
0000
0001
0000
0000
0000
0000
0000
0000
0000
0000
0000
0000
0000
0000
0000
0000
0000
0000
0000
0000
0000
0000
0000
0000
0000
1000
0000
0000
0000
0000
0000
0000
0000
0000
0000
0000
0000
0000
0000
0000
0000
0000
0000
0000
0000
0000
0000
0000
0000
0100
0000
0000
0000
0000
0000
0000
0000
0000
0000
0000
0000
0000
0000
0000
0000
0000
0000
0000
0000
0000
0000
0000
0000
,
1000
0001
0010
0001
1000
0010
0100
0001
,
1000
0001
0010
0001
1000
0010
1000
0100
,
0010
0001
0100
0001
1000
0001
0010
0100
,
1000
0001
0011
0010
0110
0100
1000
0001
,
0100
0001
1000
0010
1000
0100
0010
0001
,
0100
0001
1000
0001
0010
0100
1000
0001
,
0100
0000
0001
0000
1000
0000
0010
0000
0100
0000
0001
0000
0010
0000
0100
1000
,
0001
0000
0010
0100
0000
0010
0100
0000
2000
3000
0020
0030
0200
0300
0002
0003
,
2000
3000
0200
0300
2000
3000
0002
0003
0020
0030
0200
0300
2000
3000
0002
0003
,
0200
0300
0002
0003
2000
3000
0020
0030
0200
0300
0002
0003
0020
0030
0200
0300
,
0020
0030
0002
0003
2000
3000
0002
0003
0020
0030
0002
0003
2000
3000
0020
0030
,
2000
3000
0020
0030
0110
0000
0100
0000
0101
0000
0002
0003
2000
3000
0020
0030
,
0200
0300
0002
0003
2000
3000
0020
0030
0200
0300
0002
0003
0200
0300
0020
0030
,
2000
3000
0200
0300
0020
0030
0200
0300
2000
3000
0002
0003
0200
0300
0002
0003
,
2000
3000
0020
0030
0200
0300
0002
0003
0020
0030
0200
0300
1000
0000
0001
0100
,
0010
0000
1000
0100
0000
0010
0001
0000
2000
3000
0200
0300
0020
0030
0002
0003
,
2000
3000
0020
0030
2000
3000
0200
0300
0020
0030
0002
0003
0200
0300
0002
0003
,
2000
3000
0002
0003
0020
0030
0200
0300
0020
0030
0002
0003
0020
0030
0200
0300
,
2000
3000
0200
0300
0020
0030
0200
0300
2000
3000
0002
0003
0200
0300
0002
0003
,
2000
3000
0020
0030
2000
3000
0200
0300
0020
0030
0200
0300
2000
3000
0002
0003
,
0200
0300
0002
0003
2000
3000
0002
0003
0020
0030
0200
0300
2000
3000
0020
0030
,
2000
3000
0200
0300
0020
0030
0200
0300
2000
3000
0002
0003
0200
0300
0020
0030
,
0200
0300
0002
0003
0020
0030
0200
0300
2000
3000
0002
0003
0100
0000
0010
1000
,
0100
0000
0010
0100
0000
1000
0001
0000
0200
0000
0000
0000
0310
1000
0100
0010
,
0100
1000
0001
0100
0001
1000
0001
0010
0001
1000
0010
1000
0100
0010
0001
0100
,
0001
1000
0001
0010
0001
1000
0010
1000
0100
0010
0001
0100
0001
1000
0100
1000
,
0001
0010
0100
1000
0010
0100
0001
1000
0100
1000
0001
0010
0100
0010
0001
1000
,
0010
1000
0100
0010
0001
0100
0001
1000
0002
0000
1003
0010
1000
0100
0010
0001
,
0100
0001
0010
0100
1000
0001
0100
0001
2000
0000
3010
0100
0001
1000
0100
1000
,
0001
0010
0100
1000
0001
0100
0001
1000
0020
0000
0130
0001
1000
0001
0010
0100
,
2000
0000
3001
1000
0010
0100
0001
1000
0200
0000
0310
0001
0200
0000
0310
1000
,
0100
0000
0010
0000
0001
0000
1000
0000
0001
0000
0100
0000
0001
0000
0010
0000
0001
0000
1000
0000
0001
0000
0100
0000
0001
0000
0000
0000
0000
0000
1000
0000
0000
0100
0000
0000
0010
0000
0000
0000
0000
0000
0001
0000
0000
1000
0000
0000
,
0010
0000
0100
0001
1000
0000
0001
0010
0001
0000
1000
0100
0010
0000
0001
1000
,
0010
0000
0100
0001
1000
0000
0001
0010
0100
0000
1000
0100
0010
0000
0001
0010
,
0100
0000
1000
0100
0010
0000
0001
1000
0010
0000
0100
0001
1000
0000
0001
0010
,
0001
0000
1000
0100
1000
0000
0001
0100
0001
0000
1000
0010
1000
0000
0100
0010
,
0001
0000
0100
0001
0010
0000
0100
1000
0001
0000
0100
0010
1000
0000
0001
1000
,
0010
0000
0100
0001
1000
0000
0100
0010
0100
0000
1000
0001
0100
0000
0010
1000
,
0010
0000
0100
0001
1000
0000
0100
0010
0001
0000
0010
0002
0013
0000
0100
1000
,
0001
0000
0100
0001
0100
0000
0010
1000
0010
0000
0100
0001
1000
0000
0100
0010
,
0100
0000
1000
0001
0010
0000
0100
1000
0010
0000
0100
0001
0100
0000
0010
1000
,
0010
0000
0100
0001
1000
0000
0001
1000
0001
0000
0100
0001
0100
0000
0010
1000
,
0100
0000
0010
0001
1000
0000
0100
1000
0010
0000
1000
0010
1000
0000
0100
0010
,
0001
0000
1000
0001
0100
0000
0010
1000
0100
0000
0010
0001
0010
0000
0100
1000
,
0001
0000
1000
0010
1000
0000
0001
0100
0001
0000
1000
0100
1000
0000
0001
0010
,
0100
0000
1000
0100
1000
0000
0001
0010
0100
0000
1000
0100
1000
0000
0010
0100
,
0001
0000
1000
0010
1000
0000
0001
0010
0001
0000
1000
0100
0010
0000
0100
1000
,
0001
0000
0100
0001
0100
0000
0010
1000
0020
0130
0001
1000
0100
1000
0001
0010
,
0100
1000
0001
0100
0001
1000
0010
1000
0100
0010
0001
0100
0001
1000
0001
0010
,
0001
1000
0010
1000
0100
0010
0001
0100
0001
1000
0001
0010
0001
1000
0010
1000
,
0001
0010
0001
1000
0010
1000
0100
1000
0001
0100
0001
1000
0100
1000
0001
0100
,
0001
1000
0010
1000
0100
0010
0001
1000
0001
0100
0001
1000
0010
1000
0100
0010
,
0001
0100
0001
0010
0100
1000
0100
1000
0010
0100
0001
0010
0001
1000
0010
1000
,
0100
0010
0001
0100
0001
1000
0001
1000
0010
0100
0001
0010
0001
1000
0100
0010
,
0100
1000
0001
0100
0001
0100
0010
1000
0100
0010
0001
1000
0010
0100
0001
1000
,
0100
1000
0100
0010
0001
1000
0010
0100
0001
0100
0001
0010
0100
1000
0001
0100
,
0001
1000
0010
0100
0001
0010
0001
0010
0100
1000
0001
0100
0001
0100
0010
1000
,
0100
1000
0100
0010
0001
1000
0010
1000
0100
0010
0001
0100
0001
1000
0001
1000
,
0010
1000
0100
0010
0001
0100
0001
0100
0010
1000
0100
0010
0001
1000
0010
1000
,
0100
0010
0001
0100
0001
1000
0001
0100
0020
0000
1030
0100
0010
0100
1000
0001
,
0100
0001
0010
0100
0010
0001
1000
0100
0020
0000
0130
1000
0001
1000
0010
1000
,
0100
0010
0001
0100
0001
1000
0001
0010
0002
0000
1003
0010
1000
0001
0100
0001
,
2000
0000
3100
1000
0001
0100
0001
0010
0200
0000
1300
0010
0200
0000
0301
0010
,
0100
0000
1000
0000
0010
0000
1000
0000
0100
0000
0010
0000
0001
0000
0100
0000
0001
0000
0010
0000
0100
0000
1000
0000
0100
0000
0000
0010
0000
0000
0001
0000
0000
1000
0000
0000
0100
0000
0000
0010
0000
0000
0001
0000
0000
1000
0000
0000
,
0100
0010
0001
1000
0100
0010
0001
1000
0100
0010
0001
1000
0100
0010
0001
1000
,
0100
0010
0001
1000
0100
0010
0001
1000
0010
0100
0001
1000
0010
0100
0001
1000
,
0010
0100
0001
1000
0010
0100
0001
1000
0010
0100
0001
1000
0010
0100
0001
1000
,
0010
0100
0001
1000
0010
0100
0001
1000
0100
0010
0100
1000
0100
0010
0100
1000
,
0100
0010
0100
1000
0100
0010
0100
1000
0001
0010
0100
0010
0001
0010
0100
0010
,
0001
0010
0100
0010
0001
0010
0100
0010
0001
0010
0100
1000
0001
0010
0100
1000
,
0001
0010
0100
1000
0001
0010
0100
1000
0001
0010
0100
1000
0001
0010
0100
1000
,
0001
0010
0100
1000
0001
0010
0100
1000
0001
0100
0010
1000
0001
0100
0010
1000
,
0001
0100
0010
1000
0001
0100
0010
1000
0001
0100
0010
1000
0001
0100
0010
1000
,
0001
0100
0010
1000
0001
0100
0010
1000
0001
0100
0001
0010
0001
1000
0001
0100
,
0001
0010
0001
1000
0001
0100
0001
0010
0001
1000
0100
1000
0001
1000
0010
1000
,
0001
1000
0100
1000
0010
1000
0001
1000
0100
0010
0001
1000
0100
0010
0001
1000
,
0100
0010
0001
1000
0100
0010
0001
1000
0100
0010
0001
1000
0100
0010
0001
1000
,
0100
0010
0001
1000
0100
0010
0001
1000
0200
0000
0300
0000
MMMM
0000
0000
0000
;

//---------------dance-single - ----------------
#NOTES:
     dance-single:
     :
     Easy:
     13:
     1.000,1.000,0.073,0.658,1.000,2805.000,29.000,260.000,4.000,1.000:
0000
0000
2000
3200
,
0320
0032
2003
3020
,
0230
0302
0023
0230
,
2300
3002
0203
0302
,
2003
3200
0320
0032
,
2003
3020
0230
0302
,
0023
0230
2300
3002
,
0203
0302
2003
3200
,
0320
0032
2003
3020
,
0230
0302
2003
3200
,
2300
3002
0023
0230
,
2300
3020
0230
0302
,
2003
3200
0320
0230
,
2300
3002
0203
0302
,
2003
3020
0230
0302
,
2003
3200
0320
0000
,
0031
0000
1000
0100
0000
0010
0001
0000
4000
0000
0000
0000
0000
0000
0000
0000
,
0000
0000
0000
0000
,
3040
0000
0000
0000
,
0000
0000
0430
0000
,
0000
0000
0300
0011
1100
1000
0010
0100
,
0001
1000
0100
1000
0001
0010
0100
1000
,
0001
0100
0010
1000
1100
0100
0010
0001
,
1000
0001
0100
0010
1010
1000
1100
0100
,
0110
0000
0010
0000
0011
0000
0001
0000
1001
1000
0100
0010
0001
1000
0010
1000
,
0100
0010
0001
0010
0001
1000
0010
0100
0001
0100
0001
0010
0100
1000
0001
1000
,
0100
1000
0100
0010
0001
1000
0010
1000
0010
0100
0001
1000
0001
0010
0001
1000
,
0100
1000
0100
0010
0001
1000
0010
0100
0001
1000
0100
1000
0100
0010
0001
0010
,
0100
1000
0001
0100
0001
1000
0001
1000
0100
0010
0001
1000
0010
1000
0100
0010
,
0001
0100
0001
1000
0001
0010
0001
1000
0010
1000
0010
0100
0001
1000
0001
0010
,
0100
1000
0001
0100
0001
1000
0100
1000
0001
1000
0010
1000
0001
0100
0001
0100
,
0010
1000
0010
0100
0001
0100
0001
1000
0100
1000
0001
0010
0001
1000
0100
1000
,
0100
0010
0001
1000
0001
0100
0001
1000
1010
0000
0100
0001
1000
0000
0100
0010
,
0001
0000
1000
0010
0100
0000
0001
0010
0100
0000
1000
0001
0100
0000
0010
1000
,
0100
0000
0010
0001
1000
0000
0001
0010
0100
0000
1000
0001
0100
0000
0010
1000
,
0100
0000
0010
0001
1000
0000
0001
0010
0100
0000
1000
0001
0100
0000
0010
1000
,
0100
0000
0010
0001
1000
0000
0001
0010
0100
0000
1000
0010
0100
0000
0001
1000
,
0100
0000
0010
0001
1000
0000
0010
0100
0001
0000
1000
0100
0010
0000
0100
1000
,
0001
0000
0100
0010
1000
0000
0100
0010
0001
1000
0010
1000
0001
0100
0001
1000
,
0001
0010
0100
1000
0001
0100
0001
1000
0100
1000
0001
0100
0001
1000
0010
1000
,
0010
0000
0100
0000
0001
0000
1000
0000
0100
0000
1000
0000
0100
0000
0010
0000
0001
0000
0010
0000
0001
0000
1000
0000
0010
0000
0000
0000
0000
0000
0100
0000
0000
0001
0000
0000
0010
0000
0000
0000
0000
0000
0100
0000
0000
1000
0000
0000
,
0010
0000
0100
0001
1000
0000
0100
0010
0001
0000
1000
0010
1000
0000
0001
0100
,
0001
0000
1000
0100
0010
0000
0001
1000
0010
0000
0100
0001
0100
0000
0001
0010
,
0001
0000
1000
0010
1000
0000
0001
0100
0001
0000
1000
0010
0100
0000
0001
0010
,
0100
0000
1000
0010
0100
0000
0001
0010
0001
0000
1000
0100
0010
0000
0001
1000
,
0001
0000
0100
0001
0100
0000
0010
1000
0100
0000
0010
0001
0010
0000
0100
1000
,
0100
0000
0010
0001
1000
0000
0010
0100
0001
0000
0100
0001
1000
0000
0001
1000
,
0001
0000
1000
0100
1000
0000
0001
0010
0100
0000
1000
0100
1000
0000
0001
0010
,
0100
0000
1000
0010
1000
0000
0001
0100
0001
0000
0010
0100
0010
0000
0001
0100
,
0001
0000
1000
0010
1000
0000
0001
0100
0010
0000
1000
0100
1000
0000
0001
0010
,
0001
0000
1000
0100
0010
0000
0001
1000
0001
0000
0100
0010
1000
0000
0100
0010
,
0001
0000
1000
0100
1000
0000
0001
0010
0100
0000
1000
0010
0100
0000
0001
1000
,
0100
0000
1000
0001
0100
0000
0001
0100
0001
0000
1000
0010
1000
0000
0100
0010
,
0001
0000
0010
0100
1000
0000
0001
0100
0001
0000
1000
0100
0010
0000
0100
1000
,
0001
0000
0100
0001
0100
0000
0001
0000
0222
0000
0000
0000
0000
0000
0000
0000
,
0000
0000
0000
0000
0333
0000
0000
0000
0001
1000
0010
0100
0001
0100
0001
1000
,
0100
0000
0010
0000
0001
0000
1000
0000
0001
0000
0100
0000
0001
0000
1000
0000
0001
0000
1000
0000
0100
0000
1000
0000
0100
0000
0000
0010
0000
0000
0001
0000
0000
1000
0000
0000
0010
0000
0000
1000
0000
0000
0100
0000
0000
0010
0000
0000
,
0001
0100
0001
1000
0001
0010
0001
1000
0010
1000
0100
0010
0001
0100
0001
1000
,
0001
0010
0100
1000
0100
0010
0001
1000
0001
0010
0001
0100
0001
1000
0010
1000
,
0100
0010
0001
0100
0010
1000
0100
0010
0100
1000
0001
0100
0001
1000
0010
1000
,
0100
0010
0001
1000
0010
1000
0001
0100
0001
0010
0100
1000
0001
0100
0001
1000
,
0100
0010
0100
1000
0001
0010
0001
1000
0010
1000
0100
0010
0001
0100
0010
1000
,
0100
0010
0100
1000
0001
0010
0001
1000
0010
1000
0010
0100
0001
1000
0001
0010
,
0100
1000
0001
0100
0001
0100
0010
1000
0100
0010
0100
1000
0001
0010
0001
0010
,
0100
1000
0010
1000
0100
0010
0001
0100
0010
0100
0010
1000
0100
0010
0001
0010
,
0001
1000
0010
1000
0010
0100
0001
1000
0001
0010
0100
1000
0001
0100
0001
0100
,
0010
1000
0100
1000
0100
0010
0001
1000
0010
0100
0001
0010
0100
0010
0100
1000
,
0001
0100
0001
1000
0010
0100
0001
0010
0001
1000
0010
0100
0001
1000
0001
0010
,
0001
1000
0010
1000
0010
0100
0001
0000
0200
0000
0310
1000
0100
0000
0010
0001
,
0010
0000
0100
1000
0001
0000
0100
0001
0100
0000
0010
1000
0010
0000
0100
0001
,
1000
0000
0100
0010
0001
0000
1000
0001
2000
0000
3001
1000
0001
0000
0100
0001
,
0100
0000
0010
1000
0100
0000
0010
0001
0020
0000
0130
1000
0002
0000
1003
0001
,
2000
0000
3001
0100
0002
0000
1003
0001
0101
0000
0100
0000
0010
0000
1000
0000
,
0100
0010
0001
1000
0001
0010
0100
1000
,
0001
1000
0010
1000
0100
0010
0001
0100
,
0001
0010
0100
1000
0001
0100
0001
1000
,
0001
1000
0010
0100
0001
1000
0100
1000
,
0100
0010
0001
0010
0001
1000
0010
0100
,
0001
1000
0001
0010
0100
1000
0100
1000
,
0010
0000
0100
0000
0001
0000
0010
0000
0001
0000
1000
0000
0100
0000
0010
0001
,
1000
0000
0010
0100
0000
0010
0100
0000
1001
0000
1000
0000
0010
0000
0100
0000
,
0001
1000
0100
1000
0001
0010
0100
1000
,
0010
0100
0001
0010
0001
1000
0100
0010
,
0001
1000
0001
0010
0001
1000
0010
1000
,
0001
0100
0001
1000
0100
0010
0100
1000
,
0001
0010
0100
0010
0001
1000
0100
0010
,
0100
1000
0001
0100
0001
1000
0100
1000
,
0001
0000
0100
0000
0001
0000
1000
0000
0100
0000
1000
0000
0001
0000
0100
0001
,
1000
0000
0001
0100
0000
0001
0100
0000
0101
0000
0001
1000
0010
0000
0100
0001
,
0010
0000
0100
1000
0100
0000
0010
0001
0010
0000
0100
1000
0001
0000
0100
0001
,
0100
0000
0010
1000
0010
0000
0100
0001
1000
0000
0100
0010
0001
0000
0010
0100
,
4000
0000
0000
0000
,
0000
0000
0000
0000
0000
0000
0000
0000
0000
0000
0000
0000
3000
0000
0000
0100
0010
0001
1000
0010
1000
0100
0010
0001
,
0100
0001
1000
0001
0010
0100
1000
0001
0100
0001
1000
0100
0010
0001
1000
0010
1000
0100
0010
0001
0100
0001
0010
0100
,
1000
0000
0001
0000
0100
0000
0001
0000
1000
0000
0010
0000
0100
0000
0001
0000
1000
0000
0001
0000
0010
0000
0100
0000
1000
0000
0000
0000
0000
0000
0010
0000
0000
0100
0000
0000
0001
0000
0000
0000
0000
0000
0010
0000
0000
0100
0000
0000
,
1000
0000
0100
0010
0001
0000
1000
0010
1000
0000
0001
0100
0001
0000
1000
0100
,
1000
0000
0001
0010
0001
0000
1000
0010
1000
0000
0001
0100
0001
0000
1000
0100
,
0010
0000
0100
1000
0001
0000
0100
0001
0100
0000
0001
0100
0001
0000
1000
0010
,
0100
0000
0010
1000
0100
0000
0010
0001
0010
0000
0100
1000
0001
0000
0100
0001
,
0100
0000
0010
1000
0010
0000
0100
0001
1000
0000
0100
0010
0001
0000
1000
0010
,
1000
0000
0001
0100
0001
0000
1000
0100
1000
0000
0100
0010
0001
0000
1000
0010
,
1000
0000
0001
0100
0001
0000
1000
0100
0010
0000
0001
1000
0010
0000
1000
0001
,
0010
0000
0100
1000
0001
0000
0100
0001
0100
0000
0001
0010
0100
0000
1000
0001
,
1000
0000
0100
0010
0001
0000
1000
0010
1000
0000
0001
0100
0001
0000
1000
0100
,
1000
0000
0001
0010
0001
0000
1000
0010
0100
0000
0001
0010
0100
0000
1000
0001
,
0100
0000
0001
1000
0001
0000
1000
0100
1000
0000
0001
0010
0100
0000
1000
0001
,
1000
0000
0001
0100
0001
0000
1000
0100
0010
0000
0001
1000
0001
0000
0010
0100
,
1000
0000
0001
0100
0001
0000
1000
0010
1000
0000
0001
0100
0001
0000
1000
0100
,
0010
0000
0100
1000
0100
0000
0010
0001
1000
0000
0010
1000
0010
0000
0100
0001
,
1000
0000
0100
0010
0001
0000
1000
0010
1000
0000
0001
0010
0001
0000
1000
0100
,
0010
0000
0100
1000
0001
0000
0100
0001
0100
0000
0010
1000
0100
0000
0010
0001
,
0010
0000
0100
1000
0001
0000
0100
0001
0100
0000
0010
1000
0010
0000
0100
0001
,
0010
0000
0100
1000
0100
0000
0010
0001
1000
0000
0010
0100
0001
0000
1000
0100
,
1000
0000
0001
0010
0100
0000
0010
0001
1000
0000
0010
0100
0010
0000
1000
0100
,
0010
0000
0100
1000
0001
0000
0100
0001
0100
0000
0010
1000
0100
0000
0010
0001
,
1000
0000
0010
0100
0001
0000
0010
0100
1000
0000
0100
0010
0100
0000
0010
0001
,
1000
0000
0010
1000
0010
0000
0100
0001
1000
0000
0100
0010
0001
0000
0010
0100
,
1000
0000
0001
0100
0001
0000
1000
0001
1000
0000
0010
0100
0010
0000
1000
0100
,
1000
0000
0001
0100
0001
0000
1000
0010
1000
0001
0100
0001
1000
0100
0010
0001
,
0010
0100
1000
0100
0010
0001
0010
0100
1000
0100
0010
0001
0010
0100
1000
0100
,
0010
0000
0001
0000
1000
0000
0001
0000
0100
0000
0010
0000
1000
0000
0100
0000
0010
0000
0100
0000
1000
0000
0001
0000
1000
0000
0000
0010
0000
0000
0100
0000
0000
0001
0000
0000
1000
0000
0000
0100
0000
0000
1000
0000
0000
0001
0000
0000
,
0010
0100
0010
0001
1000
0010
1000
0100
0010
0001
0100
0001
0100
0010
1000
0100
,
0010
0001
1000
0001
0010
0001
0010
0100
1000
0001
0100
0001
1000
0010
0100
0001
,
0010
0100
1000
0100
1000
0010
0100
0001
1000
0001
0010
0100
1000
0001
0100
0001
,
1000
0010
1000
0100
0010
0001
1000
0000
1001
0000
0001
0100
0010
0000
1000
0100
,
1000
0000
0001
0010
0100
0000
0010
0001
0010
0000
0100
1000
0100
0000
1000
0010
,
1000
0000
0001
0100
0001
0000
1000
0100
0010
0000
0100
1000
0100
0000
0010
0001
,
1000
0000
0010
1000
0010
0000
0100
0001
1000
0000
0100
1000
0001
0000
1000
0001
,
1000
0000
0001
0100
0000
0001
0100
0000
0010
1000
0100
0010
0001
1000
0010
1000
,
0100
0010
0001
0100
0001
1000
0001
1000
0010
0100
0001
0010
0100
1000
0001
0100
,
0001
1000
0010
0100
0001
0010
0100
1000
0100
1000
0010
0100
0001
0010
0100
1000
,
0001
0100
0001
1000
0010
0100
0001
0010
0001
0010
0100
1000
0010
1000
0100
0010
,
0001
0100
0001
1000
0010
1000
0100
0010
0001
0100
0010
1000
0100
1000
0100
0010
,
0001
1000
0001
0010
0001
1000
0010
0100
0001
1000
0001
0100
0010
1000
0100
0010
,
0001
1000
0001
0000
0101
0000
0001
0010
0100
1000
0001
0100
0001
1000
0010
1000
,
0100
0010
0001
0100
0001
1000
0001
0010
0002
2003
3020
0230
0302
2003
3200
0320
,
0031
0100
0001
1000
0001
0100
0001
1000
0001
0010
0001
1000
0002
0000
0000
0000
0000
0000
0203
0000
0000
0000
0000
0000
,
0302
0023
0032
2003
,
3200
2300
3020
0230
,
0302
0203
0302
0023
,
0230
0300
1100
1000
1010
0000
0200
0000
,
0302
2003
3200
2300
,
3002
0023
0032
2003
,
3020
0000
0000
0000
0230
0000
0000
0000
0302
0000
0000
0000
1003
0000
0100
0010
,
0001
0000
1000
0010
0000
1000
0010
0000
0200
0000
0000
0000
0302
0000
0000
0000
,
0023
0230
2300
3002
,
0203
0302
2003
3020
,
0230
0302
0023
0230
,
2300
3000
1100
1000
1001
0000
0200
0000
,
0320
2030
3200
0320
,
0230
2300
3002
0203
,
0302
0000
0000
0000
2003
0000
0000
0000
3200
0000
0000
0000
0310
0000
0001
1000
,
0001
0000
0100
0010
0000
0100
0010
0000
1000
0000
0100
0000
1000
0000
0001
0000
,
0010
0001
1000
0001
0100
0001
1000
0010
,
1000
0001
0010
0001
1000
0100
1000
0001
,
0100
0001
0010
0100
1000
0001
0100
0001
,
1000
0100
0010
0100
1000
0001
0010
0001
,
1000
0010
1000
0001
0100
0001
1000
0001
,
0010
0001
1000
0100
0010
0100
1000
0001
,
0100
0000
0001
0000
1000
0000
0001
0000
0010
0000
0100
0000
1000
0000
0001
1000
,
0010
0000
0100
0001
0000
0010
0100
0000
1000
0000
0001
0000
0100
0000
0001
0000
,
1000
0001
0010
0001
1000
0100
0010
0100
,
1000
0001
0100
0001
1000
0001
0010
0100
,
1000
0100
0010
0001
1000
0001
0100
0001
,
1000
0010
1000
0001
0101
0100
0010
1000
,
0100
0010
0001
1000
1001
0001
0100
0001
,
0010
0100
1000
0001
1001
1000
0100
1000
,
0110
0100
0001
0010
0110
0100
1100
1000
,
1000
0010
0100
0001
1000
0001
0010
0001
1000
0001
0100
0001
1000
0000
0000
0000
0000
0000
0000
0000
0000
0000
0000
0000
,
0000
0000
0000
0000
,
0100
0000
0000
0000
0000
0000
0000
0000
0000
0000
0000
0000
0000
0000
0000
0000
0000
0000
0000
0000
0000
0000
0000
0000
0100
0000
0000
0000
0000
0000
0000
0000
0000
0000
0000
0000
0000
0000
0000
0000
0000
0000
0000
0000
0000
0000
0000
0000
0100
0000
0000
0000
0000
0000
0000
0000
0010
0000
0000
0000
0000
0000
0000
0000
0001
0000
0000
0000
0000
0000
0000
0000
1000
0000
0000
0000
0000
0000
0010
0000
0000
0000
0000
0000
0100
0000
0000
0000
0000
0000
0010
0000
0000
0000
0000
0000
0100
0000
0000
0000
0000
0000
0000
0000
0000
0000
0000
0000
0000
0000
0000
0000
0000
0000
0000
0000
0000
0000
0000
0000
0001
0000
0000
0000
0000
0000
0000
0000
0000
0000
0000
0000
0000
0000
0000
0000
0000
0000
0000
0000
0000
0000
0000
0000
1000
0000
0000
0000
0000
0000
0000
0000
0000
0000
0000
0000
0000
0000
0000
0000
0000
0000
0000
0000
0000
0000
0000
0000
0100
0000
0000
0000
0000
0000
0000
0000
0000
0000
0000
0000
0000
0000
0000
0000
0000
0000
0000
0000
0000
0000
0000
0000
,
1000
0001
0010
0001
1000
0010
0100
0001
,
1000
0001
0010
0001
1000
0010
1000
0100
,
0010
0001
0100
0001
1000
0001
0010
0100
,
1000
0001
0011
0010
0110
0100
1000
0001
,
0100
0001
1000
0010
1000
0100
0010
0001
,
0100
0001
1000
0001
0010
0100
1000
0001
,
0100
0000
0001
0000
1000
0000
0010
0000
0100
0000
0001
0000
0010
0000
0100
1000
,
0001
0000
0010
0100
0000
0010
0100
0000
2000
3000
0020
0030
0200
0300
0002
0003
,
2000
3000
0200
0300
2000
3000
0002
0003
0020
0030
0200
0300
2000
3000
0002
0003
,
0200
0300
0002
0003
2000
3000
0020
0030
0200
0300
0002
0003
0020
0030
0200
0300
,
0020
0030
0002
0003
2000
3000
0002
0003
0020
0030
0002
0003
2000
3000
0020
0030
,
2000
3000
0020
0030
0110
0000
0100
0000
0101
0000
0002
0003
2000
3000
0020
0030
,
0200
0300
0002
0003
2000
3000
0020
0030
0200
0300
0002
0003
0200
0300
0020
0030
,
2000
3000
0200
0300
0020
0030
0200
0300
2000
3000
0002
0003
0200
0300
0002
0003
,
2000
3000
0020
0030
0200
0300
0002
0003
0020
0030
0200
0300
1000
0000
0001
0100
,
0010
0000
1000
0100
0000
0010
0001
0000
2000
3000
0200
0300
0020
0030
0002
0003
,
2000
3000
0020
0030
2000
3000
0200
0300
0020
0030
0002
0003
0200
0300
0002
0003
,
2000
3000
0002
0003
0020
0030
0200
0300
0020
0030
0002
0003
0020
0030
0200
0300
,
2000
3000
0200
0300
0020
0030
0200
0300
2000
3000
0002
0003
0200
0300
0002
0003
,
2000
3000
0020
0030
2000
3000
0200
0300
0020
0030
0200
0300
2000
3000
0002
0003
,
0200
0300
0002
0003
2000
3000
0002
0003
0020
0030
0200
0300
2000
3000
0020
0030
,
2000
3000
0200
0300
0020
0030
0200
0300
2000
3000
0002
0003
0200
0300
0020
0030
,
0200
0300
0002
0003
0020
0030
0200
0300
2000
3000
0002
0003
0100
0000
0010
1000
,
0100
0000
0010
0100
0000
1000
0001
0000
0200
0000
0000
0000
0310
1000
0100
0010
,
0100
1000
0001
0100
0001
1000
0001
0010
0001
1000
0010
1000
0100
0010
0001
0100
,
0001
1000
0001
0010
0001
1000
0010
1000
0100
0010
0001
0100
0001
1000
0100
1000
,
0001
0010
0100
1000
0010
0100
0001
1000
0100
1000
0001
0010
0100
0010
0001
1000
,
0010
1000
0100
0010
0001
0100
0001
1000
0002
0000
1003
0010
1000
0100
0010
0001
,
0100
0001
0010
0100
1000
0001
0100
0001
2000
0000
3010
0100
0001
1000
0100
1000
,
0001
0010
0100
1000
0001
0100
0001
1000
0020
0000
0130
0001
1000
0001
0010
0100
,
2000
0000
3001
1000
0010
0100
0001
1000
0200
0000
0310
0001
0200
0000
0310
1000
,
0100
0000
0010
0000
0001
0000
1000
0000
0001
0000
0100
0000
0001
0000
0010
0000
0001
0000
1000
0000
0001
0000
0100
0000
0001
0000
0000
1000
0000
0000
0100
0000
0000
1000
0000
0000
0001
0000
0000
0010
0000
0000
0100
0000
0000
1000
0000
0000
,
0010
0100
0001
1000
0001
0010
0001
1000
0010
1000
0100
0010
0001
0100
0001
0100
,
0010
1000
0100
0010
0001
1000
0001
0010
0100
1000
0100
1000
0001
0100
0001
0100
,
0010
1000
0100
0010
0001
1000
0001
0010
0100
1000
0010
1000
0100
0010
0001
0100
,
0001
1000
0001
0010
0100
1000
0001
0100
0001
1000
0010
0100
0001
0010
0100
1000
,
0001
0100
0001
1000
0010
1000
0100
0010
0001
0100
0001
1000
0001
1000
0010
0100
,
0001
0010
0100
1000
0001
0100
0001
0100
0010
1000
0100
0010
0100
1000
0001
0010
,
0001
0010
0100
1000
0001
0100
0001
1000
0010
0100
0001
1000
0100
0010
0100
1000
,
0100
0010
0100
1000
0001
0100
0001
1000
0010
0000
0100
0001
1000
0000
0100
0010
,
0100
0000
1000
0001
0010
0000
0100
1000
0010
0000
0100
0001
0100
0000
0010
1000
,
0010
0000
0100
0001
1000
0000
0001
1000
0001
0100
0010
1000
0100
1000
0001
0010
,
0100
1000
0100
1000
0010
0100
0001
0010
0100
1000
0001
0100
0001
1000
0010
0100
,
0001
0010
0100
1000
0001
0100
0001
1000
0010
0100
0001
0010
0100
1000
0001
0100
,
0001
0100
0010
1000
0100
1000
0100
0010
0100
1000
0100
1000
0001
0010
0100
1000
,
0010
1000
0010
0100
0001
1000
0001
0010
0100
1000
0001
0100
0001
1000
0010
0100
,
0001
0010
0001
0010
0100
1000
0001
0100
0001
1000
0010
0100
0010
1000
0100
0010
,
0100
1000
0001
0100
0001
1000
0001
1000
0020
0130
0001
1000
0100
1000
0001
0010
,
0100
1000
0001
0100
0001
1000
0010
1000
0100
0010
0001
0100
0001
1000
0001
0010
,
0001
1000
0010
1000
0100
0010
0001
0100
0001
1000
0001
0010
0001
1000
0010
1000
,
0001
0010
0001
1000
0010
1000
0100
1000
0001
0100
0001
1000
0100
1000
0001
0100
,
0001
1000
0010
1000
0100
0010
0001
1000
0001
0100
0001
1000
0010
1000
0100
0010
,
0001
0100
0001
0010
0100
1000
0100
1000
0010
0100
0001
0010
0001
1000
0010
1000
,
0100
0010
0001
0100
0001
1000
0001
1000
0010
0100
0001
0010
0001
1000
0100
0010
,
0100
1000
0001
0100
0001
0100
0010
1000
0100
0010
0001
1000
0010
0100
0001
1000
,
0100
1000
0100
0010
0001
1000
0010
0100
0001
0100
0001
0010
0100
1000
0001
0100
,
0001
1000
0010
0100
0001
0010
0001
0010
0100
1000
0001
0100
0001
0100
0010
1000
,
0100
1000
0100
0010
0001
1000
0010
1000
0100
0010
0001
0100
0001
1000
0001
1000
,
0010
1000
0100
0010
0001
0100
0001
0100
0010
1000
0100
0010
0001
1000
0010
1000
,
0100
0010
0001
0100
0001
1000
0001
0100
0020
0000
1030
0100
0010
0100
1000
0001
,
0100
0001
0010
0100
0010
0001
1000
0100
0020
0000
0130
1000
0001
1000
0010
1000
,
0100
0010
0001
0100
0001
1000
0001
0010
0002
0000
1003
0010
1000
0001
0100
0001
,
2000
0000
3100
1000
0001
0100
0001
0010
0200
0000
1300
0010
0200
0000
0301
0010
,
0100
0000
1000
0000
0010
0000
1000
0000
0100
0000
0010
0000
0001
0000
0100
0000
0001
0000
0010
0000
0100
0000
1000
0000
0100
0000
0000
0010
0000
0000
0001
0000
0000
1000
0000
0000
0100
0000
0000
0010
0000
0000
0001
0000
0000
1000
0000
0000
,
0100
0010
0001
1000
0100
0010
0001
1000
0100
0010
0001
1000
0100
0010
0001
1000
,
0100
0010
0001
1000
0100
0010
0001
1000
0010
0100
0001
1000
0010
0100
0001
1000
,
0010
0100
0001
1000
0010
0100
0001
1000
0010
0100
0001
1000
0010
0100
0001
1000
,
0010
0100
0001
1000
0010
0100
0001
1000
0100
0010
0100
1000
0100
0010
0100
1000
,
0100
0010
0100
1000
0100
0010
0100
1000
0001
0010
0100
0010
0001
0010
0100
0010
,
0001
0010
0100
0010
0001
0010
0100
0010
0001
0010
0100
1000
0001
0010
0100
1000
,
0001
0010
0100
1000
0001
0010
0100
1000
0001
0010
0100
1000
0001
0010
0100
1000
,
0001
0010
0100
1000
0001
0010
0100
1000
0001
0100
0010
1000
0001
0100
0010
1000
,
0001
0100
0010
1000
0001
0100
0010
1000
0001
0100
0010
1000
0001
0100
0010
1000
,
0001
0100
0010
1000
0001
0100
0010
1000
0001
0100
0001
0010
0001
1000
0001
0100
,
0001
0010
0001
1000
0001
0100
0001
0010
0001
1000
0100
1000
0001
1000
0010
1000
,
0001
1000
0100
1000
0010
1000
0001
1000
0100
0010
0001
1000
0100
0010
0001
1000
,
0100
0010
0001
1000
0100
0010
0001
1000
0100
0010
0001
1000
0100
0010
0001
1000
,
0100
0010
0001
1000
0100
0010
0001
1000
0200
0000
0300
0000
MMMM
0000
0000
0000
;

//---------------dance-single - ----------------
#NOTES:
     dance-single:
     :
     Medium:
     15:
     1.000,1.000,0.281,0.807,1.000,3272.000,111.000,319.000,4.000,1.000:
0000
0000
0000
0000
2000
3100
0020
0130
,
2000
3001
0200
0301
2000
3010
2000
3100
,
0020
0031
0200
0301
2000
3001
0020
0031
,
2000
3010
0200
0301
2000
3001
0020
0130
,
2000
3001
0200
0301
2000
3100
2000
3001
,
0020
0130
2000
3010
0200
0301
2000
3100
,
2000
3001
0020
0130
0020
0031
2000
3100
,
0020
0130
2000
3010
0200
0301
2000
3001
,
0020
0130
2000
3001
0200
0301
2000
3100
,
2000
3001
0020
0130
2000
3010
0200
0301
,
2000
3100
0020
0031
2000
3010
2000
3100
,
0020
0031
2000
3100
2000
3001
0200
0301
,
2000
0100
3020
0031
2000
0100
3020
0031
,
2000
3100
2000
3010
0200
0301
0020
0130
,
2000
3001
0200
0301
2000
3010
0200
0301
,
2000
3100
0020
0031
2000
0000
0000
0000
,
3001
0000
1000
0100
0000
0010
0001
0000
4000
0000
0000
0000
0000
0000
0000
0000
,
0000
0000
0000
0000
,
3040
0000
0000
0000
,
0000
0000
0430
0000
,
0000
0000
0000
0000
0300
0000
1001
0000
1010
0100
0001
1000
0100
1000
0010
0100
,
0001
1000
0100
1000
0001
0010
0100
1000
0010
0100
0001
1000
0100
0010
0001
1000
,
0001
0010
0100
1000
0001
0100
0001
1000
1100
0100
0010
0001
1000
0001
0010
0100
,
1000
0001
0100
0001
1000
0010
0100
0001
1100
1000
0100
0010
0011
0001
0100
0010
,
1010
1000
0100
0010
0011
0000
0101
0000
1001
1000
0100
0010
0001
1000
0010
1000
,
0100
0010
0001
0010
0001
1000
0010
0100
0001
0100
0001
0010
0100
1000
0001
1000
,
0100
1000
0100
0010
0001
1000
0010
1000
0010
0100
0001
1000
0001
0010
0001
1000
,
0100
1000
0100
0010
0001
1000
0010
0100
0001
1000
0100
1000
0100
0010
0001
0010
,
0100
1000
0001
0100
0001
1000
0001
1000
0100
0010
0001
1000
0010
1000
0100
0010
,
0001
0100
0001
1000
0001
0010
0001
1000
0010
1000
0010
0100
0001
1000
0001
0010
,
0100
1000
0001
0100
0001
1000
0100
1000
0001
1000
0010
1000
0001
0100
0001
0100
,
0010
1000
0010
0100
0001
0100
0001
1000
0100
1000
0001
0010
0001
1000
0100
1000
,
0100
0010
0001
1000
0001
0100
0001
1000
1010
0100
0001
1000
0100
1000
0001
0010
,
0100
1000
0010
0100
0001
1000
0001
0010
0100
1000
0001
0100
0001
1000
0010
0100
,
0001
0010
0100
1000
0100
1000
0010
0100
0001
1000
0100
0010
0001
1000
0010
0100
,
0001
0010
0100
1000
0001
1000
0001
0100
0010
1000
0100
0010
0001
1000
0001
1000
,
0010
0100
0001
0010
0100
1000
0001
0100
0001
0100
0010
1000
0100
0010
0100
1000
,
0010
0100
0001
0010
0001
0010
0100
1000
0001
0100
0001
1000
0100
1000
0010
0100
,
0001
0010
0100
1000
0001
0100
0001
1000
0001
0100
0010
1000
0001
0100
0001
1000
,
0001
0010
0100
1000
0001
0100
0001
1000
0100
1000
0001
0100
0001
1000
0010
1000
,
0010
0000
0100
0000
0001
0000
1000
0000
0010
0000
0100
0000
0001
0000
1000
0000
0010
0000
0100
0000
0001
0000
1000
0000
0100
0000
0000
0010
0000
0000
0001
0000
0000
1000
0000
0000
0001
0000
0000
0010
0000
0000
0100
0000
0000
1000
0000
0000
,
0001
0100
0001
1000
0010
0100
0001
0010
0100
1000
0001
0100
0001
1000
0010
0100
,
0001
0010
0100
1000
0001
0100
0001
1000
0010
0100
0001
1000
0100
1000
0001
0010
,
0100
1000
0010
0100
0001
1000
0100
1000
0001
0010
0100
1000
0010
0100
0001
1000
,
0100
1000
0001
0010
0100
0010
0001
1000
0010
1000
0100
0010
0001
0100
0001
0010
,
0100
1000
0001
0100
0001
1000
0100
0010
0100
1000
0001
0100
0001
1000
0010
0100
,
0001
0010
0100
1000
0001
1000
0010
1000
0010
0100
0001
1000
0001
1000
0100
0010
,
0100
0010
0100
1000
0001
0100
0001
1000
0010
0100
0001
0010
0100
0010
0100
1000
,
0100
1000
0010
0100
0001
0010
0001
1000
0010
1000
0010
0100
0001
1000
0001
0010
,
0100
1000
0001
0100
0001
1000
0100
0010
0100
1000
0010
0100
0001
1000
0100
1000
,
0010
0100
0001
1000
0001
1000
0100
1000
0010
0100
0001
0010
0100
1000
0001
0010
,
0100
1000
0001
0100
0001
1000
0010
0100
0001
1000
0100
1000
0100
0010
0001
1000
,
0010
1000
0100
0010
0001
0100
0001
0010
0100
1000
0010
1000
0100
0010
0001
0100
,
0001
1000
0001
1000
0010
0100
0001
0010
0100
1000
0001
0100
0001
1000
0100
0010
,
0001
1000
0010
1000
0100
1000
0001
0000
0222
0000
0000
0000
0000
0000
0000
0000
,
0000
0000
0000
0000
0333
0000
0000
0000
0001
1000
0010
0100
0001
0100
0001
1000
,
0100
0000
0010
0000
0001
0000
1000
0000
0001
0000
0100
0000
0001
0000
1000
0000
0001
0000
1000
0000
0100
0000
1000
0000
0100
0000
0000
0010
0000
0000
0001
0000
0000
1000
0000
0000
0010
0000
0000
1000
0000
0000
0100
0000
0000
0010
0000
0000
,
0001
0100
0001
1000
0001
0010
0001
1000
0010
1000
0100
0010
0001
0100
0001
1000
,
0001
0010
0100
1000
0100
0010
0001
1000
0001
0010
0001
0100
0001
1000
0010
1000
,
0100
0010
0001
0100
0010
1000
0100
0010
0100
1000
0001
0100
0001
1000
0010
1000
,
0100
0010
0001
1000
0010
1000
0001
0100
0001
0010
0100
1000
0001
0100
0001
1000
,
0100
0010
0100
1000
0001
0010
0001
1000
0010
1000
0100
0010
0001
0100
0010
1000
,
0100
0010
0100
1000
0001
0010
0001
1000
0010
1000
0010
0100
0001
1000
0001
0010
,
0100
1000
0001
0100
0001
0100
0010
1000
0100
0010
0100
1000
0001
0010
0001
0010
,
0100
1000
0010
1000
0100
0010
0001
0100
0010
0100
0010
1000
0100
0010
0001
0010
,
0001
1000
0010
1000
0010
0100
0001
1000
0001
0010
0100
1000
0001
0100
0001
0100
,
0010
1000
0100
1000
0100
0010
0001
1000
0010
0100
0001
0010
0100
0010
0100
1000
,
0001
0100
0001
1000
0010
0100
0001
0010
0001
1000
0010
0100
0001
1000
0001
0010
,
0001
1000
0010
1000
0010
0100
0001
1000
0020
0130
0001
1000
0100
1000
0001
0010
,
0100
1000
0010
0100
0001
1000
0100
1000
0001
0010
0100
0010
0001
1000
0010
1000
,
0100
0010
0100
1000
0001
0100
0001
1000
0002
0103
0001
1000
0001
0010
0100
1000
,
0001
0100
0001
1000
0100
0010
0100
1000
0002
0013
0100
1000
0002
1003
0001
0100
,
0020
1030
0100
0010
0200
1300
0001
0100
0101
0000
0100
0000
0010
0000
1000
0000
,
0110
0010
0001
1000
0101
0010
0100
1000
,
1001
1000
0010
1000
0110
0010
0001
0100
,
0101
0010
0100
1000
0101
0100
0001
1000
,
1001
1000
0010
0100
0101
1000
0100
1000
,
0101
0010
0001
0010
0101
1000
0010
0100
,
0011
1000
0001
0010
1100
1000
0100
1000
,
0110
0000
0100
0000
0001
0000
0010
0000
0011
0000
1000
0000
0100
0000
0010
0001
,
1000
0000
0010
0100
0000
0010
0100
0000
1001
0000
1000
0000
0010
0000
0100
0000
,
0101
1000
0100
1000
0101
0010
0100
1000
,
1010
0100
0001
0010
0011
1000
0100
0010
,
0101
1000
0001
0010
0011
1000
0010
1000
,
1001
0100
0001
1000
0110
0010
0100
1000
,
0011
0010
0100
0010
0101
1000
0100
0010
,
1100
1000
0001
0100
0101
1000
0100
1000
,
0011
0000
0100
0000
0001
0000
1000
0000
1100
0000
1000
0000
0001
0000
0100
0001
,
1000
0000
0001
0100
0000
0001
0100
0000
0101
0001
1000
0010
0100
0001
0010
0100
,
1000
0001
0100
0001
1000
0010
0100
0001
0010
0100
1000
0001
0100
0001
1000
0100
,
0010
0001
1000
0010
1000
0100
0010
0001
0100
0001
1000
0001
0100
0001
1000
0001
,
1000
0100
0010
0001
1000
0100
0010
0001
1000
0100
0010
0001
1000
0100
0010
0001
,
1000
0000
0000
0100
0000
0000
0010
0000
0000
0001
0000
0000
1000
0000
0000
0100
0000
0000
0010
0000
0000
0001
0000
0000
2000
0000
0000
0000
0000
0000
3100
0000
0010
0000
0001
0000
1000
0000
0010
0000
1000
0000
0100
0000
0010
0000
0001
0000
,
0100
0001
1000
0001
0010
0100
1000
0001
0100
0001
1000
0100
0010
0001
1000
0010
1000
0100
0010
0001
0100
0001
0010
0100
,
1000
0000
0001
0000
0100
0000
0001
0000
1000
0000
0010
0000
0100
0000
0001
0000
1000
0000
0001
0000
0010
0000
0100
0000
1000
0000
0000
0001
0000
0000
0100
0000
0000
0001
0000
0000
1000
0000
0000
0010
0000
0000
0100
0000
0000
0001
0000
0000
,
0010
0100
1000
0100
0010
0100
1000
0001
0100
0001
1000
0010
0100
0001
0010
0001
,
1000
0010
0100
0001
1000
0100
1000
0001
0010
0100
1000
0010
0100
0001
1000
0100
,
0010
0001
1000
0100
0010
0001
1000
0010
1000
0100
0010
0001
1000
0100
0010
0001
,
0100
0001
0010
0100
1000
0001
0100
0001
0010
0100
1000
0001
0100
0001
1000
0010
,
1000
0100
0010
0001
0100
0001
0010
0100
1000
0010
0100
0001
1000
0100
0010
0001
,
1000
0010
0100
0001
0010
0001
0010
0100
1000
0001
0100
0001
1000
0010
0100
0001
,
1000
0100
0010
0100
1000
0001
0010
0100
1000
0010
1000
0100
0010
0001
0100
0001
,
1000
0010
0100
0001
0010
0100
1000
0001
0100
0001
1000
0100
0010
0001
1000
0010
,
0100
0001
0010
0100
1000
0010
1000
0100
0010
0001
0100
0001
0010
0100
1000
0001
,
0100
0001
1000
0010
0100
0001
0010
0100
1000
0001
0100
0001
1000
0100
0010
0001
,
1000
0010
1000
0100
0010
0001
0100
0001
0010
0100
1000
0010
0100
0001
0010
0100
,
1000
0001
0100
0001
1000
0010
0100
0001
0010
0100
1000
0001
0100
0001
1000
0100
,
0010
0001
1000
0010
1000
0100
0010
0001
0100
0001
0010
0100
1000
0001
0100
0001
,
1000
0010
0100
0001
0010
0100
1000
0001
0100
0001
1000
0100
0010
0100
1000
0010
,
1000
0100
0010
0001
1000
0001
0100
0010
1000
0100
0010
0100
1000
0001
0010
0001
,
1000
0010
0100
0001
1000
0100
1000
0001
0010
0100
1000
0010
0100
0001
1000
0100
,
1000
0010
0100
0001
0010
0100
1000
0001
0100
0001
1000
0010
0100
0001
1000
0100
,
0010
0100
1000
0010
0100
0001
0010
0100
1000
0001
0100
0001
1000
0010
1000
0100
,
0010
0001
0100
0001
0010
0100
1000
0001
0100
0010
1000
0100
0010
0100
1000
0010
,
1000
0001
0100
0010
1000
0100
0010
0001
0100
0001
1000
0010
0100
0001
0010
0100
,
1000
0001
0100
0001
0010
0100
1000
0010
1000
0100
0010
0001
0100
0001
0010
0100
,
1000
0010
0100
0001
1000
0100
1000
0001
0010
0100
1000
0010
0100
0001
1000
0100
,
0010
0100
1000
0010
0100
0001
1000
0001
0010
0100
1000
0001
0100
0001
1000
0010
,
0100
0001
0010
0100
1000
0001
0100
0001
1000
0001
0100
0001
1000
0100
0010
0001
,
0010
0100
1000
0100
0010
0001
0010
0100
1000
0100
0010
0001
0010
0100
1000
0100
,
0010
0000
0001
0000
1000
0000
0001
0000
0100
0000
0010
0000
1000
0000
0100
0000
0010
0000
0100
0000
1000
0000
0001
0000
1000
0000
0000
0010
0000
0000
0100
0000
0000
0001
0000
0000
1000
0000
0000
0100
0000
0000
1000
0000
0000
0001
0000
0000
,
0010
0100
0010
0001
1000
0010
1000
0100
0010
0001
0100
0001
0100
0010
1000
0100
,
0010
0001
1000
0001
0010
0001
0010
0100
1000
0001
0100
0001
1000
0010
0100
0001
,
0010
0100
1000
0100
1000
0010
0100
0001
1000
0001
0010
0100
1000
0001
0100
0001
,
1000
0010
1000
0100
0010
0001
1000
0010
0100
0001
1000
0100
1000
0010
0100
0001
,
0010
0001
1000
0010
1000
0100
0010
0001
1000
0001
0100
0010
1000
0100
1000
0001
,
0010
0100
1000
0010
0100
0001
1000
0100
1000
0001
0010
0100
1000
0010
0100
0001
,
1000
0100
1000
0010
0100
0001
0010
0001
1000
0010
1000
0100
0010
0001
0100
0001
,
0010
0100
1000
0001
0100
0001
1000
0100
1000
0010
0100
0001
0010
0100
1000
0001
,
0100
0001
1000
0010
0100
0001
0010
0100
1000
0001
0100
0001
1000
0010
0100
0001
,
0010
0100
0010
0001
1000
0100
0010
0100
1000
0010
0100
0001
0010
0100
1000
0001
,
0100
0001
1000
0010
1000
0100
0010
0001
0100
0001
1000
0001
0010
0100
1000
0001
,
0100
0001
1000
0010
0100
0001
1000
0100
1000
0001
0010
0100
1000
0010
0100
0001
,
1000
0100
1000
0001
0100
0001
1000
0001
0100
0010
1000
0100
0010
0001
1000
0001
,
0010
0100
1000
0001
0100
0001
1000
0010
0100
0001
0010
0100
1000
0001
0100
0001
,
1000
0100
0010
0001
1000
0010
0100
0001
1002
2003
3020
0230
0302
2003
3200
0320
,
0031
0100
0001
1000
0001
0100
0001
1000
0001
0010
0001
1000
0002
0000
0000
0003
0000
0000
0202
0000
0000
0303
0000
0000
,
0022
0033
0220
0330
2200
3300
2020
3030
,
0220
0330
2002
3003
0202
0303
2200
3300
,
0220
0330
0022
0033
2002
3003
2020
3030
,
0220
0330
0101
0001
0022
0033
0220
0330
,
2200
3300
2020
3030
0202
0303
0022
0033
,
2200
3300
2020
3030
0220
0330
0202
0303
,
2002
0000
3003
0000
2200
0000
3300
0000
0220
0000
0330
0000
1000
0000
0100
0010
,
0001
0000
1000
0010
0000
1000
0010
0000
0220
0000
0330
0000
0202
0000
0303
0000
,
0022
0033
0220
0330
2200
3300
2002
3003
,
0202
0303
2002
3003
2020
3030
2200
3300
,
0220
0330
2200
3300
2002
3003
0202
0303
,
2002
3003
0011
0100
2200
3300
2002
3003
,
0202
0303
0022
0033
0220
0330
2200
3300
,
2020
3030
2002
3003
2200
3300
0220
0330
,
0022
0000
0033
0000
0202
0000
0303
0000
2020
0000
3030
0000
0110
0000
0001
1000
,
0001
0000
0100
0010
0000
0100
0010
0000
1000
0100
0010
0001
1000
0010
0100
0001
,
0010
0100
1000
0001
0100
0001
1000
0100
0010
0001
1000
0010
0100
0001
0010
0100
,
1000
0001
0100
0001
1000
0100
0010
0001
1000
0100
0010
0001
1000
0010
1000
0100
,
0010
0001
0100
0001
0010
0100
1000
0001
0100
0001
1000
0010
0100
0001
0010
0100
,
1000
0001
0100
0001
1000
0100
0010
0001
1000
0010
1000
0100
0010
0001
1000
0100
,
0010
0001
0100
0001
0010
0100
1000
0001
0100
0001
1000
0100
1000
0001
0010
0100
,
0010
0001
1000
0010
1000
0100
0010
0001
1000
0100
0010
0001
1000
0010
0100
0001
,
0010
0100
1000
0001
0100
0001
1000
0010
0100
0001
0010
0100
1000
0001
0100
0001
,
1000
0100
0010
0001
1000
0010
1000
0100
0010
0001
1000
0100
1000
0010
0100
0001
,
0010
0100
1000
0001
0100
0001
1000
0100
0010
0001
1000
0010
1000
0100
0010
0001
,
0100
0001
0010
0100
1000
0001
0100
0001
1000
0100
0010
0001
1000
0010
1000
0100
,
0010
0001
0100
0001
0010
0100
1000
0001
0100
0001
1000
0100
0010
0001
1000
0010
,
1000
0100
0010
0001
0100
0001
0010
0100
0110
0010
0001
1000
0010
0100
0001
1000
,
0100
1000
0010
0100
0001
0010
0100
1000
1001
0001
0100
0010
1000
0100
0010
0100
,
1000
0001
0100
0001
0010
0100
1000
0001
0101
0100
0001
0010
0100
1000
0001
1000
,
1010
0010
0100
0001
1000
0100
0010
0100
1100
1000
0010
0100
0011
0010
0200
0000
,
1300
0010
0100
0001
1000
0001
0010
0001
1000
0001
0100
0001
1000
0000
0000
0000
0000
0000
0000
0000
0000
0000
0000
0000
,
0000
0000
0000
0000
,
0100
0000
0000
0000
0000
0000
0000
0000
0000
0000
0000
0000
0000
0000
0000
0000
0000
0000
0000
0000
0000
0000
0000
0000
0001
0000
0000
0000
0000
0000
0000
0000
0000
0000
0000
0000
0000
0000
0000
0000
0000
0000
0000
0000
0000
0000
0000
0000
0100
0000
0000
0000
0000
0000
0000
0000
0010
0000
0000
0000
0000
0000
0000
0000
0001
0000
0000
0000
0000
0000
0000
0000
1000
0000
0000
0000
0000
0000
0010
0000
0000
0000
0000
0000
0100
0000
0000
0000
0000
0000
0010
0000
0000
0000
0000
0000
0100
0000
0000
0000
0000
0000
0000
0000
0000
0000
0000
0000
0000
0000
0000
0000
0000
0000
0000
0000
0000
0000
0000
0000
0001
0000
0000
0000
0000
0000
0000
0000
0000
0000
0000
0000
0000
0000
0000
0000
0000
0000
0000
0000
0000
0000
0000
0000
1000
0000
0000
0000
0000
0000
0000
0000
0000
0000
0000
0000
0000
0000
0000
0000
0000
0000
0000
0000
0000
0000
0000
0000
0100
0000
0000
0000
0000
0000
0000
0000
0000
0000
0000
0000
0000
0000
0000
0000
0000
0000
0000
0000
0000
0000
0000
0000
,
1000
0001
0010
0001
1000
0010
0100
0001
,
1000
0001
0010
0001
1000
0010
1000
0100
,
0010
0001
0100
0001
1000
0001
0010
0100
,
1000
0001
0011
0010
0110
0100
1000
0001
,
0100
0001
1000
0010
1000
0100
0010
0001
,
0100
0001
1000
0001
0010
0100
1000
0001
,
0100
0000
0001
0000
1000
0000
0010
0000
0100
0000
0001
0000
0010
0000
0100
1000
,
0001
0000
0010
0100
0000
0010
0100
0000
2000
3000
0020
0030
0200
0300
0002
0003
,
2000
3000
0200
0300
2000
3000
0002
0003
0020
0030
0200
0300
2000
3000
0002
0003
,
0200
0300
0002
0003
2000
3000
0020
0030
0200
0300
0002
0003
0020
0030
0200
0300
,
0020
0030
0002
0003
2000
3000
0002
0003
0020
0030
0002
0003
2000
3000
0020
0030
,
2000
3000
0020
0030
0110
0000
0100
0000
0101
0000
0002
0003
2000
3000
0020
0030
,
0200
0300
0002
0003
2000
3000
0020
0030
0200
0300
0002
0003
0200
0300
0020
0030
,
2000
3000
0200
0300
0020
0030
0200
0300
2000
3000
0002
0003
0200
0300
0002
0003
,
2000
3000
0020
0030
0200
0300
0002
0003
0020
0030
0200
0300
1000
0000
0001
0100
,
0010
0000
1000
0100
0000
0010
0001
0000
2000
3000
0200
0300
0020
0030
0002
0003
,
2000
3000
0020
0030
2000
3000
0200
0300
0020
0030
0002
0003
0200
0300
0002
0003
,
2000
3000
0002
0003
0020
0030
0200
0300
0020
0030
0002
0003
0020
0030
0200
0300
,
2000
3000
0200
0300
0020
0030
0200
0300
2000
3000
0002
0003
0200
0300
0002
0003
,
2000
3000
0020
0030
2000
3000
0200
0300
0020
0030
0200
0300
2000
3000
0002
0003
,
0200
0300
0002
0003
2000
3000
0002
0003
0020
0030
0200
0300
2000
3000
0020
0030
,
2000
3000
0200
0300
0020
0030
0200
0300
2000
3000
0002
0003
0200
0300
0020
0030
,
0200
0300
0002
0003
0020
0030
0200
0300
2000
3000
0002
0003
0100
0000
0010
1000
,
0100
0000
0010
0100
0000
1000
0001
0000
0200
0000
0000
0000
0310
1000
0100
0010
,
0100
1000
0001
0100
0001
1000
0001
0010
0001
1000
0010
1000
0100
0010
0001
0100
,
0001
1000
0001
0010
0001
1000
0010
1000
0100
0010
0001
0100
0001
1000
0100
1000
,
0001
0010
0100
1000
0010
0100
0001
1000
0100
1000
0001
0010
0100
0010
0001
1000
,
0010
1000
0100
0010
0001
0100
0001
1000
0002
0000
1003
0010
1000
0100
0010
0001
,
0100
0001
0010
0100
1000
0001
0100
0001
2000
0000
3010
0100
0001
1000
0100
1000
,
0001
0010
0100
1000
0001
0100
0001
1000
0020
0000
0130
0001
1000
0001
0010
0100
,
2000
0000
3001
1000
0010
0100
0001
1000
0200
0000
0310
0001
0200
0000
0310
1000
,
0100
0000
0010
0000
0001
0000
1000
0000
0001
0000
0100
0000
0001
0000
0010
0000
0001
0000
1000
0000
0001
0000
0100
0000
0001
0000
0000
1000
0000
0000
0100
0000
0000
1000
0000
0000
0001
0000
0000
0010
0000
0000
0100
0000
0000
1000
0000
0000
,
0010
0100
0001
1000
0001
0010
0001
1000
0010
1000
0100
0010
0001
0100
0001
0100
,
0010
1000
0100
0010
0001
1000
0001
0010
0100
1000
0100
1000
0001
0100
0001
0100
,
0010
1000
0100
0010
0001
1000
0001
0010
0100
1000
0010
1000
0100
0010
0001
0100
,
0001
1000
0001
0010
0100
1000
0001
0100
0001
1000
0010
0100
0001
0010
0100
1000
,
0001
0100
0001
1000
0010
1000
0100
0010
0001
0100
0001
1000
0001
1000
0010
0100
,
0001
0010
0100
1000
0001
0100
0001
0100
0010
1000
0100
0010
0100
1000
0001
0010
,
0001
0010
0100
1000
0001
0100
0001
1000
0010
0100
0001
1000
0100
0010
0100
1000
,
0100
0010
0100
1000
0001
0100
0001
1000
0010
0100
0001
1000
0100
1000
0010
0100
,
0001
0010
0100
1000
0001
0100
0001
1000
0100
0010
0001
1000
0010
1000
0100
0010
,
0001
0100
0001
0010
0100
1000
0001
0100
0001
1000
0010
1000
0100
1000
0001
0010
,
0100
1000
0100
1000
0010
0100
0001
0010
0100
1000
0001
0100
0001
1000
0010
0100
,
0001
0010
0100
1000
0001
0100
0001
1000
0010
0100
0001
0010
0100
1000
0001
0100
,
0001
0100
0010
1000
0100
1000
0100
0010
0100
1000
0100
1000
0001
0010
0100
1000
,
0010
1000
0010
0100
0001
1000
0001
0010
0100
1000
0001
0100
0001
1000
0010
0100
,
0001
0010
0001
0010
0100
1000
0001
0100
0001
1000
0010
0100
0010
1000
0100
0010
,
0100
1000
0001
0100
0001
1000
0001
1000
0020
0130
0001
1000
0100
1000
0001
0010
,
0100
1000
0001
0100
0001
1000
0010
1000
0100
0010
0001
0100
0001
1000
0001
0010
,
0001
1000
0010
1000
0100
0010
0001
0100
0001
1000
0001
0010
0001
1000
0010
1000
,
0001
0010
0001
1000
0010
1000
0100
1000
0001
0100
0001
1000
0100
1000
0001
0100
,
0001
1000
0010
1000
0100
0010
0001
1000
0001
0100
0001
1000
0010
1000
0100
0010
,
0001
0100
0001
0010
0100
1000
0100
1000
0010
0100
0001
0010
0001
1000
0010
1000
,
0100
0010
0001
0100
0001
1000
0001
1000
0010
0100
0001
0010
0001
1000
0100
0010
,
0100
1000
0001
0100
0001
0100
0010
1000
0100
0010
0001
1000
0010
0100
0001
1000
,
0100
1000
0100
0010
0001
1000
0010
0100
0001
0100
0001
0010
0100
1000
0001
0100
,
0001
1000
0010
0100
0001
0010
0001
0010
0100
1000
0001
0100
0001
0100
0010
1000
,
0100
1000
0100
0010
0001
1000
0010
1000
0100
0010
0001
0100
0001
1000
0001
1000
,
0010
1000
0100
0010
0001
0100
0001
0100
0010
1000
0100
0010
0001
1000
0010
1000
,
0100
0010
0001
0100
0001
1000
0001
0100
0020
0000
1030
0100
0010
0100
1000
0001
,
0100
0001
0010
0100
0010
0001
1000
0100
0020
0000
0130
1000
0001
1000
0010
1000
,
0100
0010
0001
0100
0001
1000
0001
0010
0002
0000
1003
0010
1000
0001
0100
0001
,
2000
0000
3100
1000
0001
0100
0001
0010
0200
0000
1300
0010
0200
0000
0301
0010
,
0100
0000
1000
0000
0010
0000
1000
0000
0100
0000
0010
0000
0001
0000
0100
0000
0001
0000
0010
0000
0100
0000
1000
0000
0100
0000
0000
0010
0000
0000
0001
0000
0000
1000
0000
0000
0100
0000
0000
0010
0000
0000
0001
0000
0000
1000
0000
0000
,
0100
0010
0001
1000
0100
0010
0001
1000
0100
0010
0001
1000
0100
0010
0001
1000
,
0100
0010
0001
1000
0100
0010
0001
1000
0010
0100
0001
1000
0010
0100
0001
1000
,
0010
0100
0001
1000
0010
0100
0001
1000
0010
0100
0001
1000
0010
0100
0001
1000
,
0010
0100
0001
1000
0010
0100
0001
1000
0100
0010
0100
1000
0100
0010
0100
1000
,
0100
0010
0100
1000
0100
0010
0100
1000
0001
0010
0100
0010
0001
0010
0100
0010
,
0001
0010
0100
0010
0001
0010
0100
0010
0001
0010
0100
1000
0001
0010
0100
1000
,
0001
0010
0100
1000
0001
0010
0100
1000
0001
0010
0100
1000
0001
0010
0100
1000
,
0001
0010
0100
1000
0001
0010
0100
1000
0001
0100
0010
1000
0001
0100
0010
1000
,
0001
0100
0010
1000
0001
0100
0010
1000
0001
0100
0010
1000
0001
0100
0010
1000
,
0001
0100
0010
1000
0001
0100
0010
1000
0001
0100
0001
0010
0001
1000
0001
0100
,
0001
0010
0001
1000
0001
0100
0001
0010
0001
1000
0100
1000
0001
1000
0010
1000
,
0001
1000
0100
1000
0010
1000
0001
1000
0100
0010
0001
1000
0100
0010
0001
1000
,
0100
0010
0001
1000
0100
0010
0001
1000
0100
0010
0001
1000
0100
0010
0001
1000
,
0100
0010
0001
1000
0100
0010
0001
1000
0200
0000
0300
0000
MMMM
0000
0000
0000
;

//---------------dance-single - Medium----------------
#NOTES:
     dance-single:
     Medium:
     Hard:
     17:
     1.000,1.000,0.268,0.797,1.000,3701.000,106.000,315.000,4.000,1.000:
0000
0000
0000
0000
2000
3100
0020
0130
,
2000
3001
0200
0301
2000
3010
2000
3100
,
0020
0031
0200
0301
2000
3001
0020
0031
,
2000
3010
0200
0301
2000
3001
0020
0130
,
2000
3001
0200
0301
2000
3100
2000
3001
,
0020
0130
2000
3010
0200
0301
2000
3100
,
2000
3001
0020
0130
0020
0031
2000
3100
,
0020
0130
2000
3010
0200
0301
2000
3001
,
0020
0130
2000
3001
0200
0301
2000
3100
,
2000
3001
0020
0130
2000
3010
0200
0301
,
2000
3100
0020
0031
2000
3010
2000
3100
,
0020
0031
2000
3100
2000
3001
0200
0301
,
2000
0100
3020
0031
2000
0100
3020
0031
,
2000
3100
2000
3010
0200
0301
0020
0130
,
2000
3001
0200
0301
2000
3010
0200
0301
,
2000
3100
0020
0031
2000
0000
0000
0000
,
3001
0000
1000
0100
0000
0010
0001
0000
4000
0000
0000
0000
0000
0000
0000
0000
,
0000
0000
0000
0000
,
3040
0000
0000
0000
,
0000
0000
0430
0000
,
0000
0000
0000
0000
0300
0000
1001
0000
1010
0100
0001
1000
0100
1000
0010
0100
,
0001
1000
0100
1000
0001
0010
0100
1000
0010
0100
0001
1000
0100
0010
0001
1000
,
0001
0010
0100
1000
0001
0100
0001
1000
1100
0100
0010
0001
1000
0001
0010
0100
,
1000
0001
0100
0001
1000
0010
0100
0001
1100
1000
0100
0010
0011
0001
0100
0010
,
1000
0000
0100
0000
0010
0000
0001
0000
1000
0000
0100
0000
0010
0000
0001
0000
1000
0000
0100
0000
0010
0000
0001
0000
1001
0000
0000
1000
0000
0000
0100
0000
0000
0010
0000
0000
0001
0000
0000
1000
0000
0000
0010
0000
0000
1000
0000
0000
,
0100
0010
0001
0010
0001
1000
0010
0100
0001
0100
0001
0010
0100
1000
0001
1000
,
0100
1000
0100
0010
0001
1000
0010
1000
0010
0100
0001
1000
0001
0010
0001
1000
,
0100
1000
0100
0010
0001
1000
0010
0100
0001
1000
0100
1000
0100
0010
0001
0010
,
0100
1000
0001
0100
0001
1000
0001
1000
0100
0010
0001
1000
0010
1000
0100
0010
,
0001
0100
0001
1000
0001
0010
0001
1000
0010
1000
0010
0100
0001
1000
0001
0010
,
0100
1000
0001
0100
0001
1000
0100
1000
0001
1000
0010
1000
0001
0100
0001
0100
,
0010
1000
0010
0100
0001
0100
0001
1000
0100
1000
0001
0010
0001
1000
0100
1000
,
0100
0000
0000
0010
0000
0000
0001
0000
0000
1000
0000
0000
0001
0000
0000
0100
0000
0000
0001
0000
0000
1000
0000
0000
0020
0000
0130
0000
0001
0000
1000
0000
0100
0000
1000
0000
0010
0000
0100
0000
0001
0000
0010
0000
0100
0000
1000
0000
,
0001
0100
0001
1000
0100
0010
0001
1000
0010
0100
0001
1000
0010
0100
0001
1000
0100
1000
0010
0100
0001
0010
0100
1000
,
0001
0100
0001
1000
0100
0010
0100
1000
0010
1000
0001
1000
0100
0010
0001
1000
0100
0010
0001
1000
0010
0100
0001
0010
,
0100
1000
0001
0100
0001
1000
0100
0010
0001
1000
0010
1000
0100
0010
0001
0100
0001
0010
0100
1000
0001
0100
0001
1000
,
0010
0100
0001
0010
0100
1000
0001
0100
0001
1000
0010
0100
0001
0010
0100
1000
0001
0100
0001
1000
0100
0010
0001
1000
,
0010
1000
0100
0010
0001
0100
0001
0010
0100
1000
0001
0100
0001
1000
0010
0100
0001
0010
0100
1000
0001
0100
0001
1000
,
0100
0010
0100
1000
0010
1000
0100
0010
0001
0100
0001
0010
0100
1000
0001
0100
0001
1000
0010
0100
0001
0010
0100
1000
,
0001
0100
0001
1000
0100
0010
0001
1000
0010
1000
0100
0010
0001
0100
0001
0010
0100
1000
0001
0100
0001
1000
0100
0010
,
0001
0000
1000
0000
0010
0000
1000
0000
0100
0000
0010
0000
0001
0000
0100
0000
0001
0000
1000
0000
0001
0000
1000
0000
0100
0000
0000
0010
0000
0000
0001
0000
0000
1000
0000
0000
0001
0000
0000
0010
0000
0000
0100
0000
0000
1000
0000
0000
,
0001
0100
0001
1000
0010
0100
0001
0010
0100
1000
0001
0100
0001
1000
0010
0100
,
0001
0010
0100
1000
0001
0100
0001
1000
0010
0100
0001
1000
0100
1000
0001
0010
,
0100
1000
0010
0100
0001
1000
0100
1000
0001
0010
0100
1000
0010
0100
0001
1000
,
0100
0000
0000
1000
0000
0000
0001
0000
0000
0010
0000
0000
0100
0000
0000
0010
0000
0000
0001
0000
0000
1000
0000
0000
0020
0000
0130
0000
0001
0000
1000
0000
0100
0000
1000
0000
0010
0000
0100
0000
0001
0000
0010
0000
0100
0000
1000
0000
,
0001
0010
0100
1000
0001
0100
0001
1000
0100
0010
0001
1000
0010
1000
0100
0010
0001
0100
0001
0010
0100
1000
0001
0100
,
0001
1000
0010
0100
0001
0010
0100
1000
0001
0100
0001
1000
0100
0010
0001
1000
0010
1000
0100
0010
0001
0100
0001
0010
,
0100
1000
0001
0100
0001
1000
0010
0100
0001
0010
0100
1000
0001
0100
0001
1000
0010
0100
0001
0010
0100
1000
0001
0100
,
0001
1000
0010
0100
0001
0010
0001
0010
0100
1000
0001
0100
0001
1000
0010
0100
0001
0010
0100
1000
0100
1000
0010
0100
,
0001
1000
0100
1000
0100
0010
0001
1000
0010
0100
0001
0010
0100
1000
0001
0100
0001
1000
0010
0100
0001
0010
0001
0010
,
0100
1000
0001
0100
0001
1000
0100
0010
0100
1000
0010
0100
0001
0010
0001
0010
0100
1000
0001
0100
0001
1000
0010
0100
,
0001
0010
0100
1000
0001
0100
0001
1000
0100
1000
0100
0010
0001
1000
0010
1000
0100
0010
0001
0100
0001
0010
0100
1000
,
0001
0000
0100
0000
0001
0000
1000
0000
0010
0000
0100
0000
0001
0000
0010
0000
0100
0000
1000
0000
0001
0000
1000
0000
0100
0000
0000
1000
0000
0000
0010
0000
0000
1000
0000
0000
0100
0000
0000
0010
0000
0000
0001
0000
0000
0100
0000
0000
,
0001
1000
0001
1000
0010
0100
0001
0010
0100
1000
0001
0100
0001
1000
0100
0010
,
0001
1000
0010
1000
0100
1000
0001
0000
0222
0000
0000
0000
0000
0000
0000
0000
,
0000
0000
0000
0000
0333
0000
0000
0000
0001
1000
0010
0100
0001
0100
0001
1000
,
0100
0000
0010
0000
0001
0000
1000
0000
0001
0000
0100
0000
0001
0000
1000
0000
0001
0000
1000
0000
0100
0000
1000
0000
0100
0000
0000
0010
0000
0000
0001
0000
0000
1000
0000
0000
0010
0000
0000
1000
0000
0000
0100
0000
0000
0010
0000
0000
,
0001
0100
0001
1000
0001
0010
0001
1000
0010
1000
0100
0010
0001
0100
0001
1000
,
0001
0010
0100
1000
0100
0010
0001
1000
0001
0010
0001
0100
0001
1000
0010
1000
,
0100
0010
0001
0100
0010
1000
0100
0010
0100
1000
0001
0100
0001
1000
0010
1000
,
0100
0010
0001
1000
0010
1000
0001
0100
0001
0010
0100
1000
0001
0100
0001
1000
,
0100
0010
0100
1000
0001
0010
0001
1000
0010
1000
0100
0010
0001
0100
0010
1000
,
0100
0010
0100
1000
0001
0010
0001
1000
0010
1000
0010
0100
0001
1000
0001
0010
,
0100
1000
0001
0100
0001
0100
0010
1000
0100
0010
0100
1000
0001
0010
0001
0010
,
0100
1000
0010
1000
0100
0010
0001
0100
0010
0100
0010
1000
0100
0010
0001
0010
,
0001
1000
0010
1000
0010
0100
0001
1000
0001
0010
0100
1000
0001
0100
0001
0100
,
0010
1000
0100
1000
0100
0010
0001
1000
0010
0100
0001
0010
0100
0010
0100
1000
,
0001
0100
0001
1000
0010
0100
0001
0010
0001
1000
0010
0100
0001
1000
0001
0010
,
0001
1000
0010
1000
0010
0100
0001
1000
0020
0130
0001
1000
0100
1000
0001
0010
,
0100
1000
0010
0100
0001
1000
0100
1000
0001
0010
0100
0010
0001
1000
0010
1000
,
0100
0010
0100
1000
0001
0100
0001
1000
0002
0103
0001
1000
0001
0010
0100
1000
,
0001
0100
0001
1000
0100
0010
0100
1000
0002
0013
0100
1000
0002
1003
0001
0100
,
0020
1030
0100
0010
0200
1300
0001
0100
0101
0000
0100
0000
0010
0000
1000
0000
,
0110
0010
0001
1000
0101
0010
0100
1000
,
1001
1000
0010
1000
0110
0010
0001
0100
,
0101
0010
0100
1000
0101
0100
0001
1000
,
1001
1000
0010
0100
0101
1000
0100
1000
,
0101
0010
0001
0010
0101
1000
0010
0100
,
0011
1000
0001
0010
1100
1000
0100
1000
,
0110
0000
0100
0000
0001
0000
0010
0000
0011
0000
1000
0000
0100
0000
0010
0001
,
1000
0000
0010
0100
0000
0010
0100
0000
1001
0000
1000
0000
0010
0000
0100
0000
,
0101
1000
0100
1000
0101
0010
0100
1000
,
1010
0100
0001
0010
0011
1000
0100
0010
,
0101
1000
0001
0010
0011
1000
0010
1000
,
1001
0100
0001
1000
0110
0010
0100
1000
,
0011
0010
0100
0010
0101
1000
0100
0010
,
1100
1000
0001
0100
0101
1000
0100
1000
,
0011
0000
0100
0000
0001
0000
1000
0000
1100
0000
1000
0000
0001
0000
0100
0001
,
1000
0000
0001
0100
0000
0001
0100
0000
0101
0001
1000
0010
0100
0001
0010
0100
,
1000
0001
0100
0001
1000
0010
0100
0001
0010
0100
1000
0001
0100
0001
1000
0100
,
0010
0001
1000
0010
1000
0100
0010
0001
0100
0001
1000
0001
0100
0001
1000
0001
,
1000
0100
0010
0001
1000
0100
0010
0001
1000
0100
0010
0001
1000
0100
0010
0001
,
1000
0000
0000
0100
0000
0000
0010
0000
0000
0001
0000
0000
1000
0000
0000
0100
0000
0000
0010
0000
0000
0001
0000
0000
2000
0000
0000
0000
0000
0000
3100
0000
0010
0000
0001
0000
1000
0000
0010
0000
1000
0000
0100
0000
0010
0000
0001
0000
,
0100
0001
1000
0001
0010
0100
1000
0001
0100
0001
1000
0100
0010
0001
1000
0010
1000
0100
0010
0001
0100
0001
0010
0100
,
1000
0001
0100
0001
1000
0010
0100
0001
1000
0001
0010
0100
1000
0001
0100
0001
1000
0010
1000
0100
0010
0001
0100
0001
,
0010
0100
1000
0001
0010
0100
1000
0001
0100
0001
1000
0100
0010
0001
1000
0010
1000
0100
0010
0001
0100
0001
0010
0100
,
1000
0001
1000
0100
0010
0001
1000
0010
1000
0100
0010
0001
0100
0001
0010
0100
1000
0001
0100
0001
1000
0100
0010
0100
,
1000
0010
1000
0010
0100
0001
1000
0001
0010
0001
0010
0100
1000
0001
0100
0001
0100
0010
1000
0100
0010
0001
1000
0010
,
1000
0010
0100
0001
0010
0100
1000
0001
0100
0001
1000
0010
0100
0001
0010
0100
1000
0001
0100
0001
0100
0010
1000
0100
,
1000
0100
0010
0001
1000
0010
1000
0100
0010
0001
0100
0001
0010
0100
1000
0100
1000
0001
1000
0001
0100
0001
0010
0100
,
1000
0001
0100
0001
0100
0010
1000
0100
0010
0001
1000
0010
1000
0100
0010
0001
0100
0001
0010
0100
1000
0001
0100
0001
,
0100
0010
1000
0100
0010
0100
1000
0010
0100
0001
0010
0100
1000
0001
0100
0001
0100
0010
1000
0100
1000
0100
0010
0001
,
1000
0000
0010
0000
1000
0000
0100
0000
0010
0000
0001
0000
0100
0000
0001
0000
1000
0000
0001
0000
0100
0000
0001
0000
0100
0000
0000
0001
0000
0000
1000
0000
0000
0100
0000
0000
0010
0000
0000
0001
0000
0000
1000
0000
0000
0010
0000
0000
,
0100
0001
0010
0100
1000
0010
1000
0100
0010
0001
0100
0001
0010
0100
1000
0001
,
0100
0001
1000
0010
0100
0001
0010
0100
1000
0001
0100
0001
1000
0100
0010
0001
,
1000
0010
1000
0100
0010
0001
0100
0001
0010
0100
1000
0010
0100
0001
0010
0100
,
1000
0001
0100
0001
1000
0010
0100
0001
0010
0100
1000
0001
0100
0001
1000
0100
,
0010
0001
1000
0010
1000
0100
0010
0001
0100
0001
0010
0100
1000
0001
0100
0001
,
1000
0010
0100
0001
0010
0100
1000
0001
0100
0001
1000
0100
0010
0100
1000
0010
,
1000
0100
0010
0001
1000
0001
0100
0010
1000
0100
0010
0100
1000
0001
0010
0001
,
1000
0010
0100
0001
1000
0100
1000
0001
0010
0100
1000
0010
0100
0001
1000
0100
,
1000
0010
0100
0001
0010
0100
1000
0001
0100
0001
1000
0010
0100
0001
1000
0100
,
0010
0000
0000
0100
0000
0000
1000
0000
0000
0010
0000
0000
0100
0000
0000
0001
0000
0000
0010
0000
0000
0100
0000
0000
2000
0000
3001
0000
0100
0000
0001
0000
1000
0000
0010
0000
0100
0000
0001
0000
0010
0000
0100
0000
1000
0000
0001
0000
,
0100
0001
1000
0010
1000
0100
0010
0001
0100
0001
0010
0100
1000
0001
0100
0001
1000
0010
0100
0001
0010
0100
1000
0001
,
0100
0001
1000
0100
0010
0001
1000
0100
0010
0100
1000
0001
0100
0001
0010
0100
1000
0010
0100
0001
0010
0001
1000
0010
,
1000
0100
0010
0001
0100
0001
0010
0100
1000
0001
0100
0001
0100
0010
1000
0100
0010
0001
1000
0010
1000
0100
0010
0001
,
1000
0010
1000
0100
0010
0001
1000
0010
1000
0100
0010
0001
0100
0001
0010
0100
1000
0001
0100
0001
1000
0001
1000
0100
,
1000
0001
1000
0001
0100
0001
0010
0001
0010
0100
1000
0010
0100
0001
1000
0100
1000
0010
0100
0001
0010
0001
0010
0100
,
1000
0000
0001
0000
0100
0000
0001
0000
1000
0000
0100
0000
0010
0000
0001
0000
1000
0000
0100
0000
0010
0000
0001
0000
1000
0000
0000
0001
0000
0000
0100
0000
0000
0001
0000
0000
1000
0000
0000
0100
0000
0000
0010
0000
0000
0001
0000
0000
,
0010
0100
1000
0100
0010
0001
0010
0100
1000
0100
0010
0001
0010
0100
1000
0100
,
0010
0000
0001
0000
1000
0000
0001
0000
0100
0000
0010
0000
1000
0000
0100
0000
0010
0000
0100
0000
1000
0000
0001
0000
1000
0000
0000
0010
0000
0000
0100
0000
0000
0001
0000
0000
1000
0000
0000
0100
0000
0000
1000
0000
0000
0001
0000
0000
,
0010
0100
0010
0001
1000
0010
1000
0100
0010
0001
0100
0001
0100
0010
1000
0100
,
0010
0001
1000
0001
0010
0001
0010
0100
1000
0001
0100
0001
1000
0010
0100
0001
,
0010
0100
1000
0100
1000
0010
0100
0001
1000
0001
0010
0100
1000
0001
0100
0001
,
1000
0010
1000
0100
0010
0001
1000
0010
0100
0001
1000
0100
1000
0010
0100
0001
,
0010
0001
1000
0010
1000
0100
0010
0001
1000
0001
0100
0010
1000
0100
1000
0001
,
0010
0100
1000
0010
0100
0001
1000
0100
1000
0001
0010
0100
1000
0010
0100
0001
,
1000
0100
1000
0010
0100
0001
0010
0001
1000
0010
1000
0100
0010
0001
0100
0001
,
0010
0000
0000
0100
0000
0000
1000
0000
0000
0001
0000
0000
0100
0000
0000
0001
0000
0000
1000
0000
0000
0100
0000
0000
2000
0000
3010
0000
0100
0000
0001
0000
0010
0000
0100
0000
1000
0000
0001
0000
0100
0000
0001
0000
1000
0000
0100
0000
,
0010
0001
1000
0010
0100
0001
0010
0100
1000
0010
0100
0001
1000
0100
0010
0001
1000
0010
0100
0001
0010
0100
1000
0001
,
0100
0001
1000
0100
0010
0001
1000
0010
1000
0100
0010
0001
0100
0001
0010
0100
1000
0001
0100
0001
1000
0010
1000
0001
,
0100
0010
1000
0100
0010
0001
1000
0010
0100
0001
0010
0100
1000
0001
0100
0001
1000
0100
0010
0001
1000
0010
0100
0001
,
0010
0100
1000
0001
0100
0001
1000
0100
0010
0001
1000
0010
1000
0100
0010
0001
0100
0001
0010
0100
1000
0001
0100
0010
,
1000
0100
0010
0001
1000
0010
0100
0001
0010
0100
0010
0001
1000
0100
1000
0001
0010
0100
1000
0010
0100
0001
1000
0100
,
1000
0010
0100
0001
0010
0100
1000
0001
0100
0001
1000
0100
0010
0001
1000
0010
1000
0100
0010
0001
0100
0001
0010
0100
,
1000
0001
0100
0001
1000
0100
0010
0001
1000
0010
0100
0001
0010
0100
1000
0010
0100
0001
0010
0100
1000
0010
0100
0001
,
1000
0000
0100
0000
0010
0000
0001
0000
1000
0000
0010
0000
1000
0000
0100
0000
0010
0000
0100
0000
0000
1000
0000
0000
0002
0000
0000
0000
0000
0000
0003
0000
0000
0000
0000
0000
0202
0000
0000
0000
0000
0000
0303
0000
0000
0000
0000
0000
,
0022
0033
0220
0330
2200
3300
2020
3030
,
0220
0330
2002
3003
0202
0303
2200
3300
,
0220
0330
0022
0033
2002
3003
2020
3030
,
0220
0330
0101
0001
0022
0033
0220
0330
,
2200
3300
2020
3030
0202
0303
0022
0033
,
2200
3300
2020
3030
0220
0330
0202
0303
,
2002
0000
3003
0000
2200
0000
3300
0000
0220
0000
0330
0000
1000
0000
0100
0010
,
0001
0000
1000
0010
0000
1000
0010
0000
0220
0000
0330
0000
0202
0000
0303
0000
,
0022
0033
0220
0330
2200
3300
2002
3003
,
0202
0303
2002
3003
2020
3030
2200
3300
,
0220
0330
2200
3300
2002
3003
0202
0303
,
2002
3003
0011
0100
2200
3300
2002
3003
,
0202
0303
0022
0033
0220
0330
2200
3300
,
2020
3030
2002
3003
2200
3300
0220
0330
,
0022
0000
0033
0000
0202
0000
0303
0000
2020
0000
3030
0000
0110
0000
0001
1000
,
0001
0000
0100
0010
0000
0100
0010
0000
1000
0100
0010
0001
1000
0010
0100
0001
,
0010
0100
1000
0001
0100
0001
1000
0100
0010
0001
1000
0010
0100
0001
0010
0100
,
1000
0001
0100
0001
1000
0100
0010
0001
1000
0100
0010
0001
1000
0010
1000
0100
,
0010
0001
0100
0001
0010
0100
1000
0001
0100
0001
1000
0010
0100
0001
0010
0100
,
1000
0001
0100
0001
1000
0100
0010
0001
1000
0010
1000
0100
0010
0001
1000
0100
,
0010
0001
0100
0001
0010
0100
1000
0001
0100
0001
1000
0100
1000
0001
0010
0100
,
0010
0001
1000
0010
1000
0100
0010
0001
1000
0100
0010
0001
1000
0010
0100
0001
,
0010
0100
1000
0001
0100
0001
1000
0010
0100
0001
0010
0100
1000
0001
0100
0001
,
1000
0100
0010
0001
1000
0010
1000
0100
0010
0001
1000
0100
1000
0010
0100
0001
,
0010
0100
1000
0001
0100
0001
1000
0100
0010
0001
1000
0010
1000
0100
0010
0001
,
0100
0001
0010
0100
1000
0001
0100
0001
1000
0100
0010
0001
1000
0010
1000
0100
,
0010
0001
0100
0001
0010
0100
1000
0001
0100
0001
1000
0100
0010
0001
1000
0010
,
1000
0100
0010
0001
0100
0001
0010
0100
0110
0010
0001
1000
0010
0100
0001
1000
,
0100
1000
0010
0100
0001
0010
0100
1000
1001
0001
0100
0010
1000
0100
0010
0100
,
1000
0001
0100
0001
0010
0100
1000
0001
0101
0100
0001
0010
0100
1000
0001
1000
,
1010
0010
0100
0001
1000
0100
0010
0100
1100
1000
0010
0100
0011
0010
0200
0000
,
1300
0010
0100
0001
1000
0001
0010
0001
1000
0001
0100
0001
1000
0000
0000
0000
0000
0000
0000
0000
0000
0000
0000
0000
,
0000
0000
0000
0000
,
0100
0000
0000
0000
0000
0000
0000
0000
0000
0000
0000
0000
0000
0000
0000
0000
0000
0000
0000
0000
0000
0000
0000
0000
0001
0000
0000
0000
0000
0000
0000
0000
0000
0000
0000
0000
0000
0000
0000
0000
0000
0000
0000
0000
0000
0000
0000
0000
0100
0000
0000
0000
0000
0000
0000
0000
0010
0000
0000
0000
0000
0000
0000
0000
0001
0000
0000
0000
0000
0000
0000
0000
1000
0000
0000
0000
0000
0000
0010
0000
0000
0000
0000
0000
0100
0000
0000
0000
0000
0000
0010
0000
0000
0000
0000
0000
0100
0000
0000
0000
0000
0000
0000
0000
0000
0000
0000
0000
0000
0000
0000
0000
0000
0000
0000
0000
0000
0000
0000
0000
0001
0000
0000
0000
0000
0000
0000
0000
0000
0000
0000
0000
0000
0000
0000
0000
0000
0000
0000
0000
0000
0000
0000
0000
1000
0000
0000
0000
0000
0000
0000
0000
0000
0000
0000
0000
0000
0000
0000
0000
0000
0000
0000
0000
0000
0000
0000
0000
0100
0000
0000
0000
0000
0000
0000
0000
0000
0000
0000
0000
0000
0000
0000
0000
0000
0000
0000
0000
0000
0000
0000
0000
,
1000
0001
0010
0001
1000
0010
0100
0001
,
1000
0001
0010
0001
1000
0010
1000
0100
,
0010
0001
0100
0001
1000
0001
0010
0100
,
1000
0001
0011
0010
0110
0100
1000
0001
,
0100
0001
1000
0010
1000
0100
0010
0001
,
0100
0001
1000
0001
0010
0100
1000
0001
,
0100
0000
0001
0000
1000
0000
0010
0000
0100
0000
0001
0000
0010
0000
0100
1000
,
0001
0000
0010
0100
0000
0010
0100
0000
2000
3000
0020
0030
0200
0300
0002
0003
,
2000
3000
0200
0300
2000
3000
0002
0003
0020
0030
0200
0300
2000
3000
0002
0003
,
0200
0300
0002
0003
2000
3000
0020
0030
0200
0300
0002
0003
0020
0030
0200
0300
,
0020
0030
0002
0003
2000
3000
0002
0003
0020
0030
0002
0003
2000
3000
0020
0030
,
2000
3000
0020
0030
0110
0000
0100
0000
0101
0000
0002
0003
2000
3000
0020
0030
,
0200
0300
0002
0003
2000
3000
0020
0030
0200
0300
0002
0003
0200
0300
0020
0030
,
2000
3000
0200
0300
0020
0030
0200
0300
2000
3000
0002
0003
0200
0300
0002
0003
,
2000
3000
0020
0030
0200
0300
0002
0003
0020
0030
0200
0300
1000
0000
0001
0100
,
0010
0000
1000
0100
0000
0010
0001
0000
2000
3000
0200
0300
0020
0030
0002
0003
,
2000
3000
0020
0030
2000
3000
0200
0300
0020
0030
0002
0003
0200
0300
0002
0003
,
2000
3000
0002
0003
0020
0030
0200
0300
0020
0030
0002
0003
0020
0030
0200
0300
,
2000
3000
0200
0300
0020
0030
0200
0300
2000
3000
0002
0003
0200
0300
0002
0003
,
2000
3000
0020
0030
2000
3000
0200
0300
0020
0030
0200
0300
2000
3000
0002
0003
,
0200
0300
0002
0003
2000
3000
0002
0003
0020
0030
0200
0300
2000
3000
0020
0030
,
2000
3000
0200
0300
0020
0030
0200
0300
2000
3000
0002
0003
0200
0300
0020
0030
,
0200
0300
0002
0003
0020
0030
0200
0300
2000
3000
0002
0003
0100
0000
0010
1000
,
0100
0000
0010
0100
0000
1000
0001
0000
0200
0000
0000
0000
0310
1000
0100
0010
,
0100
1000
0001
0100
0001
1000
0001
0010
0001
1000
0010
1000
0100
0010
0001
0100
,
0001
1000
0001
0010
0001
1000
0010
1000
0100
0010
0001
0100
0001
1000
0100
1000
,
0001
0010
0100
1000
0010
0100
0001
1000
0100
1000
0001
0010
0100
0010
0001
1000
,
0010
1000
0100
0010
0001
0100
0001
1000
0002
0000
1003
0010
1000
0100
0010
0001
,
0100
0001
0010
0100
1000
0001
0100
0001
2000
0000
3010
0100
0001
1000
0100
1000
,
0001
0010
0100
1000
0001
0100
0001
1000
0020
0000
0130
0001
1000
0001
0010
0100
,
2000
0000
3001
1000
0010
0100
0001
1000
0200
0000
0310
0001
0200
0000
0310
1000
,
0100
0010
0001
1000
0001
0100
0001
0010
0001
1000
0001
0100
0001
1000
0100
0010
0001
1000
0100
0010
0001
1000
0100
0010
,
0001
1000
0010
1000
0100
0010
0001
0100
0001
0010
0100
1000
0001
0100
0001
1000
0010
1000
0100
0010
0001
0100
0001
1000
,
0001
1000
0100
0010
0001
1000
0010
1000
0100
0010
0001
0100
0001
0010
0100
0010
0001
1000
0100
0010
0100
1000
0010
1000
,
0100
0010
0001
0100
0001
0010
0100
1000
0001
0100
0001
1000
0100
0010
0001
1000
0010
1000
0100
0010
0001
0100
0001
0010
,
0100
1000
0001
0100
0001
1000
0010
0100
0001
0010
0100
1000
0010
0100
0001
1000
0100
0010
0001
1000
0010
1000
0100
0010
,
0001
0100
0001
0010
0100
1000
0001
0100
0001
1000
0010
1000
0100
0010
0001
1000
0100
0010
0001
1000
0010
1000
0100
0010
,
0001
0100
0001
0010
0100
1000
0001
0100
0001
1000
0010
0100
0001
0010
0100
1000
0001
0100
0001
1000
0010
0100
0001
0010
,
0100
1000
0001
0100
0001
1000
0100
0010
0001
1000
0100
0010
0001
1000
0010
1000
0100
0010
0001
1000
0100
1000
0010
0100
,
0001
1000
0100
0010
0100
1000
0001
0100
0001
1000
0010
0100
0001
0010
0100
1000
0001
0100
0001
1000
0100
0010
0001
1000
,
0010
1000
0100
0010
0001
0100
0001
0010
0100
1000
0001
0100
0001
1000
0100
1000
0010
0100
0001
1000
0100
1000
0010
0100
,
0001
0010
0100
1000
0100
0010
0001
1000
0100
1000
0010
0100
0001
0010
0100
0010
0100
1000
0001
0100
0001
1000
0100
1000
,
0010
0100
0001
0010
0100
1000
0001
0100
0001
0100
0001
1000
0010
1000
0100
1000
0100
1000
0100
0010
0001
1000
0010
1000
,
0100
0010
0001
0100
0001
0010
0100
1000
0001
0100
0001
1000
0001
1000
0100
0010
0001
1000
0010
1000
0100
0010
0001
0100
,
0001
1000
0100
1000
0010
0100
0001
0010
0001
0010
0100
1000
0001
0100
0001
1000
0010
1000
0100
0010
0001
0100
0001
0010
,
0100
1000
0001
0100
0001
1000
0010
0100
0001
0010
0100
1000
0001
0010
0100
1000
0001
0010
0100
1000
0001
0100
0001
1000
,
0100
0010
0001
1000
0100
0010
0001
1000
0010
1000
0100
0010
0001
0100
0001
0010
0100
1000
0001
0100
0001
1000
0010
0100
,
0001
0000
0010
0000
0100
0000
1000
0000
0001
0000
0100
0000
0001
0000
1000
0000
0100
0000
0010
0000
0001
0000
1000
0000
0020
0000
0000
0130
0000
0000
0001
0000
0000
1000
0000
0000
0100
0000
0000
1000
0000
0000
0001
0000
0000
0010
0000
0000
,
0100
1000
0001
0100
0001
1000
0010
1000
0100
0010
0001
0100
0001
1000
0001
0010
,
0001
1000
0010
1000
0100
0010
0001
0100
0001
1000
0001
0010
0001
1000
0010
1000
,
0001
0010
0001
1000
0010
1000
0100
1000
0001
0100
0001
1000
0100
1000
0001
0100
,
0001
1000
0010
1000
0100
0010
0001
1000
0001
0100
0001
1000
0010
1000
0100
0010
,
0001
0100
0001
0010
0100
1000
0100
1000
0010
0100
0001
0010
0001
1000
0010
1000
,
0100
0010
0001
0100
0001
1000
0001
1000
0010
0100
0001
0010
0001
1000
0100
0010
,
0100
1000
0001
0100
0001
0100
0010
1000
0100
0010
0001
1000
0010
0100
0001
1000
,
0100
1000
0100
0010
0001
1000
0010
0100
0001
0100
0001
0010
0100
1000
0001
0100
,
0001
1000
0010
0100
0001
0010
0001
0010
0100
1000
0001
0100
0001
0100
0010
1000
,
0100
1000
0100
0010
0001
1000
0010
1000
0100
0010
0001
0100
0001
1000
0001
1000
,
0010
1000
0100
0010
0001
0100
0001
0100
0010
1000
0100
0010
0001
1000
0010
1000
,
0100
0010
0001
0100
0001
1000
0001
0100
0020
0000
1030
0100
0010
0100
1000
0001
,
0100
0001
0010
0100
0010
0001
1000
0100
0020
0000
0130
1000
0001
1000
0010
1000
,
0100
0010
0001
0100
0001
1000
0001
0010
0002
0000
1003
0010
1000
0001
0100
0001
,
2000
0000
3100
1000
0001
0100
0001
0010
0200
0000
1300
0010
0200
0000
0301
0010
,
0100
0000
1000
0000
0010
0000
1000
0000
0100
0000
0010
0000
0001
0000
0100
0000
0001
0000
0010
0000
0100
0000
1000
0000
0100
0000
0000
0010
0000
0000
0001
0000
0000
1000
0000
0000
0100
0000
0000
0010
0000
0000
0001
0000
0000
1000
0000
0000
,
0100
0010
0001
1000
0100
0010
0001
1000
0100
0010
0001
1000
0100
0010
0001
1000
,
0100
0010
0001
1000
0100
0010
0001
1000
0010
0100
0001
1000
0010
0100
0001
1000
,
0010
0100
0001
1000
0010
0100
0001
1000
0010
0100
0001
1000
0010
0100
0001
1000
,
0010
0100
0001
1000
0010
0100
0001
1000
0100
0010
0100
1000
0100
0010
0100
1000
,
0100
0010
0100
1000
0100
0010
0100
1000
0001
0010
0100
0010
0001
0010
0100
0010
,
0001
0010
0100
0010
0001
0010
0100
0010
0001
0010
0100
1000
0001
0010
0100
1000
,
0001
0010
0100
1000
0001
0010
0100
1000
0001
0010
0100
1000
0001
0010
0100
1000
,
0001
0010
0100
1000
0001
0010
0100
1000
0001
0100
0010
1000
0001
0100
0010
1000
,
0001
0100
0010
1000
0001
0100
0010
1000
0001
0100
0010
1000
0001
0100
0010
1000
,
0001
0100
0010
1000
0001
0100
0010
1000
0001
0100
0001
0010
0001
1000
0001
0100
,
0001
0010
0001
1000
0001
0100
0001
0010
0001
1000
0100
1000
0001
1000
0010
1000
,
0001
1000
0100
1000
0010
1000
0001
1000
0100
0010
0001
1000
0100
0010
0001
1000
,
0100
0010
0001
1000
0100
0010
0001
1000
0100
0010
0001
1000
0100
0010
0001
1000
,
0100
0010
0001
1000
0100
0010
0001
1000
0200
0000
0300
0000
MMMM
0000
0000
0000
;

//---------------dance-single - Hard----------------
#NOTES:
     dance-single:
     Hard:
     Challenge:
     20:
     1.000,1.000,0.018,0.116,1.000,5038.000,7.000,46.000,7.000,0.000:

0000
0000
0000
0000
0000
0000
0000
0000
1000
0100
0010
0001
1000
0001
0100
0001
,
0010
0100
1000
0010
0100
0001
0010
0100
1000
0001
0100
0001
1000
0100
0010
0001
,
1000
0010
1000
0100
0010
0001
0100
0001
0010
0100
1000
0001
0100
0001
1000
0010
,
0100
0001
0010
0100
1000
0001
0100
0001
1000
0100
0010
0001
1000
0010
1000
0100
,
0010
0001
0100
0001
0010
0100
1000
0001
0100
0001
1000
0010
0100
0001
0010
0100
,
1000
0001
0100
0001
1000
0100
0010
0001
1000
0010
1000
0100
0010
0001
1000
0001
,
0100
0001
0010
0100
1000
0001
0100
0001
1000
0010
1000
0100
0010
0001
1000
0001
,
0100
0001
0010
0100
1000
0010
0100
0001
0010
0100
1000
0001
0100
0001
1000
0010
,
0100
0001
0010
0100
1000
0001
0100
0001
1000
0100
0010
0001
1000
0010
1000
0100
,
0010
0001
1000
0001
0100
0001
0010
0100
1000
0001
0100
0001
1000
0010
1000
0100
,
0010
0001
1000
0001
0100
0001
0010
0100
1000
0001
0100
0001
1000
0010
0100
0001
,
0010
0100
1000
0001
0100
0001
1000
0010
1000
0100
0010
0001
1000
0100
0010
0001
,
1000
0010
0100
0001
0010
0100
1000
0001
0010
0100
1000
0001
0100
0001
1000
0100
,
0010
0001
1000
0100
0010
0001
1000
0010
1000
0100
0010
0001
1000
0001
0100
0001
,
0010
0100
1000
0001
0100
0001
1000
0100
0010
0001
1000
0100
0010
0001
1000
0010
,
1000
0100
0010
0001
0100
0001
0010
0001
2000
0000
0000
0000
0000
0000
0000
0000
,
3001
0000
1000
0100
0000
0010
0001
0000
4000
0000
0000
0000
0000
0000
0000
0000
,
0000
0000
0000
0000
,
3040
0000
0000
0000
,
0000
0000
0430
0000
,
0000
0000
0000
0000
0300
0000
1001
0000
1010
0100
0001
1000
0100
1000
0010
0100
,
0001
1000
0100
1000
0001
0010
0100
1000
0010
0100
0001
1000
0100
0010
0001
1000
,
0001
0010
0100
1000
0001
0100
0001
1000
1100
0100
0010
0001
1000
0001
0010
0100
,
1000
0001
0100
0001
1000
0010
0100
0001
1100
1000
0100
0010
0011
0001
0100
0010
,
1000
0100
0010
0001
1000
0100
0010
0001
1000
0100
0010
0001
1000
0010
0100
0001
1000
0100
1000
0001
0010
0100
1000
0010
,
0100
0001
1000
0001
0010
0100
1000
0001
0100
0001
1000
0010
1000
0100
0010
0001
0100
0001
1000
0001
0010
0001
1000
0100
,
0010
0001
1000
0010
1000
0100
0010
0001
1000
0100
0010
0001
1000
0001
0100
0001
0010
0100
1000
0001
0100
0001
1000
0100
,
0010
0001
1000
0100
0010
0001
1000
0010
1000
0100
0010
0001
0100
0001
0010
0100
1000
0001
0010
0100
1000
0001
0100
0001
,
1000
0010
0100
0001
0010
0100
1000
0001
0010
0100
1000
0001
1000
0100
0010
0001
1000
0100
0010
0001
1000
0010
1000
0100
,
0010
0001
1000
0100
0010
0001
1000
0001
0100
0001
0010
0100
1000
0001
0100
0001
1000
0100
1000
0001
0010
0100
1000
0001
,
0010
0100
1000
0010
0100
0001
1000
0001
0010
0100
1000
0001
0010
0100
1000
0001
0100
0001
1000
0010
0100
0010
1000
0100
,
1000
0001
1000
0100
0010
0001
1000
0100
0010
0001
1000
0010
1000
0001
0100
0001
0010
0100
1000
0001
0100
0001
1000
0100
,
0010
0001
1000
0100
0010
0001
1000
0001
0010
0100
1000
0001
2000
3010
0100
0001
1000
0010
0100
0001
1000
0100
1000
0001
,
0010
0100
1000
0001
0100
0001
1000
0010
1000
0100
0010
0001
1000
0001
0100
0001
0010
0100
1000
0001
0100
0010
1000
0001
,
0100
0010
1000
0100
0010
0100
1000
0001
0010
0100
1000
0001
0100
0001
1000
0010
1000
0001
0010
0100
1000
0001
0100
0001
,
1000
0010
0100
0001
1000
0010
0100
0001
1000
0100
1000
0001
0010
0100
1000
0001
0100
0001
1000
0010
0100
0001
1000
0010
,
0100
0001
1000
0100
1000
0001
0010
0100
1000
0001
0100
0001
1000
0001
0100
0010
1000
0001
0100
0010
1000
0100
0010
0100
,
1000
0001
0010
0100
1000
0001
0100
0001
1000
0010
1000
0100
0010
0001
0100
0001
1000
0001
0010
0001
1000
0100
0010
0001
,
1000
0010
1000
0001
0100
0001
0010
0100
1000
0001
0100
0001
0010
0100
1000
0001
0100
0001
1000
0010
1000
0100
0010
0001
,
1000
0010
0100
0001
1000
0010
0100
0001
1000
0100
1000
0001
0010
0100
1000
0010
0100
0001
1000
0010
0100
0001
1000
0001
,
0010
0001
1000
0010
1000
0001
0100
0001
0010
0100
1000
0001
0200
0301
1000
0001
0010
0100
1000
0001
0100
0001
1000
0010
,
1000
0100
0010
0001
1000
0001
0100
0001
1000
0001
0010
0001
1000
0001
0100
0001
1000
0001
0100
0001
1000
0001
0010
0001
,
1000
0100
1000
0001
1000
0010
1000
0001
1000
0100
1000
0100
1000
0010
1000
0001
1000
0001
1000
0100
1000
0001
1000
0010
,
1000
0100
0010
0001
1000
0100
0010
0001
1000
0010
0100
0001
1000
0001
0010
0100
0010
0001
1000
0001
0100
0001
1000
0010
,
1000
0100
0010
0001
0100
0001
1000
0100
1000
0001
0100
0001
0020
0130
1000
0001
0100
0001
1000
0100
1000
0001
0010
0100
,
1000
0010
1000
0100
0010
0001
0100
0001
1000
0001
0010
0001
1000
0100
0010
0001
1000
0100
0010
0001
1000
0001
0010
0100
,
1000
0001
0010
0100
1000
0001
1000
0100
0010
0001
1000
0100
0010
0001
1000
0001
0010
0100
1000
0001
0010
0100
1000
0001
,
1000
0100
0010
0001
1000
0001
0010
0100
1000
0001
0010
0100
1000
0001
1000
0100
0010
0001
1000
0001
0010
0100
1000
0001
,
1000
0100
1000
0010
0100
0001
0010
0100
1000
0001
0100
0001
1000
0010
1000
0100
0010
0001
1000
0001
0010
0001
1000
0100
,
0010
0001
1000
0001
0100
0001
1000
0010
1000
0100
0010
0001
1000
0001
0100
0010
1000
0100
0010
0001
1000
0010
0100
0001
,
1000
0100
1000
0001
0010
0100
1000
0010
1000
0100
0010
0001
0100
0001
1000
0001
0010
0001
1000
0010
1000
0001
0100
0010
,
1000
0100
0010
0001
1000
0001
0010
0001
1000
0100
0010
0001
1000
0010
1000
0100
0010
0001
1000
0001
0100
0001
1000
0010
,
1000
0100
0010
0001
1000
0001
0100
0001
0010
0100
1000
0001
0100
0001
1000
0010
1000
0100
0010
0001
1000
0100
1000
0001
,
0100
0001
1000
0010
0100
0001
0010
0100
1000
0001
0010
0100
1000
0001
0100
0001
1000
0100
1000
0001
0100
0001
1000
0010
,
1000
0001
0100
0001
1000
0001
0010
0100
1000
0001
1000
0100
0020
0000
0000
0000
0000
0000
0000
0000
0000
0000
0000
0000
,
0000
0000
0000
0000
0000
0000
0000
0000
0000
0000
0000
0000
0031
1000
0010
1000
0100
0010
0001
1000
0001
0100
0001
1000
,
0100
0010
0001
1000
0001
0100
0001
1000
0100
0010
0001
1000
0100
0010
0001
1000
0001
0100
0001
0010
0100
1000
0010
1000
,
0100
0010
0001
0100
0001
1000
0001
0010
0001
1000
0010
1000
0100
0010
0001
0100
0001
1000
0001
0010
0100
1000
0001
0100
,
0001
1000
0010
0100
0001
1000
0100
0010
0001
1000
0001
0010
0001
1000
0010
1000
0100
0010
0001
1000
0001
0100
0001
0010
,
0100
1000
0010
1000
0100
0010
0001
0100
0001
1000
0001
0100
0001
1000
0100
1000
0010
0100
0001
0010
0100
1000
0001
0100
,
0001
1000
0100
0010
0001
1000
0010
1000
0100
0010
0001
0100
0001
0010
0100
1000
0001
0010
0100
1000
0001
0100
0001
1000
,
0010
0100
0001
0010
0100
1000
0001
0100
0001
1000
0100
0010
0001
1000
0010
1000
0100
0010
0001
1000
0100
0010
0001
1000
,
0001
0100
0001
0010
0100
1000
0001
0010
0100
1000
0001
0100
0001
1000
0100
1000
0010
0100
0001
0010
0100
1000
0001
0100
,
0001
1000
0010
0100
0001
0010
0100
1000
0001
0100
0001
1000
0010
1000
0100
0010
0001
1000
0100
0010
0001
1000
0001
0100
,
0001
0010
0100
1000
0001
0010
0100
1000
0010
1000
0100
0010
0001
0100
0001
1000
0001
0010
0001
1000
0010
1000
0100
0010
,
0001
0100
0001
1000
0001
0010
0100
1000
0001
0010
0100
1000
0001
0100
0001
1000
0010
1000
0100
0010
0001
1000
0001
0100
,
0010
1000
0100
0010
0001
1000
0001
0010
0100
1000
0001
0100
0001
1000
0100
0010
0001
1000
0010
1000
0100
0010
0001
0100
,
0001
1000
0010
1000
0001
0100
0001
1000
0010
0100
0001
0010
0100
1000
0001
0100
0001
1000
0100
0010
0001
1000
0010
1000
,
0100
0010
0001
1000
0001
0100
0001
0010
0100
1000
0001
1000
0200
1300
0010
0100
0001
0010
0100
1000
0001
0100
0001
1000
,
0010
0100
0001
1000
0100
1000
0010
0100
0001
0010
0100
1000
0010
0100
0010
1000
0100
0010
0001
0100
0001
1000
0010
1000
,
0100
0010
0100
1000
0001
0100
0001
1000
0100
0010
0001
1000
0200
1300
0001
0100
0001
1000
0010
1000
0100
0010
0001
0100
,
0001
0010
0100
1000
0001
0100
0001
1000
0100
1000
0010
0100
0002
0013
0100
1000
0001
0100
0002
1003
0100
0010
0001
1000
,
0200
0000
0310
0000
0001
0000
1000
0000
0001
0000
0100
0000
0002
0000
1003
0000
0010
0000
0100
0000
0001
0000
1000
0000
0040
0000
0000
0130
0000
0000
0001
0000
0000
1000
0000
0000
0100
0000
0000
1000
0000
0000
0001
0000
0000
0010
0000
0000
,
0100
1000
0001
0010
0100
1000
0010
1000
0100
0010
0001
1000
0100
0010
0001
1000
,
0001
0100
0001
0010
0100
1000
0001
0100
0001
1000
0100
0010
0001
1000
0010
1000
,
0001
0100
0001
0010
0100
1000
0001
0100
0001
1000
0100
0010
0001
1000
0010
1000
,
0100
0010
0001
0100
0001
0010
0100
1000
0001
0100
0001
1000
0100
1000
0001
0010
,
0100
1000
0010
0100
0001
0010
0100
1000
0001
0100
0001
1000
0100
0010
0100
1000
,
0001
0100
0001
1000
0010
1000
0100
0010
0001
0100
0001
0010
0100
1000
0010
1000
,
0100
0010
0001
0100
0001
1000
0001
0010
0001
1000
0010
0100
0001
1000
0100
0010
,
0001
1000
0010
0100
0001
0010
0100
1000
0001
0100
0001
1000
0100
0010
0001
1000
,
0010
1000
0001
0100
0001
1000
0010
1000
0100
0010
0001
1000
0100
0010
0001
1000
,
0010
1000
0100
0010
0001
0100
0001
0010
0100
1000
0001
0100
0001
1000
0010
1000
,
0100
0010
0001
1000
0001
0100
0001
0010
0100
1000
0010
0100
0001
0010
0100
1000
,
0001
0100
0001
1000
0100
0010
0001
1000
0010
1000
0100
0010
0001
0100
0001
0010
,
0100
1000
0001
0010
0100
1000
0001
0100
0001
1000
0010
0100
0001
0010
0100
1000
,
0001
1000
0100
0010
0001
1000
0010
1000
0100
0010
0001
0100
0001
0010
0100
1000
,
0001
0100
0001
1000
0010
0100
0001
0010
0100
1000
0001
1000
0100
0010
0001
1000
,
0100
0000
0000
0010
0000
0000
0001
0000
0000
1000
0000
0000
0100
0000
0000
0010
0000
0000
0001
0000
0000
1000
0000
0000
0001
0000
0000
0100
0000
0000
0001
0000
0000
0010
0000
0000
0200
0000
1300
0000
0001
0000
0100
0000
0001
0000
1000
0000
,
0001
1000
0010
1000
0100
0010
0001
1000
0001
0100
0001
0010
0100
1000
0010
1000
0001
0100
0001
1000
0100
1000
0010
0100
,
0001
0010
0100
1000
0001
0100
0001
1000
0010
1000
0100
0010
0001
1000
0001
0100
0001
0010
0400
1300
0001
1000
0100
1000
,
0001
0100
0001
1000
0001
0010
0001
1000
0010
1000
0001
1000
0100
1000
0001
1000
0010
1000
0001
0100
0001
1000
0001
0010
,
0001
1000
0100
1000
0001
0010
0001
1000
0100
1000
0001
0100
0002
1003
0100
1000
0010
0100
0001
0010
0100
1000
0001
0100
,
0001
1000
0010
1000
0100
0010
0001
1000
0001
0100
0001
0010
0100
1000
0001
0100
0001
1000
0100
1000
0001
0010
0100
1000
,
0010
0100
0001
1000
0100
0010
0001
1000
0010
1000
0001
0010
0001
1000
0100
0010
0001
1000
0001
0100
0001
0010
0100
1000
,
0001
0100
0001
1000
0100
0010
0001
1000
0010
1000
0001
0010
0100
1000
0001
0100
0001
1000
0100
0010
0001
1000
0001
0010
,
0001
1000
0010
1000
0100
0010
0001
0100
0001
0010
0100
1000
0001
0100
0001
1000
0010
1000
0100
0010
0001
1000
0001
0100
,
0001
1000
0100
0010
0100
1000
0001
0010
0100
1000
0001
0100
0001
1000
0100
0010
0001
1000
0010
1000
0001
0010
0100
1000
,
0001
0100
0001
1000
0010
1000
0100
0010
0001
0100
0001
1000
0100
1000
0001
0010
0100
1000
0010
0100
0001
1000
0100
0010
,
0001
1000
0010
1000
0001
0010
0100
1000
0001
0100
0001
1000
0100
0010
0001
1000
0010
1000
0001
0010
0100
1000
0001
0100
,
0001
1000
0010
1000
0100
0010
0001
0100
0001
1000
0001
0010
0100
1000
0001
0100
0001
1000
0010
1000
0100
0010
0100
1000
,
0001
0100
0001
1000
0100
0010
0100
1000
0001
0100
0001
1000
0100
0010
0100
1000
0001
0100
0001
1000
0010
1000
0100
0010
,
0001
1000
0100
1000
0001
0010
0100
1000
0001
0100
0001
1000
0100
1000
0001
0100
0001
1000
0100
1000
0001
0010
0100
1000
,
0001
0100
0001
1000
0010
1000
0100
0010
0001
0100
0001
0010
0100
1000
0001
0100
0001
1000
0100
0100
0001
1000
0010
1000
,
0100
1000
0001
0010
0100
1000
0001
0100
0001
1000
0010
0100
0001
1000
0100
1000
0001
0010
0100
1000
0001
0100
0001
1000
,
0010
1000
0100
0010
0001
1000
0010
1000
0100
0010
0001
1000
0001
1000
0100
1000
0001
0010
0100
1000
0001
0100
0001
1000
,
0010
1000
0100
0010
0001
0100
0001
0010
0100
1000
0001
0100
0001
1000
0010
1000
0100
0010
0001
1000
0001
0100
0001
0010
,
0100
1000
0001
0010
0100
1000
0001
0100
0001
1000
0100
0010
0001
1000
0100
0010
0001
1000
0010
1000
0001
0100
0001
0010
,
0100
1000
0001
0010
0100
1000
0001
0100
0001
1000
0010
1000
0100
0010
0001
1000
0001
0100
0001
0010
0100
1000
0010
0100
,
0001
0010
0100
1000
0001
0100
0001
1000
0100
0010
0001
1000
0001
0010
0001
1000
0010
1000
0001
1000
0010
0100
0001
1000
,
0010
0000
0100
0000
0001
0000
0010
0000
0100
0000
1000
0000
0001
0000
0100
0000
0001
0000
1000
0000
0000
MMM1
0000
0000
1000
0000
0100
0000
0010
0000
0001
0000
1000
0000
0001
0000
0100
0000
0001
0000
0010
0000
0100
0000
1000
0000
0010
0000
,
0100
0001
1000
0001
0100
0001
1000
0010
1000
0001
0010
0100
1000
0001
0100
0001
1000
0010
1000
0100
0010
0001
1000
0001
,
0100
0001
0010
0100
1000
0001
0100
0001
1000
0001
0100
0001
2000
3001
0100
0001
1000
0010
0100
0001
0010
0100
1000
0001
,
0100
0001
1000
0010
1000
0100
0010
0001
0100
0001
0010
0100
1000
0001
0100
0001
1000
0010
0100
0001
0010
0100
1000
0001
,
0100
0001
1000
0100
0010
0001
1000
0100
0010
0100
1000
0001
0100
0001
0010
0100
1000
0010
0100
0001
0010
0001
1000
0010
,
1000
0100
0010
0001
0100
0001
0010
0100
1000
0001
0100
0001
0100
0010
1000
0100
0010
0001
1000
0010
1000
0100
0010
0001
,
1000
0010
1000
0100
0010
0001
1000
0010
1000
0100
0010
0001
0100
0001
0010
0100
1000
0001
0100
0001
1000
0001
1000
0100
,
1000
0001
1000
0001
0100
0001
0010
0001
0010
0100
1000
0010
0100
0001
1000
0100
1000
0010
0100
0001
0010
0001
0010
0100
,
1000
0001
0100
0001
1000
0100
0010
0001
1000
0100
0010
0001
1000
0010
1000
0100
0010
0001
0100
0001
1000
0001
0010
0100
,
1000
0001
0010
0100
1000
0001
0100
0001
1000
0100
0010
0001
1000
0100
0010
0001
1000
0010
1000
0001
0100
0001
0010
0100
,
1000
0001
1000
0001
0100
0010
1000
0100
0010
0100
1000
0001
1000
0100
0010
0001
1000
0010
1000
0001
0100
0001
0010
0100
,
1000
0001
0010
0100
1000
0001
0100
0001
1000
0100
0010
0001
1000
0010
1000
0001
0010
0100
1000
0001
0100
0001
1000
0010
,
0100
0001
0010
0100
1000
0001
0100
0001
1000
0100
0010
0001
1000
0100
0010
0001
1000
0010
1000
0001
0010
0100
1000
0001
,
0010
0100
1000
0001
0100
0001
1000
0100
0010
0001
1000
0100
0010
0001
1000
0010
1000
0001
0010
0100
1000
0001
0010
0100
,
1000
0001
0100
0001
1000
0100
0010
0001
1000
0010
1000
0001
0010
0100
1000
0001
0010
0100
1000
0001
0100
0001
1000
0010
,
1000
0100
0010
0001
1000
0001
0100
0001
0010
0100
1000
0001
0100
0001
1000
0100
0010
0001
1000
0010
1000
0001
0010
0100
,
1000
0001
0100
0001
1000
0010
0100
0001
0010
0100
1000
0001
0100
0001
1000
0010
1000
0100
0010
0001
0100
0001
0010
0100
,
1000
0001
0100
0001
1000
0100
0010
0001
1000
0010
1000
0001
1000
0100
0010
0001
1000
0100
0010
0001
1000
0010
1000
0001
,
0100
0001
0010
0100
1000
0001
0100
0001
1000
0100
0010
0001
2000
3010
0100
0001
0010
0100
1000
0001
0100
0001
1000
0100
,
0010
0001
1000
0010
0100
0001
0010
0100
1000
0010
0100
0001
1000
0100
0010
0001
1000
0010
0100
0001
0010
0100
1000
0001
,
0100
0001
1000
0100
0010
0001
1000
0010
1000
0100
0010
0001
0100
0001
0010
0100
1000
0001
0100
0001
1000
0010
1000
0001
,
0100
0010
1000
0100
0010
0001
1000
0010
0100
0001
0010
0100
1000
0001
0100
0001
1000
0100
0010
0001
1000
0010
0100
0001
,
0010
0100
1000
0001
0100
0001
1000
0100
0010
0001
1000
0010
1000
0100
0010
0001
0100
0001
0010
0100
1000
0001
0100
0010
,
1000
0100
0010
0001
1000
0010
0100
0001
0010
0100
0010
0001
1000
0100
1000
0001
0010
0100
1000
0010
0100
0001
1000
0100
,
1000
0010
0100
0001
0010
0100
1000
0001
0100
0001
1000
0100
0010
0001
1000
0010
1000
0100
0010
0001
0100
0001
0010
0100
,
1000
0001
0100
0001
1000
0100
0010
0001
1000
0010
0100
0001
0010
0100
1000
0010
0100
0001
0010
0100
1000
0010
0100
0001
,
1000
0000
0100
0000
0010
0000
0001
0000
1000
0000
0010
0000
1000
0000
0100
0000
0010
0000
0100
0000
1000
0000
0001
0000
0100
0000
0000
0010
0000
0000
1000
0000
0000
0100
0000
0000
0010
0000
0000
0001
0000
0000
1000
0000
0000
0001
0000
0000
,
0100
0001
0010
0100
1000
0001
0100
0001
1000
0100
1000
0001
0010
0100
1000
0001
,
0100
0001
1000
0100
0010
0100
1000
0001
0100
0001
1000
0100
1000
0001
0010
0100
,
1000
0001
0100
0001
1000
0100
0010
0001
1000
0010
1000
0001
0010
0100
1000
0001
,
0100
0001
1000
0100
0010
0001
1000
0001
0010
0001
1000
0010
1000
0001
0100
0001
,
0010
0100
1000
0001
0100
0001
1000
0100
0010
0001
1000
0001
0010
0100
1000
0001
,
0100
0001
1000
0010
1000
0100
0010
0001
1000
0001
0100
0001
0010
0100
1000
0001
,
0100
0010
1000
0100
0010
0001
1000
0010
1000
0100
0010
0001
1000
0001
0100
0001
,
0010
0100
1000
0001
0100
0001
1000
0100
0010
0001
1000
0001
0010
0001
1000
0010
,
1000
0001
0100
0001
1000
0010
0100
0001
0010
0100
1000
0001
0100
0001
1000
0100
,
0010
0001
1000
0001
0010
0001
1000
0010
1000
0001
0100
0010
1000
0100
0010
0001
,
1000
0001
0010
0001
1000
0010
1000
0001
0100
0010
1000
0100
0010
0001
1000
0001
,
0010
0001
1000
0010
1000
0100
0010
0001
0100
0001
0010
0100
1000
0001
0100
0001
,
1000
0010
1000
0100
0010
0001
1000
0001
0100
0001
0010
0100
1000
0001
0100
0001
,
1000
0010
0100
0001
0010
0100
1000
0001
0100
0001
1000
0100
0010
0001
1000
0010
,
1000
0001
0100
0010
1000
0100
0010
0001
1000
0001
0100
0001
0010
0100
1000
0001
,
0100
0000
0000
0001
0000
0000
1000
0000
0000
0100
0000
0000
0010
0000
0000
0001
0000
0000
1000
0000
0000
0001
0000
0000
0100
0000
0010
0000
1000
0000
0001
0000
0100
0000
0010
0000
1000
0000
0001
0000
0100
0000
0001
0000
0010
0000
0100
0000
,
1000
0000
0001
0000
0010
0000
0100
0000
1000
0000
0001
0000
0100
0000
0001
0000
1000
0000
0100
0000
0010
0000
0001
0000
1000
0000
0000
0001
0000
0000
1000
0000
0000
0010
0000
0000
0100
0000
0000
0001
0000
0000
0010
0000
0000
0100
0000
0000
,
1000
0000
0000
0001
0000
0000
0100
0000
0000
0001
0000
0000
1000
0000
0000
0100
0000
0000
0010
0000
0000
0001
0000
0000
1000
0000
0010
0000
1000
0000
0100
0000
0010
0000
0001
0000
0100
0000
0001
0000
0010
0000
0100
0000
1000
0000
0001
0000
,
0100
0000
0001
0000
1000
0000
0001
0000
0010
0000
0100
0000
1000
0000
0001
0000
0100
0000
0001
0000
1000
0000
0100
0000
0010
0000
0000
0001
0000
0000
1000
0000
0000
0010
0000
0000
0100
0000
0000
0001
0000
0000
0010
0000
0000
0100
0000
0000
,
1000
0000
0000
0001
0000
0000
0100
0000
0000
0001
0000
0000
1000
0000
0000
0100
0000
0000
0010
0000
0000
0001
0000
0000
1000
0000
0010
0000
1000
0000
0100
0000
0010
0000
0001
0000
0100
0000
0001
0000
1000
0000
0001
0000
0010
0000
0001
0000
,
1000
0000
0100
0000
0010
0000
0001
0000
1000
0000
0001
0000
0100
0000
0001
0000
0010
0000
0100
0000
1000
0000
0001
0000
1000
0000
0000
0001
0000
0000
1000
0000
0000
0100
0000
0000
1000
0000
0000
0001
0000
0000
0010
0000
0000
0100
0000
0000
,
0010
0000
0000
0001
0000
0000
1000
0000
0000
0010
0000
0000
1000
0000
0000
0100
0000
0000
0010
0000
0000
0001
0000
0000
1000
0000
0100
0000
1000
0000
0010
0000
0100
0000
0001
0000
0010
0000
0100
0000
1000
0000
0001
0000
0100
0000
0001
0000
,
1000
0000
0010
0000
1000
0000
0100
0000
0010
0000
0001
0000
0100
0000
0001
0000
0010
0000
0100
0000
1000
0000
0001
0000
1000
0000
0000
0001
0000
0000
0010
0000
0000
0100
0000
0000
1000
0000
0000
0001
0000
0000
0100
0000
0000
0001
0000
0000
,
1000
0000
0000
0100
0000
0000
0010
0000
0000
0001
0000
0000
1000
0000
0000
0010
0000
0000
1000
0000
0000
0100
0000
0000
0010
0000
0001
0000
1000
0000
0001
0000
0100
0000
0001
0000
0010
0000
0100
0000
1000
0000
0001
0000
0010
0000
0100
0000
,
1000
0000
0001
0000
0100
0000
0001
0000
1000
0000
0100
0000
0010
0000
0001
0000
1000
0000
0100
0000
0010
0000
0001
0000
1000
0000
0000
0001
0000
0000
1000
0000
0000
0010
0000
0000
1000
0000
0000
0100
0000
0000
0010
0000
0000
0001
0000
0000
,
0100
0000
0000
0001
0000
0000
0010
0000
0000
0100
0000
0000
1000
0000
0000
0001
0000
0000
0100
0000
0000
0001
0000
0000
1000
0000
0100
0000
1000
0000
0010
0000
0100
0000
0001
0000
0010
0000
0100
0000
1000
0000
0001
0000
0100
0000
0001
0000
,
1000
0000
0100
0000
0010
0000
0001
0000
1000
0000
0001
0000
0010
0000
0001
0000
1000
0000
0100
0000
0010
0000
0001
0000
1000
0000
0000
0001
0000
0000
1000
0000
0000
0100
0000
0000
0010
0000
0000
0001
0000
0000
1000
0000
0000
0010
0000
0000
,
1000
0000
0000
0100
0000
0000
0010
0000
0000
0001
0000
0000
0100
0000
0000
0001
0000
0000
0010
0000
0000
0100
0000
0000
2000
0000
3001
0000
0100
0000
0001
0000
1000
0000
0010
0000
1000
0000
0100
0000
0010
0000
0001
0000
0100
0000
0001
0000
,
1000
0000
0010
0000
0100
0000
0001
0000
0010
0000
0100
0000
1000
0000
0001
0000
0100
0000
0001
0000
1000
0000
0100
0000
0020
0000
0000
0031
0000
0000
0100
0000
0000
0010
0000
0000
1000
0000
0000
0100
0000
0000
0010
0000
0000
0100
0000
0000
,
1000
0000
0000
0001
0000
0000
0100
0000
0000
0001
0000
0000
0010
0000
0000
0100
0000
0000
1000
0000
0000
0001
0000
0000
0200
0000
0310
0000
1000
0000
0100
0000
0010
0000
0001
0000
1000
0000
0001
0000
0100
0000
0001
0000
0010
0000
0100
0000
,
2000
0000
0000
3010
0000
0000
0100
0000
0000
0001
0000
0000
1000
0000
0000
0100
0000
0000
0010
0000
0000
0100
0000
0000
1000
0000
0001
0000
0100
0000
0001
0000
1000
0000
0010
0000
0100
0000
0001
0000
0010
0000
0100
0000
1000
0000
0001
0000
,
1000
0010
0100
0001
1000
0001
0010
0001
1000
0001
0100
0001
2000
3100
0010
0001
1000
0001
0100
0001
0010
0100
1000
0001
,
0010
0100
1000
0001
0100
0001
1000
0010
0100
0001
0010
0100
1000
0001
0010
0100
1000
0001
0100
0001
1000
0100
0010
0001
,
1000
0000
0000
0000
0000
0000
0000
0000
0000
0000
0000
0000
0000
0000
0000
0000
0000
0000
0000
0000
0000
0000
0000
0000
0001
0000
0000
0000
0000
0000
0000
0000
0000
0000
0000
0000
0000
0000
0000
0000
0000
0000
0000
0000
0000
0000
0000
0000
0100
0000
0000
0000
0000
0000
0000
0000
0010
0000
0000
0000
0000
0000
0000
0000
0001
0000
0000
0000
0000
0000
0000
0000
1000
0000
0000
0000
0000
0000
0010
0000
0000
0000
0000
0000
0100
0000
0000
0000
0000
0000
0010
0000
0000
0000
0000
0000
0100
0000
0000
0000
0000
0000
0000
0000
0000
0000
0000
0000
0001
0000
0000
0000
0000
0000
0000
0000
0000
0000
0000
0000
1000
0000
0000
0000
0000
0000
0000
0000
0000
0000
0000
0000
0010
0000
0000
0000
0000
0000
0000
0000
0000
0000
0000
0000
0100
0000
0000
0000
0000
0000
0000
0000
0000
0000
0000
0000
0001
0000
0000
0000
0000
0000
0000
0000
0000
0000
0000
0000
0010
0000
0000
0000
0000
0000
0000
0000
0000
0000
0000
0000
0100
0000
0000
0000
0000
0000
0000
0000
0000
0000
0000
0000
,
1000
0001
0100
0001
1000
0100
0010
0001
1000
0010
1000
0100
0010
0001
0100
0001
,
1000
0001
0010
0100
1000
0001
0010
0100
1000
0001
0100
0001
1000
0100
0010
0001
,
1000
0010
1000
0001
0010
0100
1000
0001
0100
0001
1000
0100
0010
0001
1000
0001
,
0010
0001
1000
0010
1000
0100
0010
0001
0100
0001
0010
0100
1000
0001
0100
0001
,
1000
0100
0010
0001
1000
0001
0100
0001
0010
0100
1000
0001
0010
0100
1000
0010
,
1000
0100
0010
0001
0100
0001
1000
0001
0010
0001
1000
0100
0010
0001
1000
0001
,
0010
0001
1000
0010
1000
0100
0010
0001
0100
0001
0010
0100
1000
0001
0100
0001
,
1000
0010
1000
0100
0010
0001
1000
0001
0100
0010
1000
0100
0010
0001
1000
0001
,
0100
0001
0010
0100
1000
0010
1000
0100
0010
0001
1000
0001
0100
0001
0010
0100
,
1000
0001
0100
0001
1000
0100
0010
0001
1000
0010
1000
0001
0100
0010
1000
0100
,
0010
0001
1000
0100
0010
0001
1000
0001
0010
0001
1000
0010
1000
0001
0100
0010
,
1000
0100
0010
0001
1000
0001
0100
0001
0010
0100
1000
0001
0100
0001
1000
0100
,
0010
0001
1000
0010
1000
0001
0010
0100
1000
0001
0100
0001
1000
0010
0100
0001
,
0010
0100
1000
0001
0100
0001
1000
0100
0010
0001
1000
0010
1000
0001
0010
0100
,
1000
0001
0100
0001
1000
0100
0010
0001
1000
0001
0010
0100
1000
0001
0100
0001
,
1000
0100
0010
0001
1000
0010
1000
0001
0010
0100
1000
0001
0100
0001
1000
0100
,
0010
0001
1000
0001
0010
0100
1000
0010
0100
0001
1000
0100
1000
0010
0100
0001
,
0010
0100
1000
0001
0100
0001
1000
0100
0010
0001
1000
0010
1000
0100
0010
0001
,
0100
0001
0010
0100
1000
0001
0100
0001
1000
0010
0100
0001
0010
0100
1000
0001
,
0100
0001
1000
0100
0010
0001
1000
0001
0010
0001
1000
0010
1000
0001
0100
0010
,
1000
0100
0010
0001
1000
0001
0100
0001
0010
0100
1000
0001
0100
0001
1000
0100
,
0010
0001
1000
0001
0010
0001
1000
0010
1000
0001
0100
0010
1000
0100
0010
0001
,
1000
0001
0100
0001
0010
0100
1000
0001
0100
0001
1000
0100
0010
0001
1000
0010
,
0100
0000
0000
0001
0000
0000
1000
0000
0000
0100
0000
0000
1000
0000
0000
0001
0000
0000
0010
0000
0000
0100
0000
0000
1000
0000
0000
0001
0000
0000
0100
0000
0000
0001
0000
0000
1000
0000
0100
0000
1000
0000
0010
0000
0100
0000
0001
0000
,
0010
0100
1000
0001
0100
0001
1000
0100
0010
0001
1000
0001
0010
0001
1000
0010
1000
0100
0010
0001
0100
0001
1000
0001
,
0010
0100
1000
0001
0100
0001
1000
0100
0010
0001
1000
0010
1000
0100
0010
0001
1000
0001
0100
0001
0010
0100
1000
0001
,
0010
0100
1000
0001
0100
0001
1000
0100
0010
0001
1000
0100
0010
0001
1000
0010
1000
0100
0010
0001
1000
0001
0100
0001
,
0010
0100
1000
0001
0100
0001
1000
0100
0010
0001
1000
0001
0020
0130
1000
0001
0100
0001
1000
0010
1000
0100
0010
0001
,
1000
0001
0100
0001
0010
0100
1000
0001
0100
0001
1000
0100
2000
3001
0100
0001
1000
0010
0100
0001
0010
0100
1000
0001
,
0100
0001
1000
0100
0010
0001
1000
0001
0010
0001
1000
0100
0020
0130
1000
0001
0100
0001
1000
0010
1000
0100
0010
0001
,
2000
3001
0100
0010
1000
0001
0100
0010
1000
0001
0100
0010
2000
3100
0010
0001
0100
0001
0020
0130
1000
0001
0100
0001
,
2000
3200
0320
0230
2300
3020
0230
0302
2003
3200
0320
0032
1003
0100
1000
0010
0100
0001
0010
0100
1000
0001
0100
0001
,
1000
0100
0010
0001
1000
0001
0010
0001
1000
0010
1000
0100
0010
0001
0100
0001
0010
0100
1000
0001
0100
0001
1000
0100
,
0010
0001
1000
0010
1000
0100
0010
0001
0100
0001
0010
0100
1000
0001
0100
0001
1000
0010
1000
0100
0010
0001
1000
0001
,
0100
0001
0010
0100
1000
0001
0100
0001
1000
0100
0010
0001
1000
0100
0010
0001
1000
0010
1000
0100
0010
0001
1000
0001
,
0100
0010
1000
0100
1000
0001
0010
0100
1000
0001
0100
0001
1000
0010
1000
0100
0010
0001
1000
0001
0100
0001
1000
0010
,
1000
0100
0010
0001
1000
0001
0100
0001
0010
0100
1000
0001
0100
0001
1000
0010
1000
0100
0010
0001
1000
0001
0100
0001
,
0010
0100
1000
0010
0100
0001
0010
0100
1000
0100
0010
0001
1000
0001
0100
0001
0010
0100
1000
0010
1000
0100
0010
0001
,
1000
0001
0100
0001
0010
0100
1000
0010
1000
0100
0010
0001
0100
0001
0010
0100
1000
0010
1000
0100
0010
0001
0100
0001
,
0010
0100
1000
0001
0100
0001
1000
0010
0100
0001
0010
0100
1000
0001
0100
0001
1000
0100
0010
0001
1000
0001
0010
0001
,
1000
0010
1000
0001
1000
0100
0010
0001
1000
0001
0100
0001
0010
0001
1000
0001
0100
0001
1000
0001
0100
0001
1000
0001
,
0010
0100
1000
0001
0100
0001
1000
0100
0010
0001
1000
0010
1000
0100
0010
0001
1000
0001
0100
0001
0010
0100
1000
0001
,
0100
0001
1000
0100
0010
0001
1000
0010
1000
0100
0010
0001
1000
0001
0100
0001
0010
0100
1000
0001
0100
0001
1000
0100
,
0010
0001
1000
0010
1000
0100
0010
0001
0100
0001
0010
0100
1000
0001
0100
0001
1000
0100
0010
0001
1000
0001
0010
0001
,
1000
0100
0010
0100
1000
0001
0100
0001
1000
0010
0100
0001
0010
0100
1000
0001
0100
0001
1000
0100
0010
0001
1000
0010
,
1000
0100
0010
0001
0100
0001
0010
0100
1000
0001
0100
0001
1000
0100
0010
0001
1000
0010
1000
0100
0010
0001
0100
0001
,
0010
0100
1000
0001
0100
0001
1000
0100
0010
0001
1000
0001
0010
0001
1000
0010
1000
0100
0010
0001
1000
0001
0100
0001
,
1000
0100
1000
0001
0010
0100
1000
0010
0100
0001
1000
0100
0020
0031
1000
0001
0100
0001
0010
0100
1000
0001
0010
0001
,
1000
0010
1000
0100
0010
0001
1000
0001
0100
0001
0010
0100
1000
0001
0100
0001
1000
0010
1000
0100
0010
0001
1000
0001
,
0100
0001
0010
0100
1000
0001
0100
0001
1000
0010
0100
0001
0010
0100
1000
0001
0100
0001
1000
0100
0010
0001
1000
0010
,
1000
0100
0010
0001
1000
0001
0100
0001
0010
0100
1000
0001
0100
0001
1000
0010
0100
0001
0010
0100
1000
0001
0100
0001
,
1000
0100
0010
0001
1000
0010
1000
0100
0010
0001
1000
0001
0100
0001
0010
0100
1000
0001
0010
0100
1000
0001
0100
0001
,
1000
0100
0010
0001
1000
0100
0010
0001
1000
0010
1000
0001
0010
0100
1000
0001
0010
0100
1000
0001
0100
0001
1000
0100
,
0010
0001
1000
0010
1000
0001
0010
0100
1000
0001
0100
0001
1000
0100
0010
0001
1000
0010
1000
0100
0010
0001
1000
0001
,
0100
0001
0010
0100
1000
0001
0100
0001
1000
0010
0100
0001
0010
0100
1000
0001
0100
0001
1000
0100
0010
0001
1000
0010
,
1000
0100
0010
0001
0100
0001
0010
0100
1000
0001
0100
0001
1000
0010
0100
0001
0010
0100
1000
0001
0100
0001
1000
0100
,
0010
0001
1000
0010
1000
0100
0010
0001
0100
0001
0010
0100
1000
0001
0010
0100
1000
0001
0100
0001
1000
0010
0100
0001
,
0010
0100
1000
0001
0100
0001
1000
0100
0010
0001
1000
0100
0010
0001
1000
0010
1000
0100
0010
0001
1000
0001
0100
0001
,
0010
0100
1000
0001
0100
0001
1000
0100
0010
0001
1000
0010
1000
0100
0010
0001
0100
0001
0010
0100
1000
0001
0100
0001
,
1000
0100
0010
0001
1000
0100
0010
0001
1000
0010
1000
0100
0020
0031
1000
0001
0100
0001
0010
0100
1000
0001
0010
0100
,
1000
0001
0100
0001
1000
0100
0010
0001
1000
0010
0100
0001
2000
3100
0010
0001
1000
0010
1000
0100
0010
0001
1000
0001
,
0100
0001
0010
0100
1000
0001
0100
0001
1000
0100
0010
0001
2000
3010
0100
0001
0010
0100
1000
0001
0100
0001
1000
0100
,
0020
0130
1000
0001
0100
0001
1000
0100
0010
0001
1000
0010
2000
3001
0100
0001
1000
0100
0020
0031
1000
0001
0100
0001
,
0010
0000
0100
0000
1000
0000
0001
0000
0010
0000
0100
0000
1000
0000
0001
0000
0100
0000
0001
0000
0000
1000
0000
0000
0100
0000
0000
0010
0000
0000
0001
0000
0000
1000
0000
0000
0100
0000
0000
0010
0000
0000
0001
0000
0000
1000
0000
0000
,
0100
0010
0001
1000
0100
0010
0001
1000
0100
0010
0001
1000
0100
0010
0001
1000
,
0100
0010
0001
1000
0100
0010
0001
1000
0010
0100
0001
1000
0010
0100
0001
1000
,
0010
0100
0001
1000
0010
0100
0001
1000
0010
0100
0001
1000
0010
0100
0001
1000
,
0010
0100
0001
1000
0010
0100
0001
1000
0100
0010
0100
1000
0100
0010
0100
1000
,
0100
0010
0100
1000
0100
0010
0100
1000
0001
0010
0100
0010
0001
0010
0100
0010
,
0001
0010
0100
0010
0001
0010
0100
0010
0001
0010
0100
1000
0001
0010
0100
1000
,
0001
0010
0100
1000
0001
0010
0100
1000
0001
0010
0100
1000
0001
0010
0100
1000
,
0001
0010
0100
1000
0001
0010
0100
1000
0001
0100
0010
1000
0001
0100
0010
1000
,
0001
0100
0010
1000
0001
0100
0010
1000
0001
0100
0010
1000
0001
0100
0010
1000
,
0001
0100
0010
1000
0001
0100
0010
1000
0001
0100
0001
0010
0001
1000
0001
0100
,
0001
0010
0001
1000
0001
0100
0001
0010
0001
1000
0100
1000
0001
1000
0010
1000
,
0001
1000
0100
1000
0010
1000
0001
1000
0100
0010
0001
1000
0100
0010
0001
1000
,
0100
0010
0001
1000
0100
0010
0001
1000
0100
0010
0001
1000
0100
0010
0001
1000
,
0100
0010
0001
1000
0100
0010
0001
1000
0200
0000
0300
0000
MMMM
0000
0000
0000
;
