#TITLE:St. Scarhand;
#SUBTITLE:;
#ARTIST:AKIMO;
#TITLETRANSLIT:;
#SUBTITLETRANSLIT:;
#ARTISTTRANSLIT:;
#CREDIT:;
#BANNER:can-tama119123.png;
#BACKGROUND:can-tama119.jpg;
#LYRICSPATH:;
#CDTITLE:cdtitle.png;
#MUSIC:st._scarhand_0.mp3;
#OFFSET:-0.050;
#SAMPLESTART:45.753;
#SAMPLELENGTH:10.080;
#SELECTABLE:YES;
#BPMS:0.000=179.920,292.000=89.960,308.000=179.920,372.000=89.960,400.000=179.920;
#STOPS:;
#BGCHANGES:;
// cache tags:
#FIRSTBEAT:4.000;
#LASTBEAT:502.000;
#SONGFILENAME:Songs/hard shit/(Zaghurim) St. Scarhand/scarhand.sm;
#HASMUSIC:1;
#HASBANNER:1;
#MUSICLENGTH:185.242;
// end cache tags

//---------------dance-single - ----------------
#NOTES:
     dance-single:
     :
     Challenge:
     10:
     1.000,1.000,1.000,0.146,1.000,1855.000,659.000,27.000,0.000,115.000:
0000
0000
0000
0000
,
1011
0000
0001
0100
0011
1000
0001
1000
0110
1000
0001
0010
1101
0010
0001
0100
,
1011
0100
0010
0100
0011
1000
0001
1000
0011
0100
0010
1000
0111
1000
0100
0010
,
1101
0010
0100
1000
0101
0010
0001
1000
0101
1000
0001
0100
1011
0100
0010
1000
,
0111
1000
0010
0100
1010
0001
1000
0001
0110
0001
1000
0100
1011
0100
1000
0010
,
1101
0010
0100
0010
1100
0001
1000
0001
1100
0010
0100
0001
1110
0001
0100
0001
,
1110
0001
0100
0001
1010
0100
1000
0001
1100
0001
1000
0010
1101
0010
0100
0010
,
1101
0010
0100
0010
0101
1000
0100
1000
0011
0100
0010
1000
0111
1000
0010
1000
,
0111
1000
0010
1000
0101
0010
0001
1000
0011
1000
0001
0100
1011
0101
0010
1000
,
0111
1000
0001
0100
0011
1000
0001
1000
0110
1000
0001
0010
1101
0010
0001
0100
,
1011
0100
0010
0100
0011
1000
0001
1000
0011
0100
0010
1000
0111
1000
0100
0010
,
1101
0010
0100
1000
0101
0010
0001
1000
0101
1000
0001
0100
1011
0100
0010
1000
,
0111
1000
0010
0100
0011
0100
0010
1000
0110
0001
1000
0100
1011
0100
1000
0010
,
1101
0010
0100
0010
1100
0001
1000
0001
1100
0010
0100
0001
1110
0001
0100
0010
,
1101
0010
0100
0010
0101
1000
0001
1000
0011
0100
0010
1000
0111
1000
0010
0100
,
1010
0001
0010
0100
1000
0010
0100
0010
1000
0001
0100
0010
1000
0001
1000
0010
,
0100
1000
0100
0010
0001
1000
0100
0010
0001
0010
0100
1000
0011
0100
0011
0101
,
1010
0001
1110
0001
1010
0001
1100
0010
1100
0010
1100
0011
0100
0010
1101
0010
,
0100
0001
1110
0001
0110
0001
1100
0010
0101
0010
1001
0100
0011
0100
1011
0100
,
0010
0100
1011
0100
1010
0100
0011
1000
0011
0100
0011
1100
0010
0100
1011
0100
,
1000
0010
1101
0010
1100
0010
1001
0100
0011
0100
1010
0001
1100
0010
1101
0010
,
0100
1000
0111
1000
0110
1000
0011
0100
1010
0100
1001
0110
1000
0100
1011
0100
,
1000
0010
1101
0010
0101
1000
0101
0010
0101
0010
1100
0010
0101
0010
1101
0010
,
0100
0010
1101
0010
0101
1000
0011
0100
0011
0100
1010
0101
0010
1000
0111
1000
,
0100
0010
1101
0010
0101
0010
1100
0010
0101
1000
0011
0001
0101
0001
1001
0001
,
0101
1000
0111
1000
0101
1000
0011
0100
0011
0100
0011
1100
0010
0100
1011
0100
,
0010
1000
0111
1000
0110
1000
0011
0100
1010
0100
1001
0010
1100
0010
1101
0010
,
0100
0010
1101
0010
0101
0010
1100
0001
1100
0010
1100
0011
0100
0010
1101
0010
,
0001
0100
1011
0100
0011
0100
1001
0010
1100
0010
0101
1000
0011
0100
1011
0100
,
0010
0001
1110
0001
0110
0001
1100
0010
0101
0010
1001
0110
0001
0010
1101
0010
,
0001
0100
1011
0100
1010
0001
1010
0100
1010
0100
0011
0100
1010
0100
1011
0100
,
0010
0100
1011
0100
1010
0001
1100
0010
1100
0010
0101
1010
0100
0001
1110
0001
,
0010
0100
1001
0001
0101
0001
0011
0100
1001
0001
0101
0001
0011
0100
1001
0001
,
1010
0000
1010
0100
0011
0100
1001
0100
0011
0100
1001
0100
0011
1000
0101
0010
,
1001
0100
0011
0100
1010
0001
1010
0100
1001
0100
1010
0001
1100
0010
0101
1000
,
0011
0000
0011
0100
0011
1000
0011
0100
0011
0100
0011
1000
0011
0100
0011
1000
,
0101
0010
1001
0100
1001
0010
1100
0001
1100
0010
1100
0001
1010
0100
1010
0001
,
1100
0000
1002
0100
0010
0100
0010
1003
0012
0100
0010
1000
0010
0100
1013
0100
,
0011
1000
0110
0001
1010
0100
1010
0001
1100
0010
1001
0100
1010
0001
1010
0100
,
0011
1000
0011
0100
0011
1000
0011
0100
0011
1000
0011
0100
0011
1000
0011
0100
,
1001
0010
1100
0001
0110
1000
0101
0010
1100
0001
0110
1000
0101
0010
1100
0010
,
1100
0000
0001
0000
0100
0010
1001
0000
1100
0000
0001
1100
0000
1000
0011
0000
,
1001
0000
0010
0000
1000
0100
0011
0000
1001
0000
0010
1100
0000
1000
0011
0000
,
1001
0000
0010
0000
1010
0100
0010
0000
1100
0000
0001
0100
1000
0100
0010
0000
,
1010
0000
0001
0000
1000
0100
0010
0000
1000
0000
0010
0000
0001
1000
0010
0100
,
1010
0000
0001
0000
0100
0010
1001
0000
1100
0000
0001
1100
0000
1000
0011
0000
,
1001
0000
0010
0000
1000
0100
0011
0000
1001
0000
0010
1100
0000
1000
0011
0000
,
1001
0000
0010
0000
1010
0100
0011
0000
1001
0000
0001
1100
0000
0100
0011
0000
,
1001
0010
0100
1000
0001
0100
0010
1000
0001
0100
0010
1000
0100
1000
0001
0010
0001
0100
0010
1000
0010
1101
0000
0000
,
0001
0010
1100
0010
1001
0010
0101
0010
1001
0010
1100
0010
1001
0010
0101
0010
,
1100
0010
0101
0010
1100
0010
1100
0001
1100
0010
1001
0010
1100
0001
1100
0010
,
1001
0000
0000
0100
0000
0000
0011
0000
1000
0000
0100
0000
1010
0000
0001
0000
0010
0000
0101
0000
1000
0000
0001
0000
1100
0000
0010
0000
0100
0000
1001
0000
0100
0000
0010
0000
1001
0000
0010
0000
0100
0000
1001
0000
0100
0000
0010
0000
,
1001
0010
1010
0100
0110
0001
0101
1000
1001
0010
1010
0100
0110
0001
0101
1000
,
0011
0100
1001
0010
1100
0010
1001
0010
1100
0010
0101
1000
0110
1000
0101
0010
,
1001
0100
1010
0100
1001
0010
1001
0100
0011
0100
0011
1000
0011
0100
1010
0100
,
0011
1000
0101
1000
0110
1000
0101
1000
0011
1000
0011
0100
1010
0100
0011
1000
,
0101
1000
0011
0100
1001
0100
0011
1000
0110
1000
0011
0100
0011
0101
1010
1100
,
1010
0100
0012
1003
0012
0100
0010
1000
0010
0100
0010
1000
0123
1030
0201
0310
,
1001
0010
0101
0010
1001
0010
1100
0001
1010
0100
1001
0100
0011
0100
1001
0100
,
0011
0100
1001
0100
1010
0100
1001
0100
0011
1000
0110
1000
0101
1000
0110
1000
,
0101
0010
1100
0010
0101
0010
1100
0010
1100
0010
0101
0010
1100
0010
0101
1000
,
0011
0100
0011
1000
0011
0100
0011
1000
0101
1000
0011
1000
0101
1000
0011
1000
,
0101
0010
0101
1000
0011
0100
0011
1000
0101
0010
0101
1000
0011
1000
0101
0010
,
1001
0001
0101
0001
1010
0010
0011
0010
1100
0100
0101
0100
1010
1000
1100
1000
,
0102
0000
0010
0010
0000
0100
1000
0000
0010
0000
0100
0000
0010
0000
0010
0010
,
1013
0100
1000
0100
0001
0100
1000
0100
0010
0100
1000
0100
0001
0100
1000
0100
,
0011
0100
1000
0100
0001
0100
1000
0100
0010
0100
1000
0100
0001
0100
1000
0100
,
1001
0010
1000
0010
0001
0010
0100
0010
0001
0010
1000
0010
0001
0010
0100
0010
,
1001
0100
0010
0100
0010
1000
0010
0100
1001
0010
0100
0001
0100
0010
0100
0001
,
1010
0100
1000
0100
0001
0100
1000
0100
0010
0100
1000
0100
0001
0100
1000
0100
,
0011
0100
1000
0100
0001
0100
1000
0100
0010
0100
1000
0100
0001
0100
1000
0100
,
0011
1000
0100
1000
0001
1000
0100
1000
0010
1000
0100
1000
0001
1000
0100
1000
,
0012
0100
0010
0100
1023
0100
1000
0001
1230
0001
0010
0001
2310
0001
0010
0010
,
3102
0000
1013
0000
,
1001
0000
1100
0110
,
0011
0000
0101
0000
,
0110
0000
0000
0000
1100
0000
0110
0010
,
1001
0100
0011
0100
0011
0100
1010
0001
0110
0001
1110
0001
0100
0010
1100
0001
,
0100
0010
1101
0010
0101
0010
1100
0010
0101
0010
1101
0010
1000
0010
1101
0010
,
1000
0010
1101
0010
0101
0010
1100
0001
1010
0100
1011
0100
0001
0100
1010
0001
,
0100
0001
1110
0001
0110
0001
1100
0001
1010
0100
1011
0100
0010
0100
1011
0100
,
1001
0000
0100
0000
0010
0000
1001
0000
0100
0000
0010
0000
1001
0000
0000
0100
0000
0000
0011
0000
0000
1000
0000
0000
0101
0000
0000
0010
0000
0000
1101
0000
0000
0010
0000
0000
0100
0000
0000
0010
0000
0000
1001
0000
0000
0100
0000
0000
,
0010
0001
1110
0001
0110
0001
1100
0010
0101
0010
1101
0010
0100
0010
1101
0010
,
1000
0100
1011
0100
1010
0100
1010
0001
0110
1000
0101
1000
0010
0100
1001
0010
,
1000
0100
0010
0001
0100
0010
1100
0001
0010
0001
0100
0010
1100
0001
0010
0001
1000
0010
1000
0001
0100
0001
0100
0010
,
1001
0100
1010
0001
1100
0010
1100
0001
1010
0001
1100
0010
1100
0001
1010
0100
,
1001
0010
1100
0001
1010
0001
1100
0010
1001
0010
1100
0001
0110
0001
1010
0100
,
1001
0100
1010
0001
1100
0010
1100
0001
1010
0001
1100
0010
1100
0001
1010
0100
,
1010
0001
1100
0010
1001
0010
1001
0010
0101
0010
1100
0001
0110
0001
1010
0100
,
1001
0100
1010
0001
1100
0010
1100
0001
1010
0001
1100
0010
1100
0001
1010
0100
,
1001
0010
1100
0001
1010
0001
1100
0010
1001
0010
1100
0001
1010
0001
1010
0100
,
1001
0100
1010
0001
1100
0010
1100
0001
1010
0001
1100
0010
1100
0001
0010
0100
,
1001
0100
0010
1001
0100
0010
1100
0010
1001
0010
0101
0010
1001
0101
1001
0000
,
0101
1000
0100
1001
0110
1000
0110
1000
,
0011
1000
0010
0100
1010
0001
1100
0010
,
1001
0100
0010
0101
1010
0001
1100
0010
,
1010
0000
0001
0000
1010
0001
0010
0100
0011
0100
1000
0001
1010
0100
0010
0100
1010
0001
0010
0100
1010
0001
0010
0100
0001
0100
0010
0100
1000
0001
0010
0100
,
1010
0000
0001
0000
0110
0001
0010
0100
0011
0100
1000
0001
1010
0100
0010
0100
1010
0001
0010
0100
1000
0010
0001
0010
0100
0001
0100
1000
0001
0010
0100
1000
,
0011
0000
0000
0001
0001
0000
0001
0001
0000
0001
0001
0000
0001
0001
0000
0001
,
0110
0000
0000
0000
0000
0000
0001
0000
0001
0000
0000
0000
0001
0000
0001
0000
0000
0000
0001
0000
0001
0000
0000
0000
2100
0000
0100
0100
0010
0000
0010
0000
,
3111
0000
1101
0000
0010
0000
1000
1000
0010
0000
1000
0001
0000
1000
0010
0000
,
1000
1000
0100
0000
0010
0000
1000
1000
0001
0000
1000
0010
0000
1000
0100
0000
,
0111
0000
1101
0000
0010
0000
1000
1000
0010
0000
1000
0001
0000
1000
0010
0000
,
1000
1000
0100
0000
0010
0000
1000
1000
0001
0000
1000
0010
0000
1000
0100
0000
,
1101
0000
1101
0000
0010
0000
1000
1000
0010
0000
1000
0001
0000
1000
0010
0000
,
1000
1000
0100
0000
0010
0000
1000
1000
0001
0000
1000
0010
0000
1000
0100
0000
,
0111
0000
1101
0000
0010
0000
1000
1000
0010
0000
1000
0001
0000
1000
0010
0000
,
1000
0000
0000
1000
0000
0000
0100
0000
0000
0000
0000
0000
0010
0000
0000
0000
0000
0000
1000
0000
0000
1000
0000
0000
0001
0000
0100
0000
0001
0000
0100
0000
0010
0000
1000
0000
0001
0000
0000
0000
0000
0000
0001
0000
0000
0001
0000
0000
,
1010
0001
1110
0001
1010
0001
1100
0010
1100
0010
1100
0011
0100
0010
1101
0010
,
0100
0001
1110
0001
0110
0001
1100
0010
0101
0010
1001
0100
0011
0100
1011
0100
,
0010
0100
1011
0100
1010
0100
0011
1000
0011
0100
0011
1100
0010
0100
1011
0100
,
1000
0010
1101
0010
1100
0010
1001
0100
0011
0100
1010
0001
1100
0010
1101
0010
,
0100
1000
0111
1000
0110
1000
0011
0100
1010
0100
1001
0110
1000
0100
1011
0100
,
1000
0010
1101
0010
0101
1000
0101
0010
0101
0010
1100
0010
0101
0010
1101
0010
,
0100
0010
1101
0010
0101
1000
0011
0100
0011
0100
1010
0101
0010
1000
0111
1000
,
0100
0010
1101
0010
0101
0010
1100
0010
1001
1000
0011
0001
0101
0001
1001
0001
,
0010
1000
0011
0100
1001
0100
0001
1000
0011
0100
0001
0110
0001
0100
1001
0010
,
1000
0100
1010
0001
1010
0100
0001
1000
0101
0010
0001
1010
0100
0010
1001
0100
,
0001
1000
0101
0010
1001
0010
0100
1000
0011
1000
0100
1010
0001
0010
0101
1000
,
0001
0100
1001
0010
0101
0010
0100
0010
1001
0010
0100
1001
0010
0100
0011
1000
,
0000
0000
1001
0100
1010
0001
0000
1000
0101
0010
0001
1100
0010
0000
1001
0100
,
0010
0000
0000
0001
0000
0000
1100
0000
0000
0001
0000
0000
1100
0000
0001
0000
0010
0000
0100
0000
0000
1000
0000
0000
0101
0000
0000
0010
0000
0000
0001
0000
0000
1100
0000
0000
0001
0000
0000
0100
0000
0000
0011
0000
0000
1000
0000
0000
,
0010
1000
0101
1010
0101
0010
0100
1000
0110
1001
0100
1010
0001
0010
0101
1000
,
0012
0010
1103
1012
1100
1003
0002
0000
1013
1001
1020
0001
0231
0001
2301
0001
,
3111
0001
0001
0001
0111
1000
1000
1000
0111
0100
0100
0100
1101
0001
0001
0001
,
2222
0000
0000
0000
0000
0000
0000
0000
0000
0000
0000
0000
0000
0000
0000
3333
2222
0000
0000
0000
0000
0000
0000
0000
0000
0000
0000
0000
0000
0000
0000
0000
3333
0000
0000
0000
0000
0000
0000
0000
0000
0000
0000
0000
0000
0000
0000
0000
0000
0000
0000
0000
0000
0000
0000
0000
0000
0000
0000
0000
0000
0000
0000
0000
;

//---------------dance-solo - ----------------
#NOTES:
     dance-solo:
     :
     Hard:
     1:
     0.925,0.913,0.842,0.248,1.000,966.000,156.000,46.000,0.000,50.000:
000000
000000
000000
000000
,
101001
000000
001000
000100
001001
000100
001000
000100
001001
000100
001000
000100
101001
000000
010000
001000
,
010101
000000
100000
001000
100001
001000
100000
001000
100001
001000
100000
001000
010101
000000
100000
010000
,
001011
000000
100000
000100
100001
000100
100000
000100
100001
000100
100000
000100
001011
000000
000100
001000
,
100101
000000
000100
001000
000101
001000
000100
001000
000101
001000
000100
001000
010101
000000
001000
000100
,
101001
000000
010000
001000
010001
001000
010000
001000
010001
001000
010000
001000
100101
000000
010000
001000
,
010101
000000
010000
001000
010001
001000
010000
001000
010001
001000
010000
001000
010101
000000
001000
010000
,
001011
000000
010000
001000
010001
001000
010000
001000
010001
001000
010000
001000
000111
000000
010000
001000
,
010101
000000
010000
001000
010001
001000
010000
001000
010001
001000
010000
001000
010101
000001
001000
010000
,
101001
000000
010000
000100
010001
000100
010000
000100
010001
000100
010000
000100
101001
000000
010000
000100
,
011001
000000
010000
000100
010001
000100
010000
000100
010001
000100
010000
000100
011001
000000
010000
000100
,
001011
000000
010000
000100
010001
000100
010000
000100
010001
000100
010000
000100
001011
000000
010000
000100
,
011001
000000
010000
000100
010001
000100
010000
000100
010001
000100
010000
000100
011001
000000
010000
000100
,
101001
000000
100000
001000
100001
001000
100000
001000
100001
001000
100000
001000
100101
000000
100000
001000
,
010101
000000
100000
001000
100001
001000
100000
001000
100001
001000
100000
001000
010101
000000
100000
001000
,
100100
000001
000010
000100
001000
000100
001000
010000
100000
000001
000010
000100
001000
000100
001000
010000
,
100000
010000
001000
000100
001000
000100
000010
000001
000100
000001
000010
000100
001001
000100
001001
010100
,
100011
100000
001010
000000
000001
000000
101000
100000
000010
000000
101000
000001
000000
100000
001010
000000
,
100000
100000
001001
000000
000100
000000
101000
100000
000001
000000
101000
000010
000000
100000
001010
000000
,
100000
100000
001010
000000
000001
000000
101000
100000
000010
000000
101000
000001
000000
100000
001010
000000
,
100000
100000
001001
000000
000100
000000
101000
100000
000001
000000
101000
000010
000000
100000
001001
000000
,
010000
010000
000101
000000
000010
000000
010001
010000
000100
000000
010001
000010
000000
010000
000101
000000
,
010000
010000
001001
000000
000100
000000
010010
010000
000001
000000
010100
000010
000000
010000
001001
000000
,
010000
010000
000101
000000
000010
000000
010001
010000
000100
000000
010001
000010
000000
010000
000101
000000
,
010000
010000
001001
000000
000100
000000
010001
010000
100000
001000
000100
000001
000100
000001
000100
000001
,
100100
010000
001010
000000
000001
000000
101000
100000
000010
000000
101000
000001
000000
100000
001010
000000
,
100000
100000
001001
000000
000100
000000
101000
100000
000001
000000
101000
000010
000000
100000
001010
000000
,
100000
100000
001010
000000
000001
000000
101000
100000
000010
000000
101000
000001
000000
100000
001010
000000
,
100000
100000
001001
000000
000100
000000
101000
100000
000001
000000
101000
000010
000000
100000
001001
000000
,
010000
010000
000101
000000
000010
000000
010001
010000
000100
000000
010001
000010
000000
010000
000101
000000
,
010000
010000
001001
000000
000100
000000
010010
010000
000001
000000
010100
000010
000000
010000
001001
000000
,
010000
010000
000101
000000
000010
000000
010001
010000
000100
000000
010001
000010
000000
010000
000101
000000
,
100000
001000
000100
000001
000100
000001
100000
001000
000100
000001
000100
000001
000100
000001
000100
000001
,
100010
000000
100000
001000
100000
001000
100000
001000
010000
000100
010000
001000
000100
000010
001000
000010
,
000100
000010
000001
000010
000100
001000
000100
001000
000100
010000
000100
010000
000100
001000
010000
100000
,
010000
000000
001000
010000
100000
010000
001000
000100
000010
000001
000010
000100
001000
010000
001000
000100
,
000010
000001
000010
000100
001000
000100
001000
010000
100000
000001
000010
000100
001000
000100
001000
010000
,
100101
000000
000000
000000
000000
000000
000000
000000
000002
000000
000000
000000
000000
000000
000000
000000
000000
000000
000000
000000
000000
000000
000000
000000
000000
000000
000000
000000
000000
000000
000000
000003
000002
000000
000000
000000
000000
000000
000000
000000
000000
000000
000000
000000
000000
000000
000000
000000
000000
000000
000000
000000
000000
000000
000000
000000
000013
000000
000000
000000
000100
000000
000000
000000
,
001000
010000
001000
000100
001000
010000
100000
010000
001000
010000
100000
000010
000100
001000
010000
001000
,
000010
001000
010000
001000
000100
001000
010000
001000
000010
001000
010000
001000
000001
001000
010000
001000
,
000001
000010
000100
000010
000100
001000
010000
001000
010000
100000
000001
000010
000100
000010
000100
001000
,
210000
000000
000000
000000
000000
000000
000000
000000
000000
000000
000000
000000
000000
000000
000000
000000
000000
000000
000000
000000
000000
000000
000000
300000
200000
000000
000000
000000
000000
000000
000000
300000
200000
000000
000000
000000
000000
000000
000000
000000
000100
000000
000000
000000
320001
000000
000000
000000
000000
000000
000000
000000
000100
000000
000000
000000
032001
000000
000000
000000
100000
000000
000000
000000
,
003201
000000
000000
000000
000000
000000
000000
000000
000000
000000
000000
000000
000000
000000
000000
000000
000000
000000
000000
000000
000000
000000
000000
000300
000200
000000
000000
000000
000000
000000
000000
000300
000200
000000
000000
000000
000000
000000
000000
000000
100000
000000
000000
000000
001320
000000
000000
000000
000000
000000
000000
000000
100000
000000
000000
000000
001230
000000
000000
000000
100000
000000
000000
000000
,
001302
000000
000000
000000
000023
000000
000000
000000
000230
000000
000010
000001
002310
000000
000010
000001
,
003210
000000
010000
000000
,
200310
000000
000000
000000
000000
000000
000000
000000
000000
000000
000000
000000
000000
000000
000000
000000
000000
000000
000000
000000
000000
000000
000000
300000
200000
000000
000000
000000
000000
000000
000000
300000
200000
000000
000000
000000
000000
000000
000000
000000
000000
000000
000000
000000
320000
000000
000000
000000
000000
000000
000000
000000
000000
000000
000000
000000
032000
000000
000000
000000
000000
000000
000000
000000
,
103200
000000
000000
000000
000000
000000
000000
000000
000000
000000
000000
000000
000000
000000
000000
000000
000000
000000
000000
000000
000000
000000
000000
000300
000200
000000
000000
000000
000000
000000
000000
000300
000200
000000
000000
000000
000000
000000
000000
000000
000000
000000
000000
000000
000320
000000
000000
000000
000000
000000
000000
000000
000000
000000
000000
000000
000032
000000
000000
000000
000000
000000
000000
000000
,
002103
000000
000000
000000
000000
000000
000000
000000
000000
000000
000000
000000
000000
000000
000000
000000
000000
000000
000000
000000
000000
000000
000000
003000
002000
000000
000000
000000
000000
000000
000000
003000
002000
000000
000000
000000
000000
000000
000000
000000
000000
000000
000000
000000
003200
000000
000000
000000
000000
000000
000000
000000
000000
000000
000000
000000
000320
000000
000000
000000
000000
000000
000000
000000
,
100032
010000
001000
000100
000010
100000
010000
001000
000100
000010
100000
010000
001000
000100
000010
100000
010000
001000
000100
000010
100000
000113
000000
000000
,
000100
001000
010000
001000
000010
001000
010000
001000
000100
001000
010000
001000
000010
001000
010000
001000
,
000010
000100
001000
000001
010000
000010
100000
000100
010000
001000
100000
000100
010000
000100
000010
001000
,
100000
010000
001000
000100
000010
000001
000010
000100
001000
010000
100000
010000
001000
000100
000010
000001
000010
000100
001000
010000
100000
010000
001000
000100
,
000010
000001
000001
000010
000010
000100
000100
001000
001000
010000
010000
100000
100000
000100
000100
010000
,
001000
000100
000001
000100
001000
000100
000010
000100
001000
000100
000010
000001
000010
000100
001000
000100
,
000010
000001
000010
000100
001000
000100
000001
000100
001000
000100
000010
000100
001000
000100
000001
000100
,
000001
001000
000010
000001
000100
000010
001000
000100
010000
001000
100000
010000
100000
010000
001000
000100
,
000010
000001
000100
000001
000010
000001
001000
000001
010000
000001
100000
000001
000010
000100
001000
010000
,
100000
000000
000000
000000
000000
000000
000000
000000
000200
000000
000000
000000
000000
000000
000000
000300
000200
000000
000000
000000
000000
000000
000000
000000
000000
000000
000000
000000
000000
000000
000000
000000
000000
000000
000000
000000
000000
000000
000000
000000
000000
000000
000000
000000
000000
000000
000000
000000
002300
000000
000000
000000
000000
000000
000000
000000
023000
000000
000000
000000
000000
000000
000000
000000
,
030010
000100
001000
000100
000010
000100
001000
000010
000100
001000
010000
001000
000100
001000
010000
000001
,
000010
000100
001000
000100
000010
000100
001000
000100
001000
010000
100000
000001
000010
000100
001000
000010
,
000100
001000
010000
000100
000010
000100
001000
000100
001000
010000
100000
001000
010000
000100
100000
001000
,
100000
010000
001000
000100
010000
001000
000100
000010
001000
000100
000010
000001
100000
010000
001000
000100
,
010000
001000
000100
000010
001000
000100
000010
000001
100000
010000
001000
000100
010000
001000
000100
000010
,
000002
000023
000230
002300
,
103020
000000
000100
000100
000000
001000
001000
000000
000100
000000
001000
000000
000100
000000
000100
000100
,
001031
010000
100000
010000
000100
010000
100000
010000
000010
010000
100000
010000
000001
010000
100000
010000
,
000101
010000
100000
010000
000010
010000
100000
010000
000001
010000
100000
010000
000010
010000
100000
010000
,
000100
001000
010000
001000
000010
001000
010000
001000
000001
001000
010000
001000
000010
001000
010000
001000
,
000010
000100
001000
000010
001000
000100
001000
000100
010000
000010
001000
000100
001000
000100
010000
001000
,
000101
001000
010000
001000
000100
001000
010000
001000
000010
001000
010000
001000
000001
001000
010000
001000
,
000101
001000
010000
001000
000010
001000
010000
001000
000001
001000
010000
001000
000010
001000
010000
001000
,
000100
001000
010000
001000
000010
001000
010000
001000
000001
001000
010000
001000
000010
001000
010000
001000
,
100002
001000
000110
100000
000123
001000
000100
001000
020130
001000
000100
001000
230001
001000
000001
000001
,
301110
000000
100100
000000
,
101000
000000
110000
100100
,
100010
000000
100100
000000
,
101000
000000
000000
000000
000000
000000
000000
000000
000000
000000
000000
000000
000000
000000
000000
000000
000000
000000
000000
000000
000000
000000
000000
000000
000000
000000
000000
000000
000000
000000
000000
000000
110000
000000
000000
000000
000000
000000
000000
000000
000000
000000
000000
000000
000000
000000
000000
000000
101000
000000
000000
000000
000000
000000
000000
000000
000100
000010
000000
000000
000000
000000
000000
000000
;
