#TITLE:Outlaw Star;
#SUBTITLE:- Through The Night;
#ARTIST:Arimachi Masahiko;
#TITLETRANSLIT:;
#SUBTITLETRANSLIT:;
#ARTISTTRANSLIT:;
#CREDIT:Altus;
#BANNER:throughthenightbanner.png;
#BACKGROUND:throughthenightbackground.png;
#LYRICSPATH:;
#CDTITLE:;
#MUSIC:Through_The_Night.mp3;
#OFFSET:-1.110;
#SAMPLESTART:58.409;
#SAMPLELENGTH:12.000;
#SELECTABLE:YES;
#BPMS:0.000=106.000,13.500=106.800,16.000=105.100,18.500=106.000,34.250=109.000,39.000=108.000,42.500=108.300,46.000=107.300,48.500=102.900,53.750=110.500,55.000=110.600,59.000=104.800,66.000=102.500,69.000=110.700,71.000=110.700,74.000=108.900,82.000=102.800,86.000=105.700,89.750=109.000,94.000=103.000,98.500=116.000,100.000=104.000,102.000=106.000,118.000=106.000,131.250=116.000,133.250=106.800;
#STOPS:;
#BGCHANGES:-1.110=outlawstartvop.mpg=1.000=0=0=1,
157.000=throughthenightbackground.png=1.000=0=0=1,
99999=-nosongbg-=1.000=0=0=0 // don't automatically add -songbackground-
;
// cache tags:
#FIRSTBEAT:3.000;
#LASTBEAT:157.000;
#SONGFILENAME:Songs/Anime Songs/Through The Night/throughthenight.sm;
#HASMUSIC:1;
#HASBANNER:1;
#MUSICLENGTH:94.284;
// end cache tags

//---------------dance-single - Challenge----------------
#NOTES:
     dance-single:
     Challenge:
     Challenge:
     8:
     0.471,0.500,0.488,0.106,0.769,255.000,46.000,10.000,0.000,0.000:

0000
0000
0000
0000
0000
0000
0000
0000
0000
0000
0000
0000
0000
0000
0000
0000
0000
0000
0000
0000
0000
0000
0000
0000
0000
0000
0000
0000
0000
0000
0000
0000
0000
0000
0000
0000
1000
0000
0000
0000
0001
0000
0000
0000
0000
1001
0000
0000
,
0000
0000
0000
0110
0000
0000
0000
0000
0000
0000
0000
0000
1000
0000
0000
0000
0100
0000
0000
0000
0000
0110
0000
0000
0000
0000
0000
1001
0000
0000
0000
0000
0000
0000
0000
0000
1000
0000
0000
0000
0010
0000
0000
0000
0000
0110
0000
0000
,
0000
0000
0000
0110
0000
0000
0000
0000
0000
0000
0000
0000
1000
0000
0000
0000
0100
0000
0000
0000
0000
0010
0000
0000
0000
0000
0000
0000
0000
0000
1000
0000
0000
0100
0000
0000
0000
0000
0000
0000
0100
0000
0000
0000
0000
1000
0000
0000
,
0000
0100
0010
0000
0000
0000
0000
0000
0000
1000
0100
0001
0100
1000
0100
0002
,
0000
0000
0000
0000
0000
0000
0000
0000
0000
0000
0000
0000
0003
0000
0000
0000
0000
0000
0000
0000
0000
0000
0000
0000
0000
0000
0000
0000
0000
0000
0000
0000
0000
0000
0000
0000
1000
0000
0000
0000
0100
0000
0000
0000
0000
0011
0000
0000
,
0000
0000
0000
1100
0000
0000
0000
0000
0000
0000
0000
0000
1000
0000
0000
0000
0010
0000
0000
0000
0000
0101
0000
0000
0000
0000
0000
1010
0000
0000
0000
0000
0000
0000
0000
0000
1000
0000
0000
0000
0001
0000
0000
0000
0000
1001
0000
0000
,
0000
0000
0000
1001
0000
0000
0000
0000
0000
0000
0000
0000
1000
0000
0000
0000
0100
0000
0000
0000
0000
0010
0000
0000
0000
0000
0000
0010
0000
0000
0000
0000
0000
0001
0000
0000
0001
0000
0000
0000
0100
0000
0000
0000
0000
0001
0000
0000
,
0000
0010
0100
0000
0000
0000
0000
0000
0000
0100
0000
0100
0010
0001
1000
0200
,
0000
0000
0000
0000
0000
0000
0000
0000
0000
0300
0000
0000
0000
0000
0000
0000
,
0000
0000
0110
1001
0000
0000
0000
0000
,
1001
0000
0000
0000
0000
0000
0100
0000
0000
0010
0000
0000
0000
0000
0000
0000
0001
0000
0010
0000
0000
0100
0000
0000
0000
0000
0000
0000
0000
0000
0000
0000
0000
0000
0000
0000
0000
0000
0000
0100
0000
0000
0010
0000
0000
0000
0000
0000
,
0001
0000
0000
0000
0000
0000
0010
0000
0000
0000
0000
0000
0100
0000
0000
0000
0000
0000
1000
0000
0000
0000
0000
0000
1100
0000
0000
0000
0000
0000
0000
0000
0000
0000
0000
0000
0000
0000
0000
1000
0000
0000
0100
0000
0010
0000
0000
0000
,
0001
0000
0000
0000
0000
0000
0101
0000
0000
0000
0000
0000
0000
0000
0000
0000
0000
0000
0000
0000
0000
0000
0000
0000
0000
0000
0000
0000
0000
0000
0000
0000
0000
0000
0000
0000
0000
0000
0000
0000
0000
0000
0000
0000
1000
0100
0000
0000
,
0000
0000
0000
0010
0000
0000
0000
0000
0000
0100
0000
0000
0000
0000
0000
0010
0000
0000
0000
0000
0000
0100
0000
0000
1000
0000
0000
0000
0000
0000
0010
0000
0000
0001
0000
0000
0000
0000
0000
0000
0000
0000
0000
0000
1001
0000
0000
0000
,
0010
0000
0000
0001
0000
0000
0100
0000
0000
0001
0000
0000
0010
0000
0000
0001
0000
0000
0100
0000
0000
0001
0000
0000
0000
0000
0000
0000
0000
0000
0000
0000
0000
0000
0000
0000
0000
0000
0000
1000
0000
0000
0000
0000
0100
0010
0000
0000
,
0000
0000
0000
0001
0000
0000
0000
0000
0000
0010
0000
0000
0000
0000
0000
0001
0000
0000
0000
0000
0000
0010
0000
0000
0100
0000
0000
0000
0000
0000
1000
0000
0000
0000
0000
0000
0001
0000
0000
0010
0000
0000
0000
0000
0100
0000
0000
0000
,
0000
0020
0000
0200
0300
0002
0000
0000
0000
0030
0000
0000
0000
1003
0010
0000
,
0010
0000
0100
0000
0010
0000
0010
1000
0000
0100
0010
0000
0000
0000
1000
0000
,
0000
0100
0000
0001
0010
0000
1000
0000
,
0010
0000
0001
0000
0100
0000
1000
0100
0000
1000
0000
0000
0000
0000
0000
0000
,
0110
0000
1001
0000
0000
0000
0110
0000
1001
0000
0000
0000
0000
0001
0010
0001
,
0100
0010
0000
1001
0000
0110
0000
0000
0000
0000
0000
0000
0000
1000
0000
0000
,
0000
0000
0000
0100
0000
0000
0000
0000
0000
0000
0000
0000
0000
0000
0000
0001
0000
0000
0000
0000
0000
0010
0000
0000
0000
0000
0000
0000
0000
0000
0000
0000
1000
0000
0000
0000
0000
0000
0000
0000
0000
0000
0000
0000
0000
1000
0000
0000
,
0000
0010
0000
0001
0000
0001
0000
0000
1000
0000
0010
0000
0001
0000
0010
0000
,
0001
0000
0001
0010
0000
1000
0000
0110
,
1001
0000
0000
0000
0000
0000
0000
0000
0000
0000
0000
0000
0000
0000
0000
0000
0000
0000
0000
0000
0000
0000
0000
0000
1000
0000
0000
0000
0001
0000
0000
0000
0000
1001
0000
0000
0000
0000
0000
0110
0000
0000
0000
0000
0000
0000
0000
0000
,
1000
0000
0000
0000
0100
0000
0000
0000
0000
0110
0000
0000
0000
0000
0000
1001
0000
0000
0000
0000
0000
0000
0000
0000
1000
0000
0000
0000
0010
0000
0000
0000
0000
0110
0000
0000
0000
0000
0000
0110
0000
0000
0000
0000
0000
0000
0000
0000
,
1000
0000
0000
0000
0100
0000
0000
0000
0000
0010
0000
0000
0000
0000
0000
0000
0000
0000
1000
0000
0000
0100
0000
0000
0000
0000
0000
0000
0100
0000
0000
0000
0000
1000
0000
0000
0000
0000
0000
0100
0000
0000
0010
0000
0000
0000
0000
0000
,
0000
0000
0000
0000
0000
1000
0100
0001
0100
1000
0100
0002
0000
0000
0000
0000
,
0003
0000
0000
0000
0000
0000
0000
0000
0000
0000
0000
0000
0000
0000
0000
0000
0000
0000
0000
0000
0000
0000
0000
0000
1000
0000
0000
0000
0100
0000
0000
0000
0000
0011
0000
0000
0000
0000
0000
1100
0000
0000
0000
0000
0000
0000
0000
0000
,
1000
0000
0000
0000
0010
0000
0000
0000
0000
0101
0000
0000
0000
0000
0000
1010
0000
0000
0000
0000
0000
0000
0000
0000
1000
0000
0000
0000
0001
0000
0000
0000
0000
1001
0000
0000
0000
0000
0000
1001
0000
0000
0000
0000
0000
0000
0000
0000
,
1000
0000
0000
0100
0000
0000
0000
0000
0000
0010
0000
0000
0000
0000
0000
0010
0000
0000
0000
0000
0000
0001
0000
0000
0001
0000
0000
0000
0100
0000
0000
0000
0000
0001
0000
0000
0000
0000
0000
0010
0000
0000
0100
0000
0000
0000
0000
0000
,
0000
0000
0000
0000
0000
0100
0000
0100
0010
0001
1000
0220
0000
0000
0000
0000
,
0000
0000
0000
0000
0000
0330
0000
0000
0000
0000
0000
0000
1000
0000
1000
0100
,
0010
0000
0000
0001
0000
0000
0010
0000
0000
0000
0000
0000
0001
0000
0000
0000
0000
0000
0001
0000
0000
0010
0000
0000
0100
0000
0000
1000
0000
0000
0100
0000
0000
0000
0000
0000
1010
0000
0000
0000
0000
0000
0000
0000
0101
0000
0000
0000
,
0000
0010
0000
0010
0000
0001
0011
0000
1100
0000
0000
0000
0100
0000
0100
0010
,
0001
0000
0000
1000
0000
0000
0001
0000
0000
0000
0000
0000
0010
0000
0000
0000
0000
0000
0010
0000
0000
0100
0000
0000
1000
0000
0000
0001
0000
0000
0010
0000
0000
0000
0000
0000
0000
0000
0000
1000
0000
0000
0000
0000
0100
0000
0000
0000
,
0010
0000
0001
0000
0001
0010
0000
0110
0000
1001
0000
0220
0000
0000
0000
0000
,
0000
0000
0000
0000
,
0000
0330
0000
0000;
