#TITLE:Pop Land Stage;
#SUBTITLE:Super Smash Bros.;
#ARTIST:Jun Ishikawa;
#TITLETRANSLIT:;
#SUBTITLETRANSLIT:;
#ARTISTTRANSLIT:;
#CREDIT:;
#BANNER:Pop Land Stage.png;
#BACKGROUND:Pop Land Stage-bg.png;
#LYRICSPATH:;
#CDTITLE:!danceguyTitle.png;
#MUSIC:Pop Land Stage.mp3;
#OFFSET:-0.039;
#SAMPLESTART:32.120;
#SAMPLELENGTH:12.000;
#SELECTABLE:YES;
#BPMS:0.000=186.800;
#STOPS:;
#BGCHANGES:;
// cache tags:
#FIRSTBEAT:2.000;
#LASTBEAT:210.000;
#SONGFILENAME:Songs/VGMP 2/Pop Land Stage (dAnceguy117)/Pop Land Stage.sm;
#HASMUSIC:1;
#HASBANNER:1;
#MUSICLENGTH:76.382;
// end cache tags

//---------------dance-single - Heavy----------------
#NOTES:
     dance-single:
     Heavy:
     Hard:
     12:
     1.000,1.000,1.000,0.013,0.209,425.000,128.000,1.000,0.000,0.000:
0000
0000
0000
0000
1001
0000
0010
0100
,
0011
1000
0100
0001
1100
0001
0110
1000
,
0011
0000
0001
1000
0100
0000
0000
0000
0110
0000
1000
0000
0000
0000
1000
0000
,
0001
1000
0000
1000
0010
1000
0001
1000
,
0100
1000
0000
1000
0100
0001
1000
0001
,
0010
0001
0100
0001
0010
1000
0001
1000
,
0100
1000
0000
1000
0001
1000
0000
1000
,
0010
1000
0000
1000
0001
1000
0010
1000
,
0100
1000
0100
1010
1000
0001
0010
0001
,
1000
0100
0010
0100
0001
1000
0100
1000
,
0001
1000
0010
1000
0011
1000
0001
1000
,
0010
1000
0001
1000
0001
1000
0011
1000
,
0100
1000
0001
1000
0100
0001
1010
0001
,
0010
0001
1100
0001
0010
1000
0011
1000
,
0100
1000
0001
1000
0010
1000
0100
1000
,
0001
1000
0010
1000
0100
0001
1010
0001
,
0100
0001
1100
0001
0010
0100
0011
0100
,
0010
0100
1001
0100
0001
1000
0001
1000
,
0000
1000
0001
1000
1001
0010
0011
0010
,
1100
0001
1001
0001
1010
0100
0101
0100
,
1001
0010
0110
0010
0101
1000
1001
1000
,
0110
0001
1001
0001
0110
1000
1100
1000
,
0011
0100
0100
0100
1010
0001
1000
0110
,
0101
0010
1100
0110
0011
1000
0101
1000
,
0011
0000
1000
0000
0010
0000
1000
0000
0110
0000
0001
0010
0110
0000
1010
0000
,
0101
0010
1100
0110
1001
0100
1010
0001
,
0110
1000
0101
0010
1001
0010
0011
0010
,
1100
0001
1001
0001
1010
0100
0101
0100
,
1001
0010
0110
0010
0101
1000
1001
1000
,
0110
0001
1001
0001
0110
1000
1100
1000
,
0011
0100
0100
0100
0011
1000
0001
1010
,
1100
0000
0000
0000
0000
0000
0000
0000
0001
0000
0000
0100
0000
0000
0000
0000
1010
0000
0000
0000
0000
0000
0000
0000
0011
0000
0000
0000
0000
0000
0000
0000
1001
0000
0000
0000
0000
0000
0000
0000
0100
0000
0000
0000
0000
0000
0000
0000
1010
0000
0000
0000
0000
0000
0000
0000
0001
0000
0000
0000
0000
0000
0000
0000
,
1100
0000
0000
0000
0000
0000
0000
0000
0010
0000
0000
0000
0000
0000
0000
0000
0101
0000
0000
0000
0000
0000
0000
0000
0010
0000
0000
0000
0000
0000
0000
0000
1001
0000
0000
0000
0000
0000
0000
0000
0010
0000
0000
1000
0000
0000
0000
0000
1001
0000
0000
0000
0000
0000
0000
0000
1010
0000
0000
0000
0000
0000
0000
0000
,
1001
0000
1100
0000
0011
0000
0110
0000
1010
0000
0001
0000
1000
0000
0010
0100
,
1001
0000
0000
0000
0110
0000
0000
0000
1001
0000
0001
0001
0001
0000
1000
0000
,
0010
0000
0010
0010
1000
0000
0001
0000
0100
0000
0100
0100
0100
0000
0001
0000
,
0100
0000
0000
0000
0000
0000
0001
0100
1000
0000
1000
1000
1000
0000
0100
0000
,
0001
0000
0001
0000
0100
0000
1000
0000
0010
0000
0010
0010
0010
0000
0100
0000
,
0001
0000
0000
0000
0000
0000
0010
0100
1000
0000
1000
1000
1000
0000
0001
0000
,
0010
0000
0010
0010
0001
0000
1000
0000
0100
0000
0100
1000
0001
0000
0010
0000
,
0001
0000
0000
0000
1000
0000
0000
0000
0001
0000
0001
0001
0001
0000
1000
0000
,
0010
0000
0010
0010
0100
0000
0010
0000
1000
0000
1000
1000
1000
0000
0001
0000
,
1000
0000
0000
0000
0100
0000
0010
0001
1010
0000
1000
1000
1010
0000
0001
0000
,
0010
0000
0010
0000
0101
0000
1000
0000
0100
0000
0100
0100
0101
0000
1000
0000
,
0100
0000
0000
0000
0010
0000
1000
0100
0001
0000
0001
0001
1001
0000
0010
0000
,
1000
0000
1000
0000
0110
0000
0001
0000
0100
0000
0100
0100
0101
0000
1000
0000
,
0010
0000
0000
0000
0100
0000
1001
0010
0101
0000
0101
0100
0101
0000
1010
0000
,
1001
0000
1001
0001
1010
0000
0110
0000
0101
0000
0101
0100
0101
0000
1001
0000
,
0110
0000
0110
0100
1010
0000
1100
0000
0101
0000
0110
0000
1010
0000
0101
0000
,
0110
0000
0000
1010
0000
0000
0101
0000
0000
0110
0000
0000
0101
0000
0000
0110
0000
0000
1010
0100
1000
0011
0000
0000
,
1001
0000
0000
0000
0201
0000
0000
0300
1001
0000
0000
0000
0010
0000
0100
0000
,
0011
1000
0100
0001
1100
0001
0110
1000
,
0011
0000
0001
1000
0100
0000
0000
0000
1001
0000
0000
0000
0000
0000
0000
0000
;
