#TITLE:Take it Easy;
#SUBTITLE:;
#ARTIST:Aya;
#TITLETRANSLIT:;
#SUBTITLETRANSLIT:;
#ARTISTTRANSLIT:;
#CREDIT:;
#BANNER:Take it Easy.png;
#BACKGROUND:Take it Easy-bg.png;
#LYRICSPATH:;
#CDTITLE:Jimbo.png;
#MUSIC:Take it Easy.mp3;
#OFFSET:0.760;
#SAMPLESTART:20.200;
#SAMPLELENGTH:19.000;
#SELECTABLE:YES;
#BPMS:0.000=205.000;
#STOPS:;
#BGCHANGES:;
// cache tags:
#FIRSTBEAT:4.000;
#LASTBEAT:428.000;
#SONGFILENAME:Songs/Fabulously Fresh Flock of Fantastic Files F5/(Jimbo) Take it Easy/Take it Easy.sm;
#HASMUSIC:1;
#HASBANNER:1;
#MUSICLENGTH:126.119;
// end cache tags

//---------------dance-single - ----------------
#NOTES:
     dance-single:
     :
     Hard:
     11:
     1.000,1.000,1.000,0.341,0.246,722.000,307.000,43.000,0.000,0.000:

0000
0000
0000
0000
,
1000
0001
1000
0001
1000
0001
1000
0001
1000
0001
1000
0001
1000
0001
1000
0001
,
0110
0000
0000
1000
0100
0000
0001
0000
1010
0000
0100
0000
0010
0000
0010
0000
,
1000
0101
0010
0100
0110
1001
1010
0100
,
1100
0000
1010
0100
0101
1010
0100
0100
,
1001
0000
0001
0000
0010
0000
1000
0000
0011
0000
1001
0000
0100
0010
0000
0001
,
1100
0000
1000
0000
1001
0000
0001
0000
0100
0010
1000
0000
0110
0000
0101
0000
,
1001
1010
0100
0110
1001
1100
0011
0001
,
1100
0010
0101
0100
0101
1010
1000
0110
,
1001
0000
0000
0000
0000
0000
0000
0000
0000
0000
1010
0000
0000
1000
0000
0000
,
1001
0000
0000
0001
0110
0000
0001
0000
1000
0000
0101
0000
0010
0000
0110
0000
,
1000
1010
0101
0001
0010
1001
0100
0011
,
1001
0000
1010
0100
0001
1010
0100
0110
,
1001
0000
0001
0000
1100
0000
0010
0000
0001
0000
1100
0000
0001
0100
0001
0100
,
1010
0000
0000
0000
1001
0000
0100
0000
0001
0100
1000
0000
0100
0000
0110
0000
,
1001
1010
0110
0001
0100
1100
0011
1001
,
1100
0000
1010
0001
0100
1001
0010
0101
,
1001
0000
0000
0000
0000
0000
1000
0000
0000
0000
1000
0001
0000
0001
1000
0000
,
0110
0000
1001
0010
1100
0000
0101
0001
,
1010
0101
1001
0110
0000
1000
0001
0100
,
1001
0000
1010
0001
0100
1010
0001
0100
,
0010
0002
1003
0000
0010
0100
1000
0001
,
0110
0000
0110
0001
1010
0000
0100
1001
,
0110
0001
1010
0001
0000
1100
0001
0101
,
1010
0000
1001
0100
1100
1010
1001
2010
,
0000
0000
0000
0000
3001
0100
0010
0110
,
1001
0000
1010
1001
0101
0000
0110
1000
,
0101
0010
0010
1001
0000
0100
0010
1000
,
0110
0000
1100
0010
1001
0100
0110
1001
,
0000
2002
0000
3003
0220
0000
0330
2020
0000
3030
0202
0000
0303
0220
0000
0330
,
1001
0000
1001
1001
1010
0000
0110
1000
,
0101
0110
1001
1010
0000
0100
0010
0100
,
1001
0000
1100
0011
1001
1010
0101
1002
,
0010
0000
0000
0100
0000
0000
1000
0000
0000
0010
0000
0000
2003
0000
0000
0000
0000
0000
0000
0000
3001
0000
0000
0000
,
1001
1000
0000
0100
0100
0000
1001
0000
,
0010
0000
0000
0000
1000
0000
0000
0000
0110
0000
0000
0000
0000
0000
0000
0000
1000
0001
1000
0000
0000
0000
0000
0000
1001
0000
0000
0000
1000
0000
0000
0000
,
0101
0010
1000
0101
0110
0000
0010
0101
,
1000
0000
0000
0000
0010
0000
0000
0000
0101
0000
0000
0000
0000
0000
0000
0000
1010
0000
0000
0000
1000
0000
0000
0000
0001
0100
0010
0000
0000
0000
0000
0000
,
1100
0100
0001
1010
0101
0000
1000
0110
,
0001
1000
0110
0000
0101
0000
1010
0100
,
0101
1000
0001
1010
0110
0000
0101
0000
,
1000
0000
0010
0000
0202
0000
0000
0000
0000
0303
2020
0000
3030
0100
0000
0000
,
1001
1000
0011
1100
1010
0000
1001
0100
,
0011
1001
0011
0100
1010
0100
0101
0010
,
1001
0100
1010
0101
1001
0100
0101
1010
,
0000
0102
1000
1000
0010
0100
1003
0010
,
1001
0000
0110
0101
1010
0000
0010
0100
,
1001
0010
0100
1001
0100
0110
0101
0010
,
1001
0000
1100
1100
0011
0101
0011
2001
,
0000
0000
0000
0000
3001
0100
0010
0100
,
2001
0000
0100
0100
0100
0000
0010
0100
,
0001
0001
0010
0010
0000
0100
0010
3001
,
0210
0000
0001
0001
1000
0010
1000
0001
,
0000
0000
0000
0000
0000
0000
0000
0310
,
1002
0000
1000
1000
1000
0000
0010
0010
,
0100
0100
0100
1000
0000
0010
0100
1000
,
0010
0000
1000
0100
0100
1000
0100
0200
,
0000
0000
0000
0000
0000
0000
0000
0000
0000
0000
0000
0000
0000
0000
0000
0000
0000
0000
0000
0000
0000
0000
0000
0000
0303
0000
0000
0010
0100
0000
0000
0000
,
1001
0000
0000
0000
0000
0100
0011
1000
0200
0000
0000
0000
0000
0000
0000
0000
,
0000
0000
0000
0000
1300
0001
0100
0110
,
1000
0101
1010
1100
0110
0011
1001
0120
,
0000
1000
1000
0000
0001
0001
0000
0030
,
1100
0010
0001
1010
1001
0010
1010
0100
,
0001
1100
1001
0100
1010
0001
1100
0010
,
1010
0001
0101
1000
1001
0110
1010
0110
,
0001
1000
0100
0010
0001
0100
0001
0100
0010
1000
0100
0010
0001
0100
0010
1000
,
0101
1000
0010
0100
1001
1000
1100
0010
,
0100
1010
0101
0100
0101
0010
1000
0001
,
0110
0000
0000
0000
0000
0000
1010
0000
0100
0000
0010
0000
1001
0000
0000
1001
0000
0000
0000
0000
0000
0100
0000
0000
,
0000
1010
0002
0000
0100
0100
0000
0100
,
0103
0000
0000
0000
0000
0000
0000
0000
0000
1010
0000
0000
1100
0000
0000
0000
0100
0000
0000
0000
0100
0000
0000
0000
,
0011
0000
0001
0000
0001
0000
1001
0000
0100
0000
0001
0000
,
1010
0000
0000
0000
0110
0000
0000
0000
0101
0000
0000
0000
1001
0000
0000
0000
0110
0000
0000
0000
0000
1010
0000
0000
,
0101
0000
0000
0000
0000
0000
0000
0000
0101
0000
0000
0000
0000
0000
0000
0000
0000
0000
1000
0000
0000
0000
0000
0000
0110
0000
0000
0000
0000
0000
0001
0000
0000
0000
0000
0000
0100
0000
0000
0001
0000
0000
0100
0000
0000
0010
0000
0000
,
1001
1000
0100
0100
0010
0010
0001
0001
,
0100
0100
0010
1001
0000
1010
0100
0001
,
1010
0001
0110
1000
0100
0010
0001
2000
,
0100
0010
3001
0000
0000
1010
0000
0100
,
1001
1000
1010
0010
0110
0001
0101
0010
,
0110
1010
0101
1001
0000
0110
1000
0110
,
0101
1000
1010
0100
1000
0101
1000
2200
,
0000
3300
0220
0000
0000
0330
0000
0000
1000
0000
0001
0100
0020
0000
0000
0000
,
1030
0100
1001
0010
1010
0100
0101
0010
,
1010
1001
0101
0110
0000
1010
0001
0110
,
1001
0100
0110
1000
0101
0101
1010
0100
,
0000
0100
0000
0100
0000
0000
0100
0000
0100
0000
0100
0000
,
1001
0100
0010
0001
1010
0100
0010
1000
,
0101
0010
0100
0101
0000
0110
1010
0101
,
2001
0000
3200
0000
0320
0000
0032
0203
,
0310
1010
0101
0010
0110
1001
1000
0100
,
2010
0000
0100
0000
0010
0000
0001
0100
,
0010
0010
0100
0100
0001
0000
0100
0000
,
0001
0000
0010
0010
0100
0000
0001
0010
,
0100
0001
0010
0010
0001
0000
0100
0010
,
3001
0000
0000
0000
0110
0000
0001
0000
1000
0100
0010
0000
0100
0000
1001
0000
,
0110
0001
1010
0001
0100
1010
0100
0001
,
1000
0000
0100
0010
0001
0100
0010
1000
,
0100
0000
0001
0000
0010
0000
1000
0000
0100
0000
0010
0000
0010
0000
0000
0001
,
1100
0000
0000
0000
0000
1000
0100
0010
0002
0000
0000
0000
0000
0000
0000
0000
,
0000
0000
0000
0003
1100
0110
0011
2001
,
0000
0000
0000
3100
0012
0000
0000
1003
,
0110
0010
0101
1010
1001
0100
1001
0110
,
1010
0000
1000
0000
1001
0000
1000
0000
1000
0010
0100
0000
0101
0000
0110
0000
,
1001
0011
0101
0011
1001
0101
0011
1001
,
0110
0100
0101
0001
1001
1000
1010
0010
,
0101
1000
0100
0010
2001
0000
0000
0000
,
0000
0000
0000
0000
,
3000
0000
0000
0000
;
