#TITLE:The Legend Of Zelda;
#SUBTITLE:Techno;
#ARTIST:Nintendo;
#TITLETRANSLIT:;
#SUBTITLETRANSLIT:;
#ARTISTTRANSLIT:;
#CREDIT:Nintendo;
#BANNER:;
#BACKGROUND:zelda excalibur.jpg;
#LYRICSPATH:;
#CDTITLE:;
#MUSIC:DDR-Nintendo - The Legend of Zelda (Techno Version).mp3;
#OFFSET:-0.066;
#SAMPLESTART:100.000;
#SAMPLELENGTH:12.000;
#SELECTABLE:YES;
#BPMS:0.000=144.000;
#STOPS:;
#BGCHANGES:0.000=zelda excalibur.jpg=0.600=1=0=1,
99999=-nosongbg-=1.000=0=0=0 // don't automatically add -songbackground-
;
// cache tags:
#FIRSTBEAT:8.000;
#LASTBEAT:260.500;
#SONGFILENAME:Songs/new again/The Legend Of Zelda/DDR-Nintendo - The Legend of Zelda (Techno Version).sm;
#HASMUSIC:1;
#HASBANNER:0;
#MUSICLENGTH:115.456;
// end cache tags

//---------------dance-single - ----------------
#NOTES:
     dance-single:
     :
     Hard:
     10:
     0.599,0.733,0.424,0.217,0.368,410.000,49.000,25.000,35.000,2.000:
0000
0000
0000
0000
,
0000
0000
0000
0000
,
0000
0000
0000
0000
,
0000
0000
0000
0000
,
0000
0000
0000
0000
,
0000
0000
0000
0000
,
0000
0000
0000
0000
,
0000
0000
0000
0000
,
1000
0000
0000
0000
0100
0000
0000
0000
0010
0000
0000
0000
0001
0010
0100
1000
,
0010
0000
0000
1000
0000
0000
0100
0000
0000
1000
0000
0000
0010
0000
0000
0100
0000
0000
0001
0000
0100
0000
0010
0000
,
1000
0000
0000
0100
0000
0000
0010
0000
0000
0100
0000
0000
1000
0000
0100
0000
0010
0000
0001
0000
0010
0000
0100
0000
,
1000
0000
0000
0000
1000
0000
0100
0000
0000
0010
0000
0000
0001
0000
0000
0100
0000
0000
0010
0000
0000
0000
0000
0000
,
1001
0000
1000
0001
2000
0000
0000
0000
0010
0000
0000
0000
0100
0000
0100
0000
,
3010
0000
0001
0010
0002
0000
0000
0000
1000
0000
0000
0000
0010
0000
0100
0000
,
1003
0000
1000
0100
1000
0000
0010
0000
0100
0000
1000
0000
0202
0000
0303
0000
,
1010
0000
1000
0100
0000
1000
0100
0000
0001
0000
0100
0000
0010
1000
0100
0010
,
0001
0000
0000
0000
1100
0000
0000
0000
0001
0000
1000
0000
0100
0010
0001
0100
,
0010
0000
0000
1000
0000
0000
0010
0000
0000
0100
0000
0000
0001
0000
0000
0010
0000
0000
0100
0000
1000
0000
0010
0000
,
0100
0000
0000
0000
0000
0000
0100
0001
0010
0100
1000
0010
,
0110
0000
0000
0000
0010
0000
0100
0000
0000
0001
0000
0000
0010
0000
0000
0100
0000
0000
1000
0000
0000
0100
0000
0000
,
0010
0001
2000
0010
0100
3010
0011
0011
,
0020
0100
0001
0100
0100
0100
1030
1100
,
0010
0001
0101
0010
1000
0100
0110
0000
,
1000
0100
0010
0001
0100
0010
0100
0001
0010
0100
1000
0001
,
0100
0000
0000
0000
0110
0000
0000
0000
0010
0000
1000
0000
0100
0010
0001
0010
,
0100
0000
0000
1000
0000
0000
0100
0000
0010
0000
0001
0000
0100
0000
0000
0100
0000
0000
0100
0000
0010
0000
1000
0000
,
1001
0000
0100
0000
0100
0010
1000
0100
,
0011
0100
1100
1000
1001
0010
1100
0010
,
0001
0100
0011
0010
0101
0010
1000
0100
,
0110
1000
0001
1000
0110
0001
2200
0000
,
3311
0010
0110
0010
0001
0100
1010
0100
,
0010
1000
0100
1100
0100
0010
0001
0100
,
0101
0100
1000
0100
0010
1000
0100
0010
,
0011
0010
0100
1000
0001
0100
0010
1000
,
1000
0000
0100
0010
0001
0000
0000
0000
0000
0000
0000
0000
0000
0000
0000
0000
,
2000
0000
0000
0200
3000
0000
0020
0000
0300
0002
0030
0000
2000
0000
0003
0200
3000
0000
0020
0000
0300
0002
0030
0000
,
1000
0000
0003
0100
0000
0000
0010
0000
0000
1000
0000
0000
0100
0000
0000
1000
0000
0000
0010
0000
0000
0100
0000
0000
,
0001
0000
0010
0000
0100
0000
1000
0010
0000
0010
0100
0000
0001
0000
0010
0000
,
0100
0000
1000
0000
0100
0000
0010
0001
0000
0001
0100
0000
0010
0000
1000
0100
,
0000
0100
1000
0000
0010
0000
0100
0001
0000
0001
0100
0000
0010
0000
1000
0000
,
1000
0100
0000
0010
0000
0001
0100
0000
1010
0000
0100
0000
1010
0000
0100
0000
,
0001
0010
0000
0100
0000
1000
0100
0000
0101
0000
0001
0000
0101
0000
0100
0000
,
0010
1000
0000
0100
0000
0010
0001
0000
1001
0000
0000
0000
0110
0000
0000
0000
,
1000
0000
1000
0001
0000
0001
1000
0000
0010
0000
0100
0010
M000
0010
0100
0000
,
1000
0000
0100
0000
0010
0000
0001
0000
0100
0000
0020
0000
0000
0000
0000
0000
0030
0000
MMM1
0000
0000
0100
0000
0000
,
0010
0000
1000
0000
0100
0000
0010
0001
0010
0100
0010
0001
0100
0000
0010
0000
,
1000
0000
0000
0100
0000
0000
1000
0000
0010
0000
0100
0000
0001
0000
0010
0000
0001
0000
0100
0000
0000
0010
0000
0000
,
1000
0000
0000
0100
0000
0000
1000
0000
0010
0000
0100
0000
0001
0000
0010
0000
0100
0000
1000
0000
0000
0000
1000
0000
,
0100
0000
0010
0000
0001
0000
1000
0000
0100
0000
0000
0000
0100
0000
0100
0010
,
0002
0000
0000
0000
0000
0000
0003
0000
1000
0000
0101
0000
0010
0000
1000
0100
,
0020
0000
0000
0000
0000
0000
0030
0000
0001
0000
0100
0000
0010
0000
1000
0100
,
0010
0000
0000
0000
0000
0000
0000
0000
0011
0000
0000
0000
1100
0000
1000
0001
,
1000
0000
0001
1000
0001
0000
0100
0010
1000
0100
0010
0001
0100
0000
0110
0000
,
0010
1010
1000
1100
0100
0110
0010
0011
,
0001
0101
0100
0110
1001
2020
313M
0001
,
001M
0100
100M
0100
M010
0001
010M
0010
,
100M
0100
001M
0000
0MM1
0000
M101
0000
,
20MM
3000
1MM0
M10M
,
M0M2
0003
MMM1
M1MM
,
1MMM
M11M
1MM1
2002
,
0000
0000
0000
0000
,
0000
0000
0000
0000
,
0000
0000
0000
0000
,
0000
0000
0000
0000
,
0000
0000
0000
0000
,
0000
3003
0000
0000
0000
0000
0000
0000
;

//---------------dance-single - JDDD----------------
#NOTES:
     dance-single:
     JDDD:
     Challenge:
     10:
     0.751,1.000,0.667,0.563,0.494,465.000,77.000,65.000,14.000,3.000:
0000
0000
0000
0000
,
0000
0000
0000
0000
,
1000
0000
0100
0000
0010
0000
0000
0010
0000
0010
0100
0000
1001
0000
0100
0000
,
0100
0000
1000
0000
0001
0000
0000
0001
0000
0001
1000
0000
0110
0000
1000
0000
,
0001
0000
0000
0000
1000
0100
1000
0100
1000
0100
1000
0100
1000
0100
1000
0100
,
1000
0000
0000
0000
0001
0100
0001
0100
0001
0100
0001
0100
0001
0100
0001
0100
,
0001
0000
0000
0000
0010
0100
0010
0100
0010
0100
0010
0100
0010
0100
0010
0100
,
0010
0000
0010
0100
0000
0010
0100
0000
0010
0000
0100
0010
0000
0100
0010
0000
,
1000
0000
0010
0000
0100
0000
1000
0000
0010
1000
0100
0010
0001
0010
0100
1000
,
0001
0000
0000
0100
0000
0000
0010
0000
0000
0001
0000
0000
1000
0000
0100
0000
0010
0000
0001
0000
0100
0000
0010
0000
,
1001
0000
0000
0100
0000
0000
0010
0000
0000
0100
0000
0000
1000
0000
0100
0000
0010
0000
1000
0000
0010
0000
0001
0000
,
0110
0000
0000
0000
1000
0000
0001
0000
0000
0000
0000
0000
0110
0000
0000
1000
0000
0000
0101
0000
0000
0010
0000
0000
,
1100
0010
0020
0000
0000
0030
1100
0011
,
0101
0010
0020
0000
0000
0030
1001
1010
,
0110
0000
0000
0000
0000
0000
0000
0000
0001
0000
0000
0000
0000
0000
0000
0000
0002
0000
0000
0000
0000
0000
0000
0000
0000
0000
0000
0000
0000
0000
0000
0000
0000
0000
0000
0000
0000
0000
0000
0000
0003
0000
0000
0000
0000
0000
0000
0000
0220
0000
0000
0000
0000
0000
0000
0000
0000
0000
0000
0000
0000
0000
0000
0330
,
1001
0000
1000
0002
0M03
2000
3001
00M0
1000
0000
0M01
2000
30M0
0002
2000
3003
,
0110
0000
1000
0000
0101
0000
0010
0000
1000
0100
0010
0001
0100
0001
0010
0100
,
0010
0000
0000
0000
0000
0000
1000
0000
0000
0100
0000
0000
1000
0000
0000
0100
0000
0000
1000
0000
0000
0100
0000
0000
1000
0000
0000
0000
0010
0000
0000
0000
0100
0000
0000
0000
0001
0000
0000
0000
0010
0000
0000
0000
0100
0000
0000
0000
,
0011
0000
0000
0100
0000
0000
0010
0000
0000
0001
0000
0000
0100
0000
0010
0000
1000
0000
0001
0000
0010
0000
0100
0000
,
1100
0000
0000
0000
0000
0000
0000
0000
0000
0000
0000
0000
0000
0000
0000
0000
0000
0000
0000
0000
0000
0000
0000
0000
0000
0000
0000
0000
0000
0000
0000
0000
0011
0000
0000
0000
0000
0000
0000
0000
0000
0000
0000
0000
0000
0000
0000
0000
0011
0000
0000
0000
0000
0000
0000
0000
0000
0000
0000
0000
0000
0000
0000
0000
0000
0000
0000
0000
0000
0000
0000
0000
0000
0000
0000
0000
0000
0000
0000
0000
0000
0000
0000
0000
0000
0000
0000
0000
0000
0000
0000
0000
0000
0000
0000
0000
2002
0000
0000
0000
0000
0000
0000
0000
0000
0000
0000
0000
0000
0000
0000
0000
0000
0000
0000
0000
0000
0000
0000
0000
0000
0000
0000
0000
0000
0000
0000
0000
0000
0000
0000
0000
0000
0000
0000
3000
0000
0000
0000
0000
0000
0000
0000
0000
1013
0000
0000
0000
0000
0000
0000
0000
0000
0000
0000
0000
0000
0000
0000
0000
0000
0000
0000
0000
0000
0000
0000
0000
0100
0000
0000
0000
0000
0000
0000
0000
0000
0000
0000
0000
0000
0000
0000
0000
0000
0000
0000
0000
0000
0000
0000
0000
,
0101
0001
0002
0000
0000
0003
0011
0110
,
1100
0001
0200
0000
0000
0300
1010
0100
,
0001
0001
0020
0000
0000
0030
1100
0000
,
0011
0000
0001
0010
00M0
0010
0100
0000
100M
0000
0010
0100
0M00
0100
0001
0000
,
2000
0000
3100
0000
0012
0000
0100
0000
0010
0003
0200
0320
0032
0203
0320
2030
,
3200
0000
0000
0300
0000
0000
0010
0000
0000
0000
0000
0000
0001
0000
0000
0000
0000
0000
0100
0000
0000
0000
0000
0000
0010
0000
0000
0000
0200
0000
0000
0000
0320
0000
0000
0000
2030
0000
0000
0000
3002
0000
0000
0000
0023
0000
0000
0000
,
0230
0000
0300
0000
0000
0000
1000
0000
0000
0000
0000
0000
0010
0000
0000
0000
0000
0000
1001
0000
0000
0100
0000
0000
,
0011
0010
0100
1000
0001
0100
1010
0100
,
0101
0010
0100
1000
0001
0010
0110
1000
,
0101
0010
1100
0010
0001
0100
1010
0100
,
0101
0010
1000
0100
0010
0001
0011
0100
,
1100
0010
1100
0010
0001
0100
0101
0010
,
0101
0010
1000
0100
0010
1000
0100
0010
,
0001
0100
0001
0010
1000
0100
0010
0001
,
1000
0000
0100
0010
0200
0000
0010
0000
1000
0000
0010
0000
1301
0000
0100
0000
,
0011
0000
0001
0100
0000
0001
0100
0000
0010
0000
1000
0100
0000
1000
0100
0000
,
0020
0032
0203
0320
,
2030
3020
0230
0302
,
0023
0230
2300
3020
,
0032
0203
0320
0030
,
0110
1000
0010
0100
0001
0100
0001
0010
,
0100
1000
0100
0010
0001
0010
0100
1000
,
0010
0100
0001
0100
0010
1000
0010
0100
,
0002
0000
0000
0000
,
1003
0000
0100
0000
0002
0000
1003
0010
,
0100
0000
1000
0000
0010
1000
0100
0010
0001
0010
0100
1000
0001
0000
0100
0000
,
0010
0000
0000
0001
0000
0000
1000
0000
0100
0000
0010
0000
0001
0000
0100
0000
0010
0000
1001
0000
0000
0100
0000
0000
,
0010
0000
0000
0100
0000
0000
1000
0000
0100
0000
0010
0000
1000
0000
0010
0000
0001
0000
0110
0000
0000
0000
1000
0000
,
0001
0000
0110
1000
0101
0010
1100
0010
,
0020
0000
0000
0030
1100
0011
0101
0010
,
0020
0000
0000
0030
1001
1010
0110
0001
,
0002
0000
0000
0000
0000
0000
0000
0000
0000
0000
0000
0000
0000
0000
0000
0000
0000
0000
0000
0000
0000
0000
0000
0000
0003
0000
0000
0000
0000
0000
0000
0000
0220
0000
0000
0000
0000
0000
0000
0000
0000
0000
0000
0000
0000
0000
0000
0330
1001
0000
0000
0000
0000
0000
0000
0000
1000
0000
0000
0000
0002
0000
0000
0000
,
0M03
2000
3001
00M0
1000
0000
0M01
2000
30M0
0002
2000
3003
0110
0000
1000
0000
,
0101
0000
0010
0000
1000
0100
0010
0001
0100
0001
0010
0100
0010
0000
1000
0100
,
1000
0000
0000
0100
0000
0000
1000
0000
0000
0100
0000
0000
1000
0000
0000
0000
0010
0000
0000
0000
0100
0000
0000
0000
0001
0000
0000
0000
0010
0000
0000
0000
0100
0000
0000
0000
0011
0000
0000
0000
0000
0000
0100
0000
0000
0000
0000
0000
,
0010
0000
0000
0001
0000
0000
0100
0000
0010
0000
1000
0000
0001
0000
0010
0000
0100
0000
1100
0000
0000
0000
0011
0000
,
0011
0000
0000
0000
0000
0000
0000
0000
0000
0000
0000
0000
0000
0000
0000
0000
2002
0000
0000
0000
0000
0000
0000
0000
0000
0000
0000
0000
0000
3000
0000
0000
1013
0000
0000
0000
0000
0000
0000
0000
0100
0000
0000
0000
0000
0000
0000
0000
0101
0000
0000
0000
0000
0000
0000
0000
0001
0000
0000
0000
0000
0000
0000
0000
,
0002
0000
0000
0003
0011
0110
1100
0001
,
0200
0000
0000
0300
1010
0100
0001
0001
,
0020
0000
0000
0000
0000
0000
0030
0000
1100
0000
0000
0000
0011
0000
0001
0010
,
00M0
0010
0100
0000
100M
0000
0010
0100
0M00
0100
2002
0000
0000
0000
0000
0000
,
0000
0000
0000
0000
,
0000
0000
0000
0000
,
0000
0000
0000
0000
,
0000
0000
0000
0000
,
0000
3003
0000
0000
0000
0000
0000
0000
;

//---------------dance-single - ----------------
#NOTES:
     dance-single:
     :
     Easy:
     1:
     0.000,0.000,0.000,0.000,0.000,0.000,0.000,0.000,0.000,0.000:
0000
0000
0000
0000
;
