#TITLE:Hula Balu;
#SUBTITLE:;
#ARTIST:Ron Mancuso;
#TITLETRANSLIT:;
#SUBTITLETRANSLIT:;
#ARTISTTRANSLIT:;
#CREDIT:;
#BANNER:banner.png;
#BACKGROUND:bg.png;
#LYRICSPATH:;
#CDTITLE:minionthanh.png;
#MUSIC:Hula Balu.mp3;
#OFFSET:0.000;
#SAMPLESTART:100.000;
#SAMPLELENGTH:12.000;
#SELECTABLE:YES;
#BPMS:0.000=120.000;
#STOPS:;
#BGCHANGES:;
// cache tags:
#FIRSTBEAT:0.000;
#LASTBEAT:249.000;
#SONGFILENAME:Songs/toune 6/Hula Balu (Minion133 & Thanh)/Hula Balu.sm;
#HASMUSIC:1;
#HASBANNER:1;
#MUSICLENGTH:127.235;
// end cache tags

//---------------dance-single - Thanh----------------
#NOTES:
     dance-single:
     Thanh:
     Hard:
     11:
     1.000,1.000,1.000,0.401,1.000,758.000,206.000,51.000,22.000,22.000:
1000
0001
0001
1000
0100
0100
0010
0001
0001
0100
0010
0010
1000
0100
0100
0010
,
0001
0101
0000
0100
0110
0000
1000
1010
0100
0010
1000
0100
0010
0100
1000
1000
,
0001
0100
0101
0000
0010
1010
0000
1000
1001
0000
0100
1100
0000
0010
0011
0000
,
0001
1001
0000
0100
0101
0000
0010
0011
0000
1000
1100
0000
1100
0110
0011
0000
,
1001
0000
0101
0000
0110
0000
1010
1010
0000
1000
1100
1001
0000
0001
0101
1001
,
0000
1010
0000
0010
1001
0000
1000
0100
0000
0100
0010
0000
1001
0000
0100
0000
,
1001
0000
0000
0001
0110
0000
0100
0010
0000
0010
1000
0000
1100
0000
0010
0000
,
0011
0000
0000
0001
1001
0000
1000
0100
0000
0100
0010
0000
0011
0000
0100
0000
,
0001
1000
0001
1000
0001
1000
0001
1000
0001
0000
0000
0000
0010
0000
1000
0000
0000
0000
1000
0000
0001
0000
0000
0000
0101
0000
0000
0000
0010
0000
0000
0000
,
1001
1100
0000
1100
0110
0000
0110
0011
0000
1001
0101
0110
1010
0110
0101
0000
,
1010
0110
0000
0110
0101
0000
0101
1010
0000
1010
1100
0000
0110
0000
0011
0000
,
0110
1100
0000
1100
1001
0000
0101
1010
0000
1001
0101
0000
0101
0110
1010
0000
,
1000
0001
1000
0001
1000
0001
1000
0001
1000
0000
0001
0000
0100
0000
0100
0000
0010
0000
1000
0000
1000
0000
0100
0000
0010
0000
0001
0000
0100
0000
0010
0000
,
1001
0000
0000
1001
0101
0000
0110
1010
0000
1100
0011
0000
1001
0000
0100
0000
,
1001
0000
0000
0011
1100
0000
1100
0011
0000
1001
1100
0000
0110
0000
0001
0000
,
0110
0000
0000
1001
0110
0000
1001
0101
0000
1010
1100
0000
0011
0000
0100
0000
,
0001
1000
0001
1000
0001
1000
0001
1000
0001
0000
0100
0000
0010
0000
1000
0000
1000
0000
0100
0000
0010
0000
0001
0000
0001
0000
0100
0000
0010
0000
1000
0000
,
0200
0000
0000
0000
0321
000M
0000
0000
0032
0000
0000
0000
0213
00M0
0320
0000
,
2030
0000
0000
0000
3210
00M0
0000
0000
0320
0000
0000
0000
2031
000M
3020
0000
,
0032
0000
0000
0000
0213
00M0
0000
0000
0320
0000
0000
0000
2031
000M
3002
0000
,
0203
0000
0000
0000
2310
00M0
0000
0000
3200
0000
0000
0000
0312
00M0
0000
0000
,
0123
0M00
0000
0000
2031
000M
0000
0000
3200
0000
0000
0000
0321
000M
0032
0000
,
0203
0000
0000
0000
1320
M000
0000
0000
2030
0000
0000
0000
3210
00M0
0320
0000
,
0032
0000
0000
0000
0213
00M0
0000
0000
0320
0000
0000
0000
2130
0M00
3002
0000
,
0203
0000
0000
0000
0320
0000
0000
0000
2030
0000
0000
0000
3120
0M00
0000
0000
,
1032
M000
0000
0000
0123
0M00
0000
0000
0230
0000
0000
0000
2310
00M0
3020
0000
,
0032
0000
0000
0000
2103
0M00
0000
0000
3002
0000
0000
0000
1023
M000
2030
0000
,
3210
00M0
0300
0000
0110
1001
0000
0000
0110
0000
0101
0000
1010
0000
0000
0000
,
0010
0100
0010
0100
0010
0100
0010
0100
0010
0000
0000
0000
0000
0000
1010
0000
0000
0000
0000
0000
0101
0000
0000
0000
1010
0000
0000
0000
0000
0000
0000
0000
,
1100
0000
0000
1001
0011
0000
0000
0101
0000
0000
1010
0000
0110
0000
0000
0000
,
0100
0010
0100
0010
0100
0010
0100
0010
0100
0000
0000
0000
0000
0000
1001
0000
0000
0000
0000
0000
1100
0000
0000
0000
0011
0000
0000
0000
0000
0000
0000
0000
,
1001
0100
0010
0001
0100
0010
0010
1000
0100
0100
0010
0001
1000
1000
1000
0010
,
0000
0010
0100
0001
0100
0010
1000
1000
0010
0001
0010
0010
1000
1000
1000
0100
,
0000
0100
0010
0001
0100
0010
0010
1000
0100
0010
0001
1000
1000
1000
0001
0000
,
0001
0100
0001
0100
0001
0100
0001
0100
0001
0000
1000
0000
1000
0000
1000
0000
0100
0000
0100
0000
0010
0000
0010
0000
0010
0000
0001
0000
0001
0000
0100
0000
,
0000
0010
0010
0000
1000
1000
1000
1000
0100
0100
0100
0100
0010
0010
0010
0001
,
0000
0100
0100
0000
0010
0010
0010
0010
1000
1000
1000
1000
0001
0001
0001
0100
,
0000
0100
0010
0000
1000
0100
0000
0010
0001
0000
0100
0010
1000
0001
0100
0000
,
1000
0010
1000
0010
1000
0010
1000
0010
1000
0000
0001
0000
0001
0000
0001
0000
0001
0000
0100
0000
0100
0000
0100
0000
0010
0000
0010
0000
1000
0000
1000
0000
,
1001
0100
0010
0001
0100
0010
0010
1000
0100
0100
0010
0001
1000
1000
1000
0010
,
0000
0010
0100
0001
0100
0010
1000
1000
0010
0001
0010
0010
1000
1000
1000
0100
,
0000
0100
0010
0001
0100
0010
0010
1000
0100
0010
0001
1000
1000
1000
0001
0000
,
0001
0100
0001
0100
0001
0100
0001
0100
0001
0000
1000
0000
1000
0000
1000
0000
0100
0000
0100
0000
0010
0000
0010
0000
0010
0000
0001
0000
0001
0000
0100
0000
,
0000
0010
0010
0000
1000
1000
1000
1000
0100
0100
0100
0100
0010
0010
0010
0001
,
0000
0100
0100
0000
0010
0010
0010
0010
1000
1000
1000
1000
0001
0001
0001
0100
,
0000
0100
0010
0000
1000
0100
0000
0010
0001
0000
0100
0010
1000
0001
0100
0000
,
1000
0010
1000
0010
1000
0010
1000
0010
1000
0000
0001
0000
0001
0000
0001
0000
0001
0000
0100
0000
0100
0000
0100
0000
0010
0000
0010
0000
1000
0000
1000
0000
,
1001
0100
0010
0001
1100
0010
0001
1000
0110
0001
1000
0100
1001
0100
1010
0100
,
0011
0100
0001
0010
1100
0010
0001
0010
1001
0100
1000
0010
0101
0010
1001
0010
,
1100
0010
1000
0100
0011
0100
0010
0001
1010
0100
0010
0100
1010
0001
0110
0001
,
1100
0010
1000
0001
0110
1000
0010
1000
0101
0010
1000
0100
0011
0100
0001
1000
,
0110
0001
0010
0100
1001
0100
0010
0100
1001
0010
1000
0100
0011
1000
0110
1000
,
0101
0010
0001
0100
1010
0100
0010
1000
0101
0010
0100
0001
1010
0100
0010
0001
,
1100
0001
1000
0100
1001
0010
0100
1000
0110
0010
0001
0100
1010
0100
1001
0100
,
0011
0100
0010
0001
1100
0010
1000
0100
1001
0010
0100
0001
1100
0010
0001
0100
,
1010
0100
0010
0001
0110
1000
0100
0010
1001
0010
0100
1000
0011
0100
1001
0100
,
1010
0100
0001
0010
1001
0010
1000
0100
1001
0010
0001
0100
1010
0100
0001
0010
,
1001
0010
0100
0010
1001
0010
1000
0001
0110
1000
0001
0010
1001
0100
1010
0100
,
0011
0100
0010
1000
0110
1000
0010
1000
0101
0010
1000
0001
0110
0001
0100
0010
,
1001
0000
0000
1001
1100
0000
0000
0110
0000
0000
0011
0000
1001
0000
1010
0000
,
1000
0010
1000
0010
1000
0010
1000
0010
1000
0000
0000
0000
0000
0000
0110
0000
0000
0000
0000
0000
1010
0000
0000
0000
0101
0000
0000
0000
0000
0000
0000
0000
,
1001
1001
0000
1100
0110
0000
0100
0000
0000
0110
0110
0000
0011
1100
0000
0000
,
2002
3003
0000
0000
;

//---------------dance-single - Minion133----------------
#NOTES:
     dance-single:
     Minion133:
     Challenge:
     12:
     1.000,1.000,1.000,1.000,1.000,983.000,191.000,415.000,40.000,35.000:
0000
0000
0000
0000
,
0100
0000
0100
0000
0000
0000
0010
0000
0010
0000
0000
0000
0001
0000
0001
0000
1000
0000
1000
0000
0010
0000
0010
0000
0100
0000
0100
0000
0001
0010
0001
0000
,
1000
0000
1000
0000
0010
0000
0010
0000
0010
0000
0000
0000
0100
0010
0100
0000
1000
0000
1000
0000
1000
0000
0010
0000
0010
0000
0000
0000
0100
1000
0100
0000
,
0010
0000
0010
0000
0000
0000
0001
0000
0001
0000
0000
0000
1000
0100
1000
0000
0010
0000
0010
0000
0000
0000
0001
0000
0001
0000
0000
0000
0001
0010
0001
0000
,
1010
0100
1010
0100
0011
0002
1100
1100
0013
0110
0110
0010
1100
1000
1000
1000
,
0011
0011
0000
0100
1010
0000
0001
0100
0000
1000
0000
0100
0011
0011
1010
1010
,
0101
0101
0000
0010
1100
0000
0001
0100
0000
1000
0000
0001
1010
0000
0202
0303
,
0110
0000
0000
0010
1100
0000
0001
0100
0000
0010
0000
0100
0011
0011
1001
1001
,
0101
0010
0100
1000
0100
0010
0001
0000
0110
0000
0110
0000
1000
0000
0010
0000
0000
0000
0100
0000
0000
0000
0001
0000
1010
0000
0000
0000
2200
0000
3300
0000
,
0010
0010
0000
0020
1031
0000
0100
0100
0001
0001
1000
0010
1010
0100
0001
0001
,
0020
0100
0000
0100
0101
0030
0010
0010
1000
1000
0200
0320
0101
0001
0100
0130
,
1000
1000
0002
0010
1100
0000
0010
0013
0000
0001
0001
0010
1010
0000
0100
0000
,
0010
0100
1000
0010
0100
1000
0010
0100
1001
0010
0100
1000
0001
0000
0010
0000
0000
0000
0010
0000
1000
0000
0000
0000
0110
0000
0000
0000
0101
0000
0000
0000
,
1010
0000
0000
0100
0110
0000
0001
1010
0000
0100
0011
0000
1010
0000
2200
3300
,
0001
2010
0100
0000
3110
0001
1000
0010
0000
0100
1000
0020
0001
0000
0130
0000
,
0010
0002
0000
1000
0110
0000
0013
1000
0000
0010
1000
0000
0101
0000
0002
0000
,
0113
0000
0010
0100
1000
0100
0010
0001
0010
0100
1000
0100
0010
0001
0110
0000
0100
0000
0010
0000
0000
0000
0100
0000
0011
0000
0000
0000
0110
0000
0000
0000
,
2000
302M
0230
0302
2003
3020
0230
0302
0023
M032
0203
2300
3020
0032
0203
2300
,
3002
1000
02M3
0001
0320
1000
0032
0100
2003
0010
3200
0000
0320
0000
0032
0000
0023
0000
203M
0000
3200
0000
0302
0000
0023
0000
2030
0000
3200
0000
0320
0000
,
2030
0001
3M20
1000
0230
0010
0302
0010
2003
0000
3020
0000
0230
0000
0302
0000
0023
0000
0M32
0000
0203
0000
2300
0000
3020
0000
0032
0000
0203
0000
2300
0000
,
3002
0100
M023
0001
0230
0010
2300
0100
3002
1000
0023
0000
0230
0000
2300
0000
3200
0000
M302
0000
0023
0000
2030
0000
3200
0000
0302
0000
0023
0000
0230
0000
,
2300
0001
302M
1000
0230
1000
0302
0010
2003
0100
3020
0000
0230
0000
0302
0000
0023
0000
0M32
0000
0203
0000
2300
0000
3020
0000
0032
0000
0203
0000
2300
0000
,
3002
0100
M023
0001
0230
0010
2300
0010
3002
0100
0023
0000
0230
0000
2300
0000
3200
0000
03M2
0000
0023
0000
2030
0000
3200
0000
0302
0000
0023
0000
0230
0000
,
2300
0001
3M20
0001
0230
1000
0302
0100
2003
0001
3020
0001
0230
1000
0302
0000
0023
0000
M032
0000
0203
0000
2300
0000
3020
0000
0032
0000
0203
0000
2300
0000
,
3002
0100
M023
0001
0230
0010
2300
0010
3002
0100
0023
0000
0230
0000
2300
0000
3200
0000
03M2
0000
0023
0000
2030
0000
3200
0000
0302
0000
0023
0000
0230
0000
,
0320
0100
0M32
1000
0023
0100
2030
0001
3020
0000
0032
0000
0023
0000
0230
0000
0320
0000
0M32
0000
0203
0000
2300
0000
3020
0000
0032
0000
0203
0000
2300
0000
,
3002
1000
0M23
0001
0230
0010
2300
0010
3002
0100
0023
0000
0230
0000
2300
0000
3200
0001
M320
0000
0032
0000
2003
0000
3200
0000
0320
0000
0032
0000
2003
0000
,
3202
0000
0000
0000
0000
0000
0010
0000
0010
0000
0000
0000
0010
0000
0010
0000
2013
0000
0000
0000
0001
0000
0000
0000
0011
0000
0000
0000
3322
0033
0000
0000
,
0020
0001
0100
1000
0100
0001
0100
1000
0100
0001
0100
0000
0000
0000
1030
0000
2000
0000
0000
0000
0001
0000
0000
0000
0110
0000
0000
0000
0000
0000
0000
0000
,
3020
0000
0230
0000
0300
0000
0002
0000
0023
0000
0030
0000
0200
0000
2300
0000
3000
0000
0100
0000
0010
0000
0001
0000
0110
0000
0000
0000
2020
3030
0000
0000
,
1002
0100
1000
0100
1000
0100
1003
0100
0001
0000
0010
0000
0001
0000
0010
0000
2000
0000
0001
0000
0010
0000
3000
0000
1001
0000
0000
0000
0010
0000
0100
0000
,
1001
1001
0000
1010
1010
0000
0110
0101
0000
0011
0000
1010
1010
0101
1100
0110
,
0011
0011
1010
1100
0011
1010
1001
1001
0110
1010
1100
1010
1001
0101
0110
1010
,
0101
0000
0101
0000
0011
0000
0011
0000
1001
0000
0101
0000
0011
0000
0101
0000
1001
0000
1010
0000
1100
0000
1010
0000
0101
0000
0011
0000
1001
0000
1010
0100
,
0010
0100
0010
0100
0010
0100
0010
0100
1010
0000
0101
0000
0011
0000
1010
0000
1100
0000
0101
0000
1010
0000
1100
0000
0110
0000
0101
0000
1010
0000
1100
0000
,
0200
0000
0010
0000
0001
0000
0301
0000
1010
0000
0100
0000
1000
0000
1000
0000
0100
0000
0010
0000
0100
0000
0010
0000
0101
0000
0010
0000
0010
0000
1000
0100
,
0001
0000
0001
0000
0010
0000
0100
0000
1001
0000
1000
0000
0010
0100
1000
0000
1000
0000
0001
0000
0001
0000
0010
0000
1100
0000
1100
0000
1001
0000
0110
0000
,
0011
0000
0101
0000
1001
0000
1010
0000
0101
0000
1100
0000
0011
0000
0011
0000
1010
0000
0002
0000
0023
0000
2030
0000
3200
0000
0302
0000
0203
0300
0200
0300
,
0001
0010
0100
1000
0100
0010
0100
1000
0011
0000
0100
0000
0110
0000
0000
0000
1100
0000
0000
0000
1001
0000
0000
0000
0101
0000
0000
0000
0010
0000
0000
0000
,
0100
0000
0100
0000
2000
0000
0001
0000
0011
0000
0000
0000
0200
0000
0320
0000
3030
0000
0200
0000
0302
0000
0023
0000
0230
0000
2300
0000
3020
0030
0020
0030
,
2000
3000
2000
3000
0202
0003
0002
0003
0020
0030
0020
0030
2000
3000
2000
3000
0320
0030
0020
0030
0202
0300
0200
0300
2010
3000
0020
0030
2003
3000
0020
0030
,
0200
0300
0010
0000
2002
0000
0010
0000
0110
0000
0000
0000
0100
0000
0100
0000
3003
0000
0010
0000
0100
0000
0000
0000
1010
0000
0000
0000
0202
0303
0000
0000
,
1000
0100
0010
0001
1000
0100
0010
0001
1010
0100
0010
0001
0010
0000
0100
0000
0000
0000
1000
0000
0100
0000
0000
0000
0101
0000
0000
0000
0010
0000
0000
0000
,
1010
0000
0101
0000
0000
0000
0010
0000
1010
0000
0000
0000
0100
0000
0010
0000
0000
0000
0100
0000
0001
0000
0000
0000
1100
0000
0000
0000
0202
0303
0000
0000
,
0010
0000
0100
0000
0000
0000
1000
0000
0101
0000
0000
0000
0100
0000
0010
0000
0000
0000
0001
0000
0010
0000
0000
0000
1001
0000
0000
0000
0220
0330
0000
0000
,
0110
0000
0101
0000
1001
0000
0110
0000
1010
0000
1100
0000
1001
0000
0110
0000
0000
0000
0001
0000
0010
0000
0000
0000
0110
0000
0000
0000
2020
3030
0000
0000
,
0010
0100
0010
0100
0010
0100
0010
0100
0010
0100
0010
0100
0010
0100
0020
0000
0230
0000
0320
0000
0000
0000
0000
0000
0000
0000
0000
0000
0000
0000
0000
0030
,
0002
M203
0320
2030
3002
0203
0320
2030
3200
230M
3020
0032
0203
2300
3020
0032
,
2003
0001
3M20
1000
0230
0001
2300
0010
3002
0100
0023
0000
0230
0000
2300
0000
3200
0000
M302
0000
0023
0000
2030
0000
3200
0000
0302
0000
0023
0000
0230
0000
,
0302
1000
02M3
0001
0320
0100
2030
0100
3002
0000
0203
0000
0320
0000
2030
0000
3200
0000
23M0
0000
3020
0000
0032
0000
0203
0000
2300
0000
3020
0000
0032
0000
,
2003
0010
320M
1000
0320
0100
0032
0010
2003
0001
3200
0000
0320
0000
0032
0000
0023
0000
203M
0000
3200
0000
0302
0000
0023
0000
2030
0000
3200
0000
0320
0000
,
0032
1000
M203
0001
0320
0001
2030
0100
3002
0010
0203
0000
0320
0000
2030
0000
3200
0000
23M0
0000
3020
0000
0032
0000
0203
0000
2300
0000
3020
0000
0032
0000
,
2003
0010
320M
1000
0320
0100
0032
0100
2003
0010
3200
0000
0320
0000
0032
0000
0023
0000
2M30
0000
3200
0000
0302
0000
0023
0000
2030
0000
3200
0000
0320
0000
,
0032
1000
02M3
1000
0320
0001
2030
0010
3002
1000
0203
1000
0320
0001
2030
0000
3200
0000
230M
0000
3020
0000
0032
0000
0203
0000
2300
0000
3020
0000
0032
0000
,
2003
0010
320M
1000
0320
0100
0032
0100
2003
0010
3200
0000
0320
0000
0032
0000
0023
0000
2M30
0000
3200
0000
0302
0000
0023
0000
2030
0000
3200
0000
0320
0000
,
0230
0010
23M0
0001
3200
0010
0302
1000
0203
0000
2300
0000
3200
0000
0320
0000
0230
0000
23M0
0000
3020
0000
0032
0000
0203
0000
2300
0000
3020
0000
0032
0000
,
2003
0001
32M0
1000
0320
0100
0032
0100
2003
0010
3200
0000
0320
0000
0032
0000
0023
1000
023M
0000
2300
0000
3002
0000
0023
0000
0230
0000
2300
0000
3002
0000
,
1013
0000
0000
0000
0000
0000
0100
0000
0110
0000
0000
0000
0002
0000
0013
0000
0000
0000
0002
0000
0013
0000
0000
0000
1001
0000
0000
0000
0220
0330
0000
0000
,
0001
0100
0001
0100
0001
1000
0010
1000
0010
1000
0010
1000
0001
0000
0010
0000
0000
0000
0001
0000
0010
0000
0000
0000
1010
0000
0000
0000
0000
0000
0000
0000
,
0101
0000
0101
0000
0000
0000
0010
0000
1010
0000
0000
0000
0200
0300
0010
0000
0000
0000
0200
0300
0010
0000
0000
0000
0011
0000
0000
0000
2020
3030
0000
0000
,
0101
0010
0100
1000
0101
0010
0100
1000
0101
0010
0100
1000
0010
0000
0001
0000
0010
0000
0000
0000
0110
0000
0000
0000
0110
0000
0000
0000
1000
0000
0000
0000
,
0111
1110
0000
1101
0111
0000
0100
0000
1011
0111
0000
1011
2222
0000
0000
0000
,
3333
0000
0000
0000
;
