#TITLE:Initial D;
#SUBTITLE:- Final Countdown;
#ARTIST:Dave Rodgers;
#TITLETRANSLIT:;
#SUBTITLETRANSLIT:;
#ARTISTTRANSLIT:;
#CREDIT:;
#BANNER:InitialDFinalLogo.png;
#BACKGROUND:InitialDFinalBG.png;
#LYRICSPATH:;
#CDTITLE:;
#MUSIC:InitialDFinal.mp3;
#OFFSET:0.340;
#SAMPLESTART:79.260;
#SAMPLELENGTH:12.000;
#SELECTABLE:YES;
#BPMS:0.000=154.500,144.500=309.000,161.500=154.500;
#STOPS:;
#BGCHANGES:18.000=nightoffire.avi=1.000=0=0=1,
349.500=initialdfinalbg.png=1.000=0=0=1,
99999=-nosongbg-=1.000=0=0=0 // don't automatically add -songbackground-
;
// cache tags:
#FIRSTBEAT:13.000;
#LASTBEAT:349.500;
#SONGFILENAME:Songs/Anime Songs/Initial D Final/InitialDFinal.sm;
#HASMUSIC:1;
#HASBANNER:1;
#MUSICLENGTH:133.593;
// end cache tags

//---------------dance-single - BASIC----------------
#NOTES:
     dance-single:
     BASIC:
     Easy:
     4:
     0.364,0.360,0.299,0.052,0.000,293.000,40.000,7.000,0.000,0.000:



0000
0000
0000
0000
,
0000
0000
0000
0000
,
0000
0000
0000
0000
,
0000
1001
0000
1001
,
0100
0100
1000
0010
,
0010
1000
1000
0001
,
0001
1001
0010
0001
,
1000
0200
0001
0001
,
0001
0301
0010
0001
,
1000
0001
1000
1001
,
0010
1001
0100
1000
,
0110
0010
0010
0010
,
0010
1001
0010
1000
,
0100
0010
0001
1000
,
1001
0010
0010
0010
,
0100
0100
0100
0001
,
1000
0001
0001
0010
,
0010
1000
0100
0100
,
1001
0100
0001
1000
,
1001
0000
0010
0000
0000
0100
0000
0000
,
0100
0100
0100
0100
,
0100
1001
0010
0010
,
0010
0001
0001
0001
,
0100
0100
0100
1000
,
1000
1000
0010
0100
,
1000
0001
0100
0010
,
0001
1000
0010
0100
,
0010
0001
0010
0001
,
0100
0000
1000
0000
0000
0000
0000
0101
,
0000
1001
0010
0010
,
0000
1001
0010
0010
,
0000
1001
0010
0010
,
0000
1001
0010
0010
,
0000
1001
0000
1001
,
0000
1001
0000
1001
,
0000
1001
0000
1001
,
0000
0020
0000
0000
0000
0000
0000
0000
,
0000
0000
0000
0000
,
0000
0000
0000
0000
,
0000
0000
0000
0000
0000
0000
0000
0030
,
0000
0000
0000
0000
0000
1001
0000
0001
,
0000
0010
0000
0010
0000
1000
0000
0100
,
0000
0001
0000
0010
0000
0001
0000
1000
,
0000
0010
0000
0100
0000
0000
0220
0000
,
0000
0000
0000
0330
0000
0001
0000
0001
,
0000
1000
0000
1000
0000
0000
0100
0000
,
0000
1001
0000
1000
0000
0001
0000
1000
,
0000
0001
0000
1000
0000
0001
0000
1001
,
0000
0010
0000
0010
0000
0001
0000
0001
,
0000
0010
0000
0100
0000
0010
0000
1000
,
0000
0001
0000
1001
0000
0001
0000
0001
,
0000
0001
0000
1000
0000
1000
0000
1000
,
0000
0010
0000
0010
0000
0001
0000
0001
,
0000
0001
0000
0101
0000
0100
0000
0010
,
0000
0001
0000
0100
0000
1000
0000
0010
,
0000
0010
0000
0001
0000
1000
0000
1000
,
0000
0010
0000
0010
0000
0001
0000
0100
,
0000
0110
0000
0001
0000
1000
0000
0010
,
0000
0010
0000
0001
0000
0100
0000
0001
,
0000
1000
0000
0100
0000
0001
0000
1000
,
0000
1000
0000
1001
0000
0000
1001
0000
,
0000
0000
0000
1001
0000
1000
0000
0010
,
0000
0001
0000
0100
0000
0001
0000
0100
,
0000
0010
0000
0001
0000
1000
0000
0100
,
0000
0010
0000
1000
0000
0100
0000
0010
,
0000
1001
0000
0100
0000
0010
0000
0100
,
0000
1000
0000
0001
0000
0100
0000
0010
,
0000
1000
0000
0001
0000
0100
0000
0100
,
0000
0010
0000
1001
0000
0000
2002
0000
,
0000
3003
0000
0000
,
0000
1001
0000
0010
0000
1000
0000
0010
,
0000
0100
0000
0001
0000
1000
0000
0100
,
0000
0001
0000
0010
0000
0100
0000
0010
,
0000
0001
0000
0100
0000
0010
0000
0001
,
0000
1000
0000
0100
0000
1000
0000
0100
,
0000
0100
0000
0001
0000
0100
0000
0100
,
0000
0001
0000
0100
0000
0010
0000
1000
,
0000
0100
0000
1000
0000
1000
0000
0100
,
0000
1000
0000
1001
0000
0010
0000
0100
,
0000
0010
0000
0100
0000
0001
0000
1000
,
0000
0100
0000
1000
0000
1000
0000
0001
,
0000
0001
0000
0001
0000
0001
0000
0001
,
0000
0020
0000
0030
0000
0010
0000
0001
,
0000
1000
0000
0010
0000
0001
0000
0010
,
0000
0000
1100
0000
0000
0001
0000
1000
,
0000
0000
0101
0000
0000
1000
0000
1000
,
0000
0100
0000
1000
0000
1000
0000
1000
,
0000
1000
0000
1001
0000
0000
0000
0000;

//---------------dance-single - ANOTHER----------------
#NOTES:
     dance-single:
     ANOTHER:
     Medium:
     6:
     0.423,0.458,0.397,0.022,0.000,340.000,53.000,3.000,0.000,0.000:






0000
0000
0000
0000
,
0000
0000
0000
0000
,
0000
0000
0000
0000
,
0000
0010
0000
1001
,
0000
0100
1000
0010
,
0001
0000
1000
0010
1000
0000
0000
0010
,
0000
1001
0000
0000
0010
0000
0001
0000
,
1000
0000
0100
1000
0100
0000
0100
1000
,
0100
1001
0010
0001
,
1000
0000
0001
0000
1000
0000
0000
1001
,
0000
0110
0000
0000
0010
0000
0100
0100
,
0000
0010
0010
0010
,
0010
1001
0010
1000
,
0101
0010
0010
0011
,
0001
0101
1000
0010
,
0001
1000
0000
0001
1000
0000
0010
0000
,
0010
0000
0010
0000
0010
0000
1000
1000
,
0000
0000
1000
0000
0100
0000
0000
0110
,
0000
1100
0000
0000
0010
0001
0010
0000
,
0110
0000
0200
0000
0000
0301
0000
0000
,
0100
0100
0100
0100
,
0100
1001
0010
0010
,
0010
1000
0000
0000
0100
0000
0000
0010
,
0001
0000
0010
0000
0010
0000
0100
1000
,
0000
1000
0010
0100
,
0001
0010
0000
0000
0100
0000
0010
0000
,
1000
0010
0000
0000
0010
0000
0100
0000
,
0010
0001
0000
0000
0010
0001
0000
0000
,
0100
0000
1000
0001
0000
0100
0000
0001
,
0000
1001
0010
0010
,
0010
1001
0010
0010
,
0010
1001
0010
0010
,
0010
1001
0010
0010
,
0010
1001
0010
1001
,
0010
1001
0010
1001
,
0010
1001
0010
1001
,
0010
0020
0000
0000
0000
0000
0000
0000
,
0000
0000
0000
0000
,
0000
0000
0000
0000
,
0000
0000
0000
0000
0000
0000
0000
0030
,
0000
0000
0000
0100
0000
0001
0000
0001
,
0000
0001
0000
0010
0000
1000
0100
1000
,
0000
0001
0000
0001
0000
0001
0010
0001
,
0000
1000
0000
2000
0000
0000
0001
0000
,
0000
0000
0000
3001
0000
0001
1000
0001
,
1000
0000
0000
0000
0010
0001
0010
0000
,
0000
1100
0000
1000
0000
1000
0000
1000
,
0000
0001
0000
0001
0000
0001
0000
1001
,
0000
0000
0000
0010
0000
0010
0000
0001
,
1000
0000
0000
0100
0000
0100
0000
1001
,
0000
0101
0000
1100
0000
0001
0000
0001
,
0100
0001
0000
1000
0100
1000
0000
0001
,
0100
0001
0000
0100
0000
1001
0000
0110
,
0000
1001
0000
1001
0000
0100
0000
0010
,
0010
0000
0000
0100
0000
0100
0000
0010
,
0000
0001
0000
0101
0000
1000
0100
1000
,
0000
0010
0000
0000
0001
0100
0000
0100
,
0000
0110
0000
0001
0000
1000
0000
0100
,
0010
0000
0000
0010
0000
0100
0000
0110
,
0000
1001
0000
0000
0000
0001
0010
0001
,
0000
0010
0000
0100
0000
0000
1001
0000
,
0010
0100
0000
1001
0000
1000
0000
0010
,
0000
0101
0000
0100
0000
0010
0000
1100
,
0000
0010
0000
0001
0000
0110
0000
0100
,
0000
1000
0000
0110
0000
0010
0000
1100
,
0000
1001
0000
0101
0000
0010
0001
0100
,
0000
1000
0000
0100
0000
0010
0100
0010
,
0000
1000
0000
0001
0000
0100
0000
0100
,
0000
0100
0000
1001
0000
0000
1001
0000
,
0000
0010
0000
0010
0000
0010
0000
0010
,
0000
0010
0000
0000
0000
1000
0000
0010
,
0000
0101
0000
0001
0000
0100
0000
0100
,
1000
0100
0000
0100
0000
0100
0000
0011
,
0000
1000
0000
0010
0001
0010
0000
0010
,
0001
0010
0000
0010
0000
1000
0000
0100
,
0000
1001
0000
0001
0000
0100
0000
0100
,
0010
0100
0000
0100
0000
0001
0000
1000
,
0000
0100
0000
0010
0100
1000
0000
0010
,
0100
1000
0000
0001
0000
0010
0000
0100
,
0010
0100
0000
0100
0000
1000
0000
0010
,
0001
0100
0000
1000
0000
1000
0000
0001
,
0000
0001
0000
0001
1000
0001
1000
0001
,
1000
0001
0000
0000
0000
0010
0001
1000
,
0000
1000
0100
0010
0000
0001
0010
0100
,
0000
0100
1000
0100
0000
0001
0010
0001
,
0000
0101
0000
0101
0000
0100
0000
0100
,
0000
1001
0000
1000
0000
1000
0000
1000
,
0000
1000
0000
0001
0000
0000
0000
0000;

//---------------dance-single - MANIAC----------------
#NOTES:
     dance-single:
     MANIAC:
     Hard:
     8:
     0.531,0.556,0.367,0.030,0.004,444.000,49.000,4.000,0.000,0.000:

0000
0000
0000
0000
,
0000
0000
0000
0000
,
0000
0000
0000
0000
,
0000
1001
0010
1001
,
0100
0000
0100
0000
1000
0000
0010
0010
,
0000
0000
1000
0100
1000
0010
0000
0100
,
0000
0110
0000
0000
0010
0000
0001
0001
,
0000
1000
0100
0001
0100
1000
0100
0001
,
0100
1000
0000
0000
0010
0000
0001
1000
,
0000
0000
0001
0010
1000
0010
0000
1001
,
0000
0101
0000
0000
0100
0000
1000
1100
,
0000
0010
0010
0010
,
0010
0000
1001
0000
0010
0000
1000
0001
,
0000
0000
0010
0001
0010
1000
0000
0011
,
0000
0001
0000
0000
0010
1000
0010
0001
,
0001
1000
0000
0100
0100
0000
0010
0000
,
0010
0000
0010
0000
0001
0000
0100
0100
,
0000
0000
1000
0010
0100
0001
0000
0110
,
0000
1100
0000
0000
0010
0001
0010
0000
,
0110
0000
2100
0000
0000
3001
0000
0000
,
0100
0000
0100
0000
0100
0000
0100
0100
,
0100
0100
1001
0000
0010
0000
0010
0000
,
0010
1000
0010
0000
0100
0000
0100
0001
,
0010
0000
0010
0000
0010
0001
0100
0010
,
1000
0000
1000
0100
0010
0001
0100
0000
,
0001
0010
0001
0000
0100
0000
0010
0000
,
1000
0010
1000
0000
0010
0000
0100
0000
,
0010
0001
0010
0000
0010
0001
0010
0000
,
0100
0000
1000
1000
0000
0010
0000
0101
,
0000
0000
1001
0000
0010
0100
0010
0100
,
0000
0000
1001
0000
0010
0100
0010
0100
,
0000
0000
1001
0000
0010
0100
0010
0100
,
0000
0000
1001
0000
0010
0100
0010
0100
,
0010
1001
0010
1001
,
0100
1001
0010
1001
,
0100
1001
0010
1001
,
0010
0020
0000
0000
0000
0000
0000
0000
,
0000
0000
0000
0000
,
0000
0000
0000
0000
,
0000
0000
0000
0000
0000
0000
0000
1030
,
0000
0000
0000
1001
0000
0101
0000
0001
,
0001
0000
0000
0010
0010
1000
0100
0000
,
0010
0000
0001
0000
0000
0001
0010
0001
,
0000
1000
0000
2000
0000
0000
0020
0000
,
0000
0000
0000
3030
0000
0001
1000
0001
,
1000
0000
0000
0000
0010
0001
1010
0000
,
0000
0101
0000
1000
0010
0001
0010
1000
,
0010
0001
1000
0100
0001
0100
1000
1001
,
0000
0000
0000
0010
0000
0010
0000
0001
,
0010
0000
0000
0010
0010
0010
0010
1100
,
0000
0101
0000
1001
0000
0001
0000
0001
,
0001
0001
0000
1000
0100
1000
0100
1000
,
0001
0100
0001
0100
0000
1001
0000
1100
,
0000
0101
0000
0110
0000
0100
0000
0010
,
0010
0000
0000
0100
0001
0100
1000
0000
,
0010
0000
0001
0000
0000
1000
0100
1000
,
0100
0010
0001
0000
0001
0001
0000
0100
,
0000
0110
0000
0001
0000
1000
0000
0100
,
0100
0000
0000
0001
1000
0100
0010
0000
,
0100
0000
0010
0000
0000
0001
0001
1000
,
0000
1000
0000
0101
0000
0000
1001
0000
,
0010
0100
0000
1001
0000
1000
0100
0010
,
0100
0001
1000
0100
0010
0100
1000
0100
,
0001
0010
0100
0010
1000
0100
0010
0100
,
0001
0010
0100
0000
0001
0100
0000
0010
,
0000
1001
0000
0101
0000
0010
0001
0100
,
0010
1000
0010
0100
0001
0010
0100
0010
,
0100
1000
0100
0001
0010
0100
0001
0100
,
1000
0010
0000
1001
0000
0000
1001
0000
,
0000
0010
0000
0010
0000
0010
0000
0010
,
0000
0010
0000
1001
0000
1000
0100
0010
,
0001
0100
0010
0001
0010
0100
1000
0100
,
0010
0001
1000
0100
0010
0100
0001
0010
,
0100
1000
0100
0010
0001
0010
0100
0010
,
0001
1000
0100
0010
0001
1000
0010
0100
,
0001
0010
0100
0001
0100
1000
0010
0100
,
0010
0001
0010
0100
0010
1000
0100
1000
,
0001
0100
0001
0010
0100
1000
0001
0010
,
0100
1000
0010
0001
0100
0010
0001
0100
,
1000
0100
0010
0100
0010
0001
0010
0100
,
1000
0100
0010
1000
0100
1000
0010
0001
,
0010
0100
0010
0001
1000
0001
1000
0001
,
1000
0010
0010
1000
0001
0010
0001
0010
,
0100
1000
0100
0010
0100
0001
0100
0010
,
1000
0000
1100
0000
0000
0001
0010
1000
,
0100
0000
0000
0000
0011
0000
0000
0000
0000
0000
0000
0000
1000
0001
1000
0000
,
0000
1001
0000
1000
0000
1000
0000
1000
,
0000
1000
0000
1100
0000
0000
0000
0000;
