#TITLE:Crying;
#SUBTITLE:;
#ARTIST:Ian Van Dahl;
#TITLETRANSLIT:;
#SUBTITLETRANSLIT:;
#ARTISTTRANSLIT:;
#CREDIT:;
#BANNER:../BN.png;
#BACKGROUND:../BG.png;
#LYRICSPATH:;
#CDTITLE:../CDTitleBRAEDEN.png;
#MUSIC:Ian Van Dahl Crying For You.ogg;
#OFFSET:-0.333;
#SAMPLESTART:19.708;
#SAMPLELENGTH:20.000;
#SELECTABLE:YES;
#BPMS:0.000=140.000,293.000=70.000,325.000=140.000,565.000=70.000,581.000=140.000;
#STOPS:;
#BGCHANGES:;
// cache tags:
#FIRSTBEAT:5.000;
#LASTBEAT:717.000;
#SONGFILENAME:Songs/Index Gradation/Crying - [Braeden]/Crying.sm;
#HASMUSIC:1;
#HASBANNER:1;
#MUSICLENGTH:330.559;
// end cache tags

//---------------dance-single - ----------------
#NOTES:
     dance-single:
     :
     Challenge:
     13:
     0.898,1.000,0.160,0.293,1.000,1920.000,53.000,97.000,25.000,0.000:

0000
0000
0000
0000
,
0000
0000
0000
0000
0001
0010
0000
0100
1000
0000
0001
0100
0010
1000
0000
0100
,
1000
0000
0001
0100
0010
0100
0000
0001
0100
0000
0010
1000
0100
0010
0000
0100
,
1000
0000
0001
0100
0010
1000
0000
0100
0010
0000
0001
0100
0010
1000
0000
0001
,
0100
0000
0010
1000
0001
0100
0000
0010
1000
0000
0100
0010
0100
1000
0000
0001
,
0100
0000
0010
1000
0001
0100
0000
0010
0100
0000
0001
0010
0100
1000
0000
0001
,
0100
0000
0001
0010
0100
1000
0000
0010
0100
0000
0001
0010
0100
0010
0000
0001
,
0010
0000
0001
0100
0010
1000
0000
0001
0010
0000
0100
1000
0001
0100
0000
0010
,
1000
0000
0100
0010
0100
1000
0000
0001
0100
0000
0010
1000
0001
0100
0000
0010
,
1000
0000
0000
0000
0100
0000
0000
0000
0010
0000
0001
0000
0000
0000
0001
0000
0010
0000
0000
0000
0100
0000
1000
0000
0100
0000
0010
0000
0000
0000
0001
1000
,
0001
0000
0000
0000
1000
0000
0010
0000
0100
0000
0001
0000
0000
0000
1000
0010
0100
0000
0000
0000
0001
0000
0010
0000
0100
0000
1000
0000
0000
0000
0001
1000
,
0001
0000
0000
0000
1000
0000
0100
0000
0010
0000
0100
0000
0000
0000
1000
0001
1000
0000
0000
0000
0001
0000
0100
0000
0010
0000
1000
0000
0000
0000
0001
0010
,
0001
0000
0000
0000
1000
0000
0100
0000
0010
0000
0100
0000
0000
0000
1000
0010
1000
0000
0000
0000
0010
0000
0100
0000
0001
0000
0100
0000
0000
0000
0010
1000
,
0010
0000
0000
0000
1000
0000
0100
0000
0010
0000
0100
0000
0000
0000
1000
0100
1000
0000
0000
0000
0001
0000
0100
0000
0010
0000
1000
0000
0000
0000
0100
0010
,
0100
0000
0000
0000
0010
0000
0001
0000
0100
0000
0010
0000
0000
0000
1000
0100
1000
0000
0000
0000
0001
0000
0100
0000
0010
0000
1000
0000
0000
0000
0001
0100
,
0001
0000
0000
0000
0100
0000
0010
0000
1000
0000
0001
0000
0000
0000
0010
0100
0010
0000
0000
0000
0100
0000
1000
0000
0001
0000
0100
0000
0000
0000
0010
1000
,
0010
0000
0000
0000
1000
0000
0001
0000
0100
0000
0001
0000
0000
0000
0001
0010
0001
0000
0000
0000
0100
0000
0001
0000
1000
0000
0010
0000
0000
0000
0010
0100
,
0010
0000
1001
0000
0101
0100
0000
0010
1000
0000
0001
0100
0010
0100
0000
0001
,
0100
0000
0010
1000
0100
1000
0000
0001
0100
0000
0010
1000
0001
0100
0000
0010
,
1000
0000
0001
0010
0001
0100
0000
0001
0100
0000
0010
1000
0010
0100
0010
0100
,
0001
0000
1000
0100
0010
0100
1000
0001
0100
0000
0010
1000
0001
0010
0100
1000
,
0001
0000
0100
0010
1000
0100
0010
0001
0100
0000
0010
1000
0001
0010
0100
1000
,
0001
0000
0100
0010
1000
0001
0010
0100
1000
0000
0001
0100
0010
0100
0001
0010
,
0100
0000
1000
0001
0100
0010
1000
0100
0010
0000
0001
0100
0010
1000
0001
0010
,
0100
0000
1000
0001
0100
0010
1000
0001
0010
0000
0100
1000
0001
0100
0010
1000
,
0100
0000
0010
0001
1000
0100
0010
0001
0100
0010
1000
0001
0100
0010
1000
0001
,
0010
0100
1000
0001
0100
0010
1000
0100
0010
0001
0010
0100
1000
0001
0100
0010
,
1000
0100
0010
0001
1000
0010
0100
0001
1000
0100
0010
0001
1000
0001
0010
0100
,
1000
0001
0100
0010
1000
0100
0010
0001
0100
0010
1000
0001
0100
0001
0010
0001
,
0100
0010
1000
0001
0010
0100
1000
0001
0100
0010
1000
0100
0010
0001
1000
0010
,
0100
0010
0100
0001
1000
0100
0010
0100
1000
0001
0100
0010
1000
0001
0010
0100
,
1000
0001
0100
0010
0100
0001
1000
0100
0010
0100
1000
0001
0100
0010
1000
0100
,
0010
0001
0010
0100
1000
0001
0100
0010
1000
0100
0010
0100
1000
0001
0100
0010
,
1000
0000
0010
0000
1000
0001
0010
0100
1000
0010
0100
0001
1000
0100
0010
0001
,
1000
0010
0100
0001
0100
0010
1000
0100
1000
0001
1000
0100
0010
0100
1000
0001
,
0010
0100
1000
0001
0100
0010
1000
0100
0010
0100
1000
0001
0100
0010
1000
0100
,
0010
0100
1000
0001
0010
0100
1000
0001
0100
0010
0100
0001
0010
0001
1000
0100
,
0010
0100
1000
0001
0010
0100
1000
0001
0100
0010
1000
0001
0100
0010
0100
0001
,
1000
0100
1000
0001
0100
0010
0100
0001
0010
0100
1000
0001
0100
0010
1000
0100
,
0010
0100
1000
0001
0100
0010
1000
0100
1000
0001
1000
0100
1000
0001
1000
0100
,
1000
0001
1000
0100
1000
0001
0100
0010
0100
0001
0100
0010
0100
0001
0100
0010
,
1000
0000
0010
0000
0001
1000
0100
0010
0100
1000
0001
0100
0010
1000
0010
0100
,
0001
1000
0100
0010
0001
0010
0100
1000
0001
0100
0010
1000
0001
0010
0001
1000
,
0100
1000
0001
0010
0100
1000
0001
0100
0010
0100
0001
1000
0100
0010
0100
1000
,
0001
0100
0010
1000
0100
0010
0100
1000
0001
0010
0100
1000
0001
0100
0010
0100
,
0001
0010
0001
1000
0100
0010
0100
1000
0001
0100
0010
1000
0100
0010
0001
0010
,
0100
1000
0001
0100
0010
1000
0001
0010
0100
1000
0001
0100
0010
0100
0001
1000
,
0100
0010
0100
1000
0001
0100
0010
1000
0100
0010
0100
1000
0001
0010
0100
1000
,
0001
0100
0010
1000
0100
0010
0100
1000
0001
0100
0010
1000
0100
0010
0100
1000
,
0001
0100
0010
1000
1002
0000
0000
0000
0203
0000
0000
0310
0000
1000
0000
0001
,
0100
0000
0010
0000
2000
0000
0000
3000
1001
0000
0000
0001
0000
0100
0000
0010
,
1000
0000
0100
0000
0020
0000
0000
0000
0031
0000
0000
0100
0000
0010
0000
1000
,
0200
0000
0010
0000
0320
0000
0000
0000
0130
0000
0000
1000
0000
0001
0000
0100
,
0010
0000
1000
0000
0200
0000
0000
0000
0320
0000
0000
0001
0030
0001
0000
0100
,
0020
0000
1000
0000
2030
0000
0000
0000
3001
0000
0000
0010
0000
0100
0000
1000
,
0010
0000
0100
0000
0002
0000
0000
0000
0203
0000
0000
0310
0000
1000
0000
0100
,
0020
0000
0100
0000
0230
0000
0000
0000
1300
0000
0000
0001
0000
0100
0000
0010
,
1000
0000
0100
0000
0020
0000
0000
0000
0031
0000
0000
0100
0000
0010
0000
1000
,
0200
0000
0010
0000
0320
0000
0000
0000
0031
0000
0000
1000
0000
0010
0000
0100
,
0002
0000
0100
0000
0203
0000
0000
0000
0310
0000
0000
1000
0000
0001
0000
0100
,
0020
0000
1000
0000
2030
0000
0000
0000
3100
0000
0000
0010
0000
0001
0000
0100
,
0010
0000
1000
0000
0001
0010
0100
1000
0001
0100
0010
1000
0100
0010
0100
1000
,
0001
0100
0010
1000
0001
0010
0100
1000
0001
0100
0010
1000
0100
0010
0100
1000
,
0001
0010
0100
1000
0001
0100
0010
0100
0001
0010
0001
1000
0100
0010
0100
1000
,
0001
0100
0010
1000
0001
0010
0100
1000
0001
0100
0010
1000
0100
0010
0100
1000
,
0001
0010
0100
1000
0001
0100
0010
0100
0001
0010
0001
1000
0100
0010
0100
1000
,
0001
0100
0010
0100
0001
0010
0100
1000
0001
0100
0010
0100
0001
0010
0001
1000
,
0100
0010
0001
0010
0100
1000
0001
0100
0010
1000
0100
0010
0001
0100
0010
1000
,
0011
1001
0000
0200
,
0320
0000
1030
0100
0000
1000
0200
0000
,
0010
0000
1300
0002
,
0203
0000
0310
1000
0000
0010
1000
0000
,
1001
0000
0000
0000
0010
0000
0000
0000
1001
0000
0000
1000
0000
0010
0000
0100
,
0001
0000
0000
0000
1000
0000
0000
0000
1010
0000
0000
0000
0010
0000
0000
0100
0000
0001
0000
0100
0010
0000
1000
0000
0100
0000
0000
0000
0010
0000
0000
0001
,
0000
0100
0000
0010
1000
0000
0100
0000
0010
0001
0100
0010
1000
0000
0001
0100
0000
0010
0000
1000
0001
0000
0100
0000
0010
1000
0001
0100
0010
0000
1000
0100
,
0000
0100
0000
0100
1000
0000
0001
0100
0010
1000
0100
0010
0001
0000
1000
0100
0010
0100
1000
0001
0100
0000
0010
1000
0001
0010
0100
1000
0001
0000
0100
0010
,
1000
0100
0010
0001
1000
0000
0010
0100
0001
0100
0010
1000
0100
0000
0010
0001
0010
0100
1000
0001
0100
0000
0010
1000
0400
0000
0000
0000
0000
0000
0000
0000
,
0000
0000
0000
0000
0000
0000
0000
0000
0310
0000
0000
0001
0000
0000
0010
0000
0100
0000
0000
1000
0000
0000
0100
0000
0010
0000
0000
0001
0000
0000
0010
0000
,
0100
0000
0000
0010
0010
0000
0100
0001
0200
0000
0000
0001
0301
0000
0000
0000
,
0000
0000
0000
0000
0000
0000
0000
0000
1000
0000
0000
0100
0000
0000
0010
0000
0001
0000
0000
0010
0000
0000
0100
0000
1000
0000
0000
0100
0000
0000
0010
0000
,
0001
0000
0000
0100
0020
0000
1030
0001
0200
0000
0000
0001
0301
0000
0000
0000
,
0000
0000
0000
0000
0110
0000
0000
0010
0000
0000
0100
0000
1000
0000
0000
0010
,
0000
0000
0100
0000
0001
0000
0000
0100
0000
0000
0100
0000
0100
0000
0000
0000
,
MMMM
0001
1000
0000
0100
0001
0200
0000
,
0000
0000
0301
0000
0001
0000
0000
MMM0
0000
0000
0000
0000
0000
0000
0000
0000
,
0000
0000
0000
0000
0100
0000
0000
0010
0000
0000
0001
0000
0010
0000
0000
0100
,
0000
0000
0010
0000
0001
0000
0000
0100
0000
0000
0010
0000
0010
0000
0000
0000
,
0000
0000
0001
0000
0100
0000
0000
0010
0000
0000
1000
0000
0002
0000
0000
0000
,
0000
0000
0010
0000
0013
0000
0000
0000
1000
0000
0000
0010
0000
0010
0000
0000
,
1000
0000
0001
0000
2002
0000
0000
3003
2020
0000
3030
0010
0000
1000
0000
0000
,
0022
0033
2002
3003
2020
0000
0000
3030
2002
0000
3003
0100
0000
0010
0000
0000
,
2200
3300
0022
0033
2002
0000
0000
3003
0220
0000
0330
0010
0000
0100
0000
0000
,
2002
3003
0202
0303
2002
0000
0000
3003
2020
0000
3030
0100
0000
0001
0000
0000
,
2000
0000
3200
0000
0320
0000
0000
0000
0001
0000
0000
0100
0000
0100
0000
0000
,
0032
0000
0203
0000
0320
0000
0000
0000
1000
0000
0000
0001
0000
0001
0000
0000
,
1030
0100
0010
0001
0100
0010
1000
0001
0010
0100
1000
0001
0100
0001
1000
0001
,
0010
0100
1000
0001
1001
0000
0000
0000
0000
0000
0000
0000
0000
0000
0000
0000
,
0000
0000
0000
0000
1000
0100
0010
0001
4000
0000
0000
3010
0000
0100
0001
0000
,
1001
0000
0010
0000
0400
0000
0000
0300
0101
0000
0000
0010
0000
1000
0100
0000
,
1001
0000
0010
0000
0400
0000
0000
0300
1001
0000
0000
0010
0000
0100
0001
0000
,
1001
0000
1000
0000
0040
0000
0000
0030
0110
0000
0000
0100
0000
0001
1000
0000
,
0200
0000
0310
0000
0400
0000
0000
0300
1001
0000
0000
0001
0000
0100
0010
0000
,
1010
0000
0010
0000
0400
0000
0000
0300
0101
0000
0000
0010
0000
1000
0010
0000
,
0100
0000
0010
0000
4000
0000
0000
3000
1001
0000
0000
0001
0000
0100
0010
0000
,
1010
0000
0100
0000
0040
0000
0000
0030
1001
0000
0000
0100
0000
0010
1000
0000
,
1001
0000
0001
0000
2000
0000
0000
0010
0000
0000
0100
0000
3200
0000
0000
1000
,
0000
0000
1000
0000
0320
0000
0000
1000
0000
0000
1000
0000
1030
0000
0000
0000
,
1001
0001
0200
0000
0310
1000
0200
0000
,
0310
0000
0100
0000
1000
0000
0000
0000
1001
0000
0000
0010
0000
0100
0010
0000
,
1001
0000
0100
0000
0020
0000
0000
0100
0000
0000
1000
0000
2030
0000
0000
0001
,
0000
0000
0010
0000
3020
0000
0000
0100
0000
0000
0001
0000
0031
0000
0000
0000
,
0110
0000
0000
0000
1000
0000
0000
0001
0000
0000
0100
0000
0020
0000
0000
0030
,
1001
0000
0100
0000
0100
0010
0100
0010
1000
0100
1000
0100
0010
0001
0010
0001
,
1000
0010
0100
0001
0100
0000
0010
1000
0001
0010
0100
1000
0001
0000
0100
0010
,
1000
0100
0010
0100
1000
0000
0001
0100
0010
1000
0100
0010
0100
0000
1000
0001
,
0100
0010
1000
0100
0010
0000
0100
1000
0001
0100
0010
1000
0001
0000
0010
0100
,
1000
0001
0100
0010
1000
0001
0100
0010
1000
0001
0100
0010
1000
0100
0010
0001
,
0100
0010
1000
0100
2000
0000
0000
0000
0000
0000
3020
0000
M000
0000
0000
0000
,
0130
0000
00M2
0000
0000
0203
000M
0000
,
0310
0M00
2000
0000
0000
3200
M000
0000
,
0310
0000
0M00
0000
0001
0000
0000
0000
0MM0
0000
0000
0010
0000
0100
0001
0000
,
1001
1000
0002
0000
0000
2003
000M
0000
,
3010
M000
2000
0000
0000
3200
M000
0000
,
1300
0000
0M20
0000
0000
2030
00M0
0000
,
3010
0M0M
M0M0
0000
0000
0000
0200
0000
,
0310
0000
1000
0100
0000
0010
0002
0000
,
0000
0000
0003
2000
,
3020
0000
0130
0001
0000
0100
0001
0000
,
1000
0000
0000
0000
0010
0000
0000
0000
0100
0000
0000
0010
0000
0100
0000
0001
,
0100
0010
1010
0000
1000
0000
0001
0000
,
1000
0100
0010
0001
0010
0100
1000
0001
0100
0010
1000
0001
0010
0100
1000
0001
,
0100
0010
1000
0100
0010
0001
1000
0010
0100
0001
0010
0100
1000
0001
0100
0010
,
1000
0100
0010
0001
0100
0010
1000
0001
0100
0010
1000
0001
0010
0100
1000
0001
,
0100
0010
1000
0001
0100
0010
1000
0100
0010
0001
0100
0010
1000
0001
0010
0100
,
1000
0001
0100
0010
1000
0100
0010
0001
1000
0010
0100
0001
1000
0100
0010
0001
,
1000
0010
0100
0001
0010
0100
1000
0001
0100
0010
1000
0001
0010
0100
1000
0001
,
0100
0010
1000
0001
0100
0001
1000
0001
0100
0001
1000
0010
0100
0001
0010
0100
,
1000
0001
0100
0010
1000
0100
0010
0100
1000
0001
0010
0100
1000
0001
0100
0010
,
0100
0001
0010
0001
1000
0100
0010
0100
1000
0001
0010
0100
1000
0001
0100
0010
,
0100
0001
1000
0100
0010
0100
1000
0001
0010
0100
1000
0010
0100
0001
1000
0100
,
0010
0100
1000
0001
0010
0100
1000
0001
0100
0010
1000
0100
0010
0100
1000
0001
,
0010
0100
1000
0010
1001
0100
0000
0010
0100
1000
0000
0001
0100
0010
0000
1000
,
0100
0010
0000
0100
1000
0001
0000
0100
0010
1000
0000
0100
0010
0100
0000
1000
,
0001
0010
0000
0100
1000
0001
0000
0100
0010
1000
0000
0100
0010
0100
0000
1000
,
0001
0100
0000
0010
1000
0001
0000
0010
0100
1000
0000
0001
0010
0000
0000
0000
,
0000
0000
0000
0000
2001
0000
0000
3010
0000
0000
0100
0000
0001
0000
0000
0100
,
0000
0000
0010
0000
1000
0000
0000
0100
0000
0000
0010
0000
0010
0000
0000
0000
,
0M00
0001
2000
0000
3001
0100
0020
0000
,
0000
0000
0130
0000
0010
0000
0000
0000
0100
0000
0000
0010
0000
0010
0000
0010
,
0100
0000
0010
0000
0110
0000
0000
0100
0000
0000
0001
0000
0100
0000
0000
0010
,
0000
0000
1000
0000
0100
0000
0000
0010
0000
0000
0001
0000
0100
0000
0000
0000
,
0010
0000
0100
0000
0001
0100
0020
0000
,
1030
0100
0010
0000
1001
0000
0010
0000
,
1000
0000
0010
0000
0100
0010
0100
0001
0100
0010
1000
0100
0010
0100
1000
0001
,
0100
0010
1000
0100
0010
0100
1000
0001
0100
0010
0100
0001
1000
0100
0010
0100
,
1000
0001
0100
0010
1000
0100
0010
0100
1000
0001
0010
0100
1000
0001
0100
0010
,
1000
0001
0010
0100
0010
0001
1000
0100
0010
0100
1000
0001
1000
0100
0010
0100
,
1000
0001
0010
0100
1000
0000
0100
0010
1000
0100
0010
0100
1000
0001
0100
0010
,
1000
0100
0010
0100
1000
0001
0010
0100
1000
0001
0100
0010
1000
0100
0010
0100
,
1000
0001
0100
0010
1000
0001
0010
0100
1000
0001
0100
0010
1000
0100
0010
0100
,
1000
0001
0100
0000
1001
0000
0000
0000
0000
0000
0000
0000
0000
0000
0000
0000
,
0000
0000
0000
0000
0010
0100
0001
1000
0100
0010
0100
1000
0001
0010
0100
1000
,
0001
0000
0000
0000
0001
1000
0100
0010
0100
1000
0001
0010
0100
1000
0001
0100
,
0010
0000
0000
0000
1000
0001
1000
0100
0010
0001
1000
0010
0100
0001
0010
0100
,
0010
0000
0000
0000
0001
1000
0010
0100
0010
0100
0001
0010
0100
1000
0010
0100
,
0001
0000
0000
0000
0010
0001
1000
0010
0100
0001
0010
0100
0010
0001
1000
0010
,
0100
0000
0000
0000
0001
0010
0100
1000
0001
0100
0010
1000
0100
0010
0001
0100
,
0010
0000
0000
0000
1000
0100
0010
0100
1000
0001
0100
0010
1000
0100
0010
0001
,
0100
0000
0000
0000
0010
0000
0000
0000
0100
0000
0000
0001
0000
0100
0000
0000
,
0010
0000
0000
0000
1000
0100
0010
0100
1000
0001
0100
0010
1000
0100
0010
0100
,
1000
0001
0010
0100
1000
0001
0100
0010
1000
0100
0010
0100
1000
0001
0100
0010
,
1000
0100
0010
0100
1000
0001
0100
0010
1000
0100
0010
0100
1000
0001
0010
0100
,
1000
0001
0100
0010
0100
0010
0100
0001
0100
0010
1000
0100
0010
0100
1000
0001
,
0100
0010
1000
0100
0010
0100
1000
0001
0010
0100
1000
0001
0100
0010
1000
0100
,
0010
0100
1000
0001
0100
0010
1000
0100
0010
0100
1000
0001
0100
0010
1000
0001
,
0010
0100
1000
0001
0100
0010
1000
0100
0010
0100
1000
0001
0100
0010
1000
0001
,
0010
0000
0000
0000
0100
0000
0000
0000
0010
0000
0000
0100
0000
0100
0000
0000
,
1000
0001
2020
0000
0000
0000
0000
0000
,
0000
0000
0000
0000
,
0000
3030
0000
0000
;
