#TITLE:Pull Harder On The Strings Of Your Martyr;
#SUBTITLE:;
#ARTIST:Trivium;
#TITLETRANSLIT:;
#SUBTITLETRANSLIT:;
#ARTISTTRANSLIT:;
#CREDIT:;
#BANNER:Trivium 1.jpg;
#BACKGROUND:Trivium 2.jpg;
#LYRICSPATH:;
#CDTITLE:;
#MUSIC:Pull Harder On The Strings Of Your Martyr.ogg;
#OFFSET:-0.243;
#SAMPLESTART:41.639;
#SAMPLELENGTH:12.000;
#SELECTABLE:YES;
#BPMS:0.000=144.500,12.000=145.000,368.000=120.000,382.000=122.000,384.000=120.000,512.000=145.000;
#STOPS:;
#BGCHANGES:;
// cache tags:
#FIRSTBEAT:0.000;
#LASTBEAT:669.000;
#SONGFILENAME:Songs/new cedric/Pull Harder On The Strings Of Your Martyr/Pull Harder.sm;
#HASMUSIC:1;
#HASBANNER:1;
#MUSICLENGTH:105.000;
// end cache tags

//---------------dance-single - V01D----------------
#NOTES:
     dance-single:
     V01D:
     Challenge:
     13:
     1.000,1.000,1.000,1.000,1.000,1841.000,177.000,118.000,11.000,13.000:

1000
0000
0100
0000
0010
0000
0001
0000
1000
0000
0010
0000
0100
0001
0100
0000
0010
0000
1000
0000
0100
0000
0010
0000
0001
0000
0100
0000
0010
0000
1000
0000
,
0010
0000
0100
0000
0010
0000
1000
0000
0100
0000
0010
0000
0001
1000
0001
0000
0100
0000
0010
0000
0100
0000
1000
0000
0100
0000
0001
0000
1000
0000
0100
0000
,
0010
0000
0001
0000
1000
0000
0001
0000
0010
0000
0100
0000
1000
0001
1000
0000
0010
0000
0100
0000
0001
0000
0100
0000
0010
0000
1000
0000
0100
0000
1000
0000
,
0010
0000
0100
0000
0001
0000
0010
0000
0001
0000
0100
0000
0010
1000
0010
0000
0100
0000
0001
0000
0010
0000
0001
0000
1000
0000
0010
0000
0100
0000
0001
0000
,
1000
0000
0010
0100
0010
1000
0010
0100
0010
1000
0010
0100
0010
1000
0010
0000
,
1010
0000
0100
0010
0100
0001
0100
0010
0100
0001
0100
0010
0100
0001
0100
0000
,
0101
0000
0010
1000
0100
0010
0001
0100
0010
1000
0010
0100
0001
1000
0100
0000
,
0011
0000
0001
0010
0001
0100
0010
1000
0100
1000
0010
0100
0001
0010
0001
0000
,
0101
0000
0001
1000
0001
0010
0001
1000
0001
0010
0001
1000
0001
0010
0001
0000
,
1001
0000
1000
0010
1000
0001
1000
0010
1000
0001
1000
0010
1000
0001
1000
0000
,
1001
0000
0010
0100
0001
0100
0010
1000
0001
0100
0010
1000
0100
0010
0001
0000
,
0101
0000
0100
0001
0100
1000
0100
0010
0100
0001
1000
0100
0010
0001
1000
0000
,
0002
0000
0103
0200
0000
0310
1000
0001
,
0020
0000
0000
0000
,
0032
0000
1003
2000
0000
3010
0010
0100
,
0100
0001
2000
0000
0000
0000
0000
0000
,
3200
0000
0310
0020
0000
0031
1000
0010
,
0200
0000
0000
0000
,
0320
0000
1030
2000
0000
3100
0100
0010
,
0010
0000
0001
0000
2000
0000
0000
3000
0010
0100
0010
0100
0001
1000
0100
0010
,
0002
0000
0M03
0000
1000
0100
0010
0000
0100
0010
0001
0000
1000
0010
0100
0001
,
0020
0000
M030
0000
0001
0100
0010
0000
0100
0010
1000
0000
0010
0100
0001
1000
,
0100
0000
0010
0001
0100
0001
0010
0100
0010
0001
0100
0001
0010
0100
0010
0001
,
1000
0000
0010
1000
0100
0010
0100
1000
0010
0100
0010
1000
0100
1000
0010
0100
,
0002
0000
0M03
0000
1000
0010
0100
0000
0010
1000
0001
0000
1000
0100
0010
0001
,
2000
0000
3000
0000
0010
0100
0010
0000
1000
0010
0100
0000
0010
0100
0001
1000
,
0100
0000
0010
0001
0100
0001
0010
0100
1000
0001
0100
0001
0010
0100
0010
0001
,
1000
0000
0010
1000
0100
0010
0001
1000
0010
0100
0010
1000
0100
1000
0001
0100
,
0010
0000
0100
0000
0101
0000
0000
0000
2202
0000
0000
0000
0000
3303
0001
0000
,
0101
0000
0010
0100
0000
0000
0001
0000
2001
0000
0000
3000
0102
0000
0100
0003
,
0110
0000
0010
0000
1010
0000
0100
0000
0222
0000
0000
0000
0000
0333
0100
0000
,
0110
0000
0000
0010
1000
0010
1000
0000
0000
0001
0000
0000
0100
0000
0000
0100
0000
0000
0100
0000
0000
0101
0000
0000
,
0010
0000
1010
0000
1001
0000
1000
0000
2220
0000
0000
0000
0000
3330
1000
0000
,
1001
0000
0000
0010
0100
0010
0100
0000
0000
0010
0000
0000
0202
0000
0000
0000
0000
0000
1313
0000
0000
0010
0000
0000
,
0110
0000
0010
0100
0000
0000
0101
0000
2022
0000
0000
0000
0000
3033
1000
0000
,
1010
0000
0000
0000
0000
0000
0100
0000
0010
0000
1000
0000
0001
0000
0000
0000
0000
0000
1000
0000
0000
0000
0000
0000
1010
0000
0000
0000
0000
0000
0010
0000
0000
1000
0000
0000
0100
0000
0000
0010
0000
0000
0001
0000
0000
1000
0000
0000
,
0001
0100
0020
0030
1010
0010
0110
0010
,
0101
0000
0000
0100
0010
1000
0100
0000
0000
0010
0000
0000
0011
0000
0000
0001
0000
0000
0101
0000
0000
0010
0000
0000
,
0110
0000
0010
1000
0000
0000
1010
0000
1001
0000
1000
0000
1100
0000
0100
0000
,
0110
0000
0000
0010
0001
0100
0001
0000
0000
0100
0000
0000
0010
0000
0000
0010
0000
0000
0010
0000
0000
1010
0000
0000
,
0100
0101
1001
0010
0110
0010
1010
1000
,
1001
0000
0000
0010
0100
0010
0100
0000
0000
0010
0000
0000
0110
0000
0000
1000
0000
0000
1001
0000
0000
0001
0000
0000
,
0011
0000
0001
0100
0000
0000
0110
0000
1010
0000
0100
0000
0110
0000
0010
0000
,
1010
0000
1000
0100
0010
0000
0001
0000
1001
0000
1000
0000
1010
0000
0010
0000
,
0110
0010
1000
0100
0000
0011
0000
0101
,
0000
0000
1010
0000
0110
0000
0000
0000
0100
0010
0100
0001
1000
0100
0010
0001
,
1000
0000
0010
0000
0100
0000
0001
0000
1000
0000
0100
0000
0010
0000
0001
0100
,
0010
0100
0010
1000
0100
0010
0001
0100
,
0220
0000
0000
0330
0100
0000
0001
0000
0000
0000
1010
0000
0000
0000
0110
0000
,
0000
0000
0101
0000
1001
0000
0000
0000
0010
0100
0010
1000
0100
1000
0010
0100
,
0001
0100
0010
1000
0100
0010
0001
1000
,
0010
0100
0001
1000
0100
0010
0001
0100
0010
1000
0010
0100
0001
0010
0100
1000
,
0001
0000
0100
0010
1000
0001
0100
0010
0100
0001
0100
0010
1000
0001
0100
0000
,
0101
0000
0010
0100
0010
1000
0001
0100
0010
1000
0001
0100
0010
1000
0001
0000
,
1010
0000
0100
0001
0010
0100
1000
0010
0100
0001
0100
0010
1000
0001
1000
0000
,
1010
0000
1000
0100
1000
0010
0100
0001
0010
0001
0100
0010
1000
0100
1000
0000
,
1010
0000
1000
0010
1000
0100
0010
0001
1000
0100
0010
0100
1000
0001
1000
0000
,
1001
0000
0001
0100
0001
0010
0100
1000
0001
0010
0100
0010
0001
1000
0001
0000
,
1001
0000
0100
0010
1000
0010
0100
0001
1000
0010
0100
0001
0010
0100
1000
0000
,
1010
0000
0010
1000
0010
0001
0010
0100
0010
1000
0001
0010
0100
1000
0001
0000
,
0100
0000
0010
0000
1010
0000
0000
0000
2022
0000
0000
0000
0000
3033
1000
0000
,
1010
0000
0100
0010
0000
0000
1000
0000
1002
0000
0000
0003
2010
0000
0010
3000
,
0110
0000
0100
0000
0101
0000
0010
0000
2220
0000
0000
0000
0000
3330
0010
0000
,
0110
0000
0000
0100
0001
0100
0001
0000
0000
1000
0000
0000
0010
0000
0000
0010
0000
0000
0010
0000
0000
1010
0000
0000
,
0100
0000
0101
0000
1001
0000
0001
0000
0222
0000
0000
0000
0000
0333
0001
0000
,
1001
0000
0000
0100
0010
0100
0010
0000
0000
0100
0000
0000
2020
0000
0000
0000
0000
0000
3131
0000
0000
0100
0000
0000
,
0110
0000
0100
0010
0000
0000
1010
0000
2202
0000
0000
0000
0000
3303
0001
0000
,
0101
0000
0000
0000
0000
0000
0010
0000
0100
0000
0001
0000
1000
0000
0000
0000
0000
0000
0001
0000
0000
0000
0000
0000
0101
0000
0000
0000
0000
0000
0100
0000
0000
0001
0000
0000
0010
0000
0000
0100
0000
0000
1000
0000
0000
0001
0000
0000
,
1000
0010
0200
0300
0101
0100
0110
0100
,
1010
0000
0000
1000
0010
1000
0010
0000
0000
1000
0000
0000
0110
0000
0000
0100
0000
0000
1010
0000
0000
0100
0000
0000
,
0110
0000
0100
0001
0000
0000
0101
0000
1001
0000
0001
0000
0101
0000
0010
0000
,
0110
0000
0000
0010
0100
0010
0100
0000
0000
0010
0000
0000
0100
0000
0000
0100
0000
0000
0100
0000
0000
0101
0000
0000
,
0010
1010
1001
0100
0110
0100
0101
0001
,
1001
0000
0000
0100
0010
0100
0010
0000
0000
0100
0000
0000
0110
0000
0000
0001
0000
0000
1001
0000
0000
1000
0000
0000
,
1100
0000
1000
0010
0000
0000
0110
0000
0101
0000
0010
0000
0110
0000
0100
0000
,
0010
0100
0010
1000
0001
0100
0010
1000
0100
0010
0001
0100
0010
1000
0001
0010
,
0001
0100
0001
0010
0000
1100
0000
1010
,
0000
0000
0101
0000
0110
0000
0000
0000
0010
0100
0010
1000
0001
0010
0100
1000
,
0001
0000
0100
0000
0010
0000
1000
0000
0001
0000
0010
0000
0100
0000
1000
0010
,
0100
0010
0100
0001
0010
0100
1000
0010
,
0220
0000
0000
0330
0010
0000
1000
0000
0000
0000
0101
0000
0000
0000
0110
0000
,
0000
0000
1010
0000
1001
0000
0000
0000
0100
0010
0100
0001
0010
0001
0100
0010
,
1000
0000
0010
0000
0100
0000
0001
0000
0010
0000
0100
0000
1000
0000
0001
1000
,
0010
0100
0001
1000
0100
0010
0001
0100
0010
1000
0010
0100
0001
0010
0100
1000
,
0001
0100
0010
1000
0000
1010
0000
0110
,
0000
0000
1010
0000
0110
0000
0000
0000
0010
1000
0010
0100
0010
1000
0100
0010
,
0001
0000
0100
0000
0010
0000
1000
0000
0001
0000
0010
0000
0100
0000
1000
0010
,
0100
0010
0100
0001
0010
0100
1000
0010
,
0220
0000
0000
0330
0010
0000
1000
0000
0000
0000
0101
0000
0000
0000
1010
0000
,
0000
0000
0110
0000
0101
0000
0000
0000
0100
0001
1000
0010
1000
0100
0010
0001
,
1000
0000
0010
0000
0100
0000
0001
0000
0010
0000
0100
0000
1000
0000
0001
1000
,
0010
0100
0001
1000
0100
0010
0001
0100
0010
1000
0010
0100
0001
0010
0100
1000
,
0002
0000
0000
0000
,
0000
0000
0000
0000
0000
0000
0000
0000
2003
0000
3020
0000
0230
0000
0302
0003
,
0202
0000
0000
0000
,
0000
0000
0000
0000
0000
0000
0000
0303
0110
0000
MMMM
0000
0000
0000
MMMM
0000
,
1000
0001
0000
0000
0100
0010
0000
0000
1000
0001
0000
0000
0101
0000
0000
0000
,
0000
0000
1000
0001
0000
0100
0010
0000
1000
0001
0100
0010
0100
0001
1000
0100
,
0010
0001
0000
0000
0100
0010
0000
0000
1000
0001
0000
0000
1010
0000
0000
0000
,
0000
0000
0010
0100
0000
0001
1000
0000
0010
0100
0001
0100
0010
1000
0100
0010
,
0100
1000
0000
0000
0001
0100
0000
0000
0010
1000
0000
0000
0110
0000
0000
0000
,
0000
0000
0010
0100
0000
0001
1000
0000
0001
1000
0100
0010
0001
0100
0010
1000
,
0010
0100
0000
0000
0001
1000
0000
0000
0010
0100
0000
0000
1001
0000
0000
0000
,
0000
0000
1000
0100
0000
1000
0001
0000
0100
0010
1000
0001
0010
0100
1000
0001
,
0100
0010
1000
1000
0001
0001
0100
0010
1000
0100
0010
0001
0100
0010
2000
0000
,
3001
0000
0010
0000
0001
0000
0100
0000
0010
0000
1000
0000
0010
0000
0100
0000
0001
0000
1000
0000
0100
0000
0010
0000
0002
0003
2000
3000
0200
0300
0020
0030
,
0001
0100
0010
0010
1000
1000
0100
0010
0001
0100
0010
0100
0001
1000
0020
0000
,
0130
0000
0100
0000
0001
0000
1000
0000
0100
0000
0010
0000
0001
0000
0100
0000
0020
0030
2000
3000
0200
0300
0020
0030
0002
0003
2000
3000
0002
0003
0020
0030
,
0100
1000
0010
0010
0100
0100
0001
1000
0010
1000
0100
0010
0001
1000
0002
0000
,
1003
0000
0010
0000
0100
0000
0100
0000
0001
0000
0001
0000
1000
0000
0100
0000
0020
0030
0002
0003
2000
3000
0002
0003
0020
0030
0200
0300
2000
3000
0002
0003
,
0100
0010
1000
1000
0001
0001
0100
0010
1000
0100
0010
0001
1000
0010
0200
0000
,
0310
0000
1000
0000
0001
0000
0010
0000
0001
0000
0100
0000
0010
0000
1000
0000
0100
0000
1000
0000
0010
0100
0010
0100
0010
0000
1000
0000
0100
0000
0010
0000
,
0001
0100
0010
1000
0010
0100
0001
0010
0100
1000
0001
1000
0100
0010
0001
0100
,
0010
1000
0010
0100
0001
0010
0100
1000
0010
0100
0001
0010
0001
0100
0010
1000
,
0100
1000
0010
0100
0001
0010
0001
0100
0001
0010
0001
1000
0010
1000
0100
1000
,
0010
0100
0010
0100
0001
1000
0100
0010
0001
0100
0001
1000
0100
0010
0001
1000
,
0010
0100
0010
0100
0001
1000
0001
1000
0100
0010
0001
1000
0100
0010
0001
0100
,
0010
0100
0010
1000
0100
0010
0001
1000
0100
0010
0001
1000
0010
0100
0001
1000
0001
0010
0100
1000
0001
0100
0010
1000
,
0010
0000
0000
0100
0000
0000
0001
0000
0000
1000
0000
0000
0200
0000
0000
0320
0000
0000
0032
0000
0000
1003
0000
0000
0010
0000
0000
0100
0000
0000
0001
0000
0000
0100
0000
0000
0010
0000
1000
0000
0010
0000
0100
0000
0001
0000
1000
0000
,
0100
0010
0001
1000
0100
0010
0100
1000
0001
0010
0100
0010
0001
1000
0010
0100
0001
0100
0010
1000
0100
0010
0001
1000
,
0020
0000
0000
0000
0000
0000
0000
0230
0302
0000
0000
0000
0000
0000
0000
0000
,
1003
0000
0000
0000
0000
0000
0010
0000
0000
0100
0000
0000
0001
0000
0000
0000
0000
0000
1000
0000
0000
0100
0000
0000
0010
0000
0000
0000
0000
0000
0001
0000
0000
0010
0000
0000
0100
0000
0000
0000
0010
0000
0000
0000
0100
0000
0000
0000
,
1000
0001
1000
0010
0100
0001
0100
0010
1000
0001
0010
0100
1000
0001
1000
0100
0010
0001
0100
0010
1000
0010
0100
0001
,
1000
0100
0010
0001
1000
0100
0010
0001
1000
0010
0100
0001
1000
0010
0100
0001
0100
0010
1000
0001
0010
0100
1000
0010
,
0200
0000
0000
0000
0000
0000
0000
0000
0000
0000
0000
0000
0310
0000
0000
1000
0000
0000
0001
0000
0000
1000
0000
0000
0100
0000
0010
0000
0001
0000
1000
0000
0010
0000
0100
0000
0001
0000
0100
0000
0010
0000
1000
0000
0001
0000
1000
0000
,
0002
0000
0003
0100
0010
1000
0001
0100
0010
0200
0000
0000
0310
1000
0010
0100
0001
1000
0200
0000
0000
0310
0001
1000
,
0010
0100
0010
0100
0001
1000
0100
0010
0001
0100
0010
1000
0010
0100
0001
0100
0010
1000
0100
0010
0001
1000
0001
0010
,
0100
1000
0010
0100
0001
1000
0100
0010
0001
1000
0100
0010
0001
1000
0001
0010
0100
1000
0001
0010
0100
1000
0010
0100
,
0002
0000
2000
0000
,
0003
0000
3002
2003
,
3001
0100
0010
1000
0010
0100
0001
0010
0100
1000
0001
0010
0001
1000
0100
1000
,
0010
0000
0000
0100
0000
0000
0001
0000
0000
0010
0000
0000
0001
0000
0000
1000
0000
0000
0100
0000
0000
0010
0000
0000
0001
0000
1000
0000
0001
0000
1000
0000
0010
0000
0100
0000
0001
0000
0000
0000
0000
0000
2000
0000
0000
0000
0000
0000
,
3010
0000
1000
0000
1001
0000
0000
0000
0222
0000
0000
0000
0000
0333
1000
0000
,
0010
0000
0000
0000
0000
0000
0100
0000
0001
0000
1000
0000
0010
0000
0000
0000
0000
0000
0100
0000
0000
0000
0000
0000
0220
0000
0000
0000
0000
0000
0000
0000
0000
0000
0000
0000
1001
0000
0000
0330
0000
0000
0010
0000
0000
0100
0000
0000
,
0001
0000
1000
0010
0000
0000
0100
0000
2220
0000
0000
0000
0000
3330
0010
0000
,
0100
0000
0000
0000
0001
1000
0001
1000
0001
0000
0000
0000
1001
0000
0000
0000
1000
0001
1000
0001
1000
0000
0000
0000
0101
0000
0000
0000
0010
0000
0000
0000
,
1010
0000
0100
0000
0101
0000
0000
0000
1010
0000
0100
0000
0101
0000
0010
0100
,
0001
0000
0000
0000
0000
0000
1000
0000
0001
0000
1000
0000
0001
0000
0000
0000
0000
0000
0100
0000
0000
0010
0000
0000
1000
0000
0000
0000
0000
0000
0001
0000
0000
1000
0000
0000
0001
0000
0000
0010
0000
0000
0100
0000
0000
1000
0000
0000
,
0001
0000
0100
0010
0000
0000
1000
0000
1001
0000
0010
0000
0110
0000
0100
0000
,
0101
0000
0000
0000
0000
0000
0010
0000
0100
0000
0001
0000
1000
0000
0000
0000
0000
0000
0001
0000
0000
1000
0000
0000
0010
0000
0000
0000
0000
0000
1000
0000
0000
0000
0000
0000
0010
0000
0000
0000
0000
0000
0100
0000
0000
0000
0000
0000
,
0001
1000
0100
0010
0001
0000
0100
0001
1000
0001
0100
0010
1000
0001
0010
0001
,
1000
0000
0000
0000
0000
0000
0001
0000
0100
0000
0010
0000
1000
0000
0000
0000
0000
0000
0001
0000
0000
1000
0000
0000
0010
0000
0000
0000
0000
0000
1000
0000
0000
0100
0000
0000
0010
0000
0000
0001
0000
0000
0100
0000
0000
0010
0000
0000
,
1000
0000
0010
1000
0001
0000
0100
0010
1000
0001
0100
0010
1000
0000
1001
0000
,
1000
0010
0100
0001
1000
0100
0010
0001
0100
0010
0100
0001
1000
0100
0010
0100
,
1000
0010
1000
0100
0000
0011
0000
0101
,
0000
0000
1010
0000
0110
0000
0000
0000
0100
0010
0100
0001
1000
0100
0010
0001
,
1000
0000
0010
0000
0100
0000
0001
0000
1000
0000
0100
0000
0010
0000
0001
0100
,
0010
0100
0010
1000
0100
0010
0001
0100
,
0220
0000
0000
0330
0100
0000
0001
0000
0000
0000
1010
0000
0000
0000
0110
0000
,
0000
0000
0101
0000
1001
0000
0000
0000
0010
0100
0010
1000
0100
1000
0010
0100
,
0001
0000
0100
0000
0010
0000
1000
0000
0100
0000
0010
0000
0001
0000
1000
0001
,
0100
0010
0100
0001
1000
0100
0010
0001
0100
0010
1000
0010
0100
0001
0010
0001
,
1000
0010
1000
0100
0000
0011
0000
0101
,
0000
0000
1010
0000
0110
0000
0000
0000
0100
0010
0100
0001
1000
0100
0010
0001
,
1000
0000
0010
0000
0100
0000
0001
0000
1000
0000
0100
0000
0010
0000
0001
0100
,
0010
0100
0010
1000
0100
0010
0001
0100
,
0220
0000
0000
0330
0100
0000
0001
0000
0000
0000
1010
0000
0000
0000
0110
0000
,
0000
0000
0101
0000
1001
0000
0000
0000
0010
0100
0010
1000
0100
1000
0010
0100
,
0001
0000
0100
0000
0010
0000
1000
0000
0100
0000
0010
0000
0001
0000
1000
0001
,
0100
0000
0000
0010
0000
0000
1000
0000
0000
0001
0000
0000
0010
0000
0000
0100
0000
0000
1000
0000
0000
0010
0000
0000
0100
0000
0000
0001
0000
0000
0100
0000
0001
0000
1000
0000
0010
0000
0000
0100
0000
0000
0001
0000
0000
1000
0000
0000
,
0100
0000
0010
0001
0100
0010
1000
0100
1000
0010
0100
0001
1000
0010
0100
0000
,
1010
0000
0100
0010
1000
0001
0100
0010
0100
1000
0100
0010
0100
0001
1000
0000
,
0101
0000
0010
1000
0010
0100
0010
1000
0001
0100
0010
1000
0010
0100
0001
0000
,
1010
0000
1000
0100
0010
0001
0100
0010
1000
0010
0100
0001
0010
0100
1000
0000
,
1010
0000
0001
0010
0100
1000
0001
0010
0001
1000
0100
1000
0010
0100
0002
0003
,
0011
0000
0000
0000
0001
0000
0100
0000
0010
0000
1000
0000
0010
0000
0100
0000
0001
0000
1000
0000
0100
0000
0010
0000
0100
0000
1000
0000
0020
0000
0000
0030
,
0110
0000
0010
0100
0001
1000
0100
0010
0001
0100
0010
1000
0010
0100
0001
0000
,
0202
0303
0000
0000
;
