#TITLE:Bouken desho desho?;
#SUBTITLE:- Suzumiya Haruhi no Yuuutsu Opening;
#ARTIST:Aya Hirano;
#TITLETRANSLIT:;
#SUBTITLETRANSLIT:;
#ARTISTTRANSLIT:;
#CREDIT:;
#BANNER:Bouken desho desho banner.png;
#BACKGROUND:Bouken desho desho-bg.png;
#LYRICSPATH:;
#CDTITLE:KOA_cdtitle.png;
#MUSIC:Bouken desho desho (TV Size).mp3;
#OFFSET:-1.430;
#SAMPLESTART:40.722;
#SAMPLELENGTH:20.180;
#SELECTABLE:YES;
#BPMS:0.000=150.030;
#STOPS:;
#BGCHANGES:0.000=Bouken desho desho.avi=1.000=1=0=0,
220.000=Bouken desho desho-bg.png=1.000=1=0=0,
99999=-nosongbg-=1.000=0=0=0 // don't automatically add -songbackground-
;
// cache tags:
#FIRSTBEAT:7.500;
#LASTBEAT:220.000;
#SONGFILENAME:Songs/Otaku's Dream 1st Anime Mix/koa5001 - Bouken desho desho (Suzumiya Haruhi no Yuuutsu)/Bouken desho desho.sm;
#HASMUSIC:1;
#HASBANNER:1;
#MUSICLENGTH:89.837;
// end cache tags

//---------------dance-single - ----------------
#NOTES:
     dance-single:
     :
     Hard:
     8:
     0.565,0.673,0.456,0.189,0.061,297.000,41.000,17.000,0.000,0.000:
0000
0000
0000
0000
,
0000
0000
0000
0000
0000
0000
0000
1000
,
0100
1000
0000
0001
0000
0010
0100
1000
,
0010
0000
0100
0010
0000
1000
0100
0010
,
0002
0000
0000
0003
,
1000
0010
0001
0010
1000
0100
0001
0100
,
1000
0000
0010
0100
0010
1000
0100
1100
,
0000
0011
0000
1100
0000
0022
0033
0000
,
0010
0000
0001
0100
0010
0100
0001
0101
,
0000
1010
0000
0101
0000
2020
3030
0000
,
0100
0000
0010
0000
0100
0000
0010
0000
0001
0100
0001
0010
0100
0010
0001
1000
,
0001
0000
0010
0000
0100
1000
0001
1000
,
0000
0010
1000
0100
0000
0010
0001
0100
,
0010
0000
0110
0000
0001
1000
0000
0001
,
0000
0001
0100
1000
0000
1000
0100
0001
,
1000
0000
0100
0000
0010
0001
1000
0001
,
0000
0010
0001
0100
0000
0010
1000
0100
,
0010
0000
0110
0000
1000
0001
0000
1000
,
0000
1000
0100
0001
0000
0001
0100
1000
,
1001
0000
1000
0010
0100
0010
1000
0100
,
1100
0000
0010
0001
0100
0010
0100
0001
,
0101
0000
0010
0100
1000
0001
1000
0010
,
1010
0000
0100
0001
0010
0100
0010
0001
,
0011
0000
0100
0010
1000
0001
0010
0100
,
0110
0000
0010
0001
0100
1000
0100
0001
,
0000
0010
0100
1000
0000
0010
1000
0100
,
0000
0010
0001
0100
0000
0001
1000
0002
,
0000
0000
1000
0000
1003
0010
0100
0020
,
0000
0030
0000
0100
0000
0001
1000
0001
,
1000
0010
1010
0000
0100
0001
0100
0101
,
0000
0010
1000
0100
0000
1000
0001
0100
,
0001
0000
0011
0000
1100
0000
0010
0001
,
0000
0100
0010
0100
0000
0001
0010
0100
,
1000
0100
1100
0000
0010
0001
0010
0011
,
0000
0100
0010
1000
0000
0001
1000
0100
,
1000
0000
0101
0000
1010
0000
0100
0010
,
0000
0000
0001
0000
1000
0000
0001
0000
0000
0000
1000
0010
1000
0001
0100
0001
,
1000
0000
0001
0010
0100
1000
0010
0100
,
0000
0010
1000
0001
0000
2000
0000
0000
,
3001
0000
1000
0100
0010
0001
0100
0010
,
0000
0100
0001
1000
0000
0001
0000
1001
,
0000
0000
1000
1000
0010
1000
0100
0000
,
0010
0010
0001
0100
0000
0010
1000
0001
,
1001
1000
0010
1010
1000
0001
1001
0001
,
0010
0011
0001
1000
1001
0000
0110
0000
,
2002
0000
0000
0000
3003
0000
0000
0000
1000
0010
1000
0001
1000
0100
1000
0001
,
2000
0001
0001
3001
,
1000
0000
0001
1000
0001
0010
0100
0110
,
0000
1001
0000
0110
0000
2002
3003
0000
,
0010
0000
1000
0100
0010
0001
1000
1001
,
0000
0110
0000
1001
0000
0220
0330
0000
,
2002
0000
0000
0000
,
0000
0000
0000
0000
,
0000
0000
0000
0000
,
0000
0000
0000
0000
,
3003
0000
0000
0000
;

//---------------dance-single - ----------------
#NOTES:
     dance-single:
     :
     Medium:
     6:
     0.456,0.520,0.345,0.378,0.000,222.000,31.000,34.000,0.000,0.000:
0000
0000
0000
0000
,
0000
0000
0000
0000
0000
0000
0000
0001
,
0010
0001
0000
1000
0000
0010
0100
0001
,
1000
0000
0100
0010
0000
0001
0010
0100
,
2000
0000
0000
0000
,
0002
0000
0000
3003
,
1001
0000
1000
0100
0001
0100
1000
1100
,
0000
0010
0000
0001
0000
0022
0033
0000
,
1001
0000
0001
0100
1000
0100
0001
0101
,
0000
0010
0000
1000
0000
2020
3030
0000
,
0100
0001
0010
0100
1000
0100
0010
0001
,
1000
0000
0010
0000
0100
0010
1000
0002
,
0000
0000
0000
1003
0000
0001
0010
0100
,
1000
0000
1100
0000
0010
0001
0000
1000
,
0000
0010
1000
0001
0000
2000
0000
0000
,
3001
0000
0010
0000
0100
0010
0001
2000
,
0000
0000
0000
3001
0000
1000
0100
0010
,
0001
0000
0011
0000
0100
1000
0000
0001
,
0000
0100
0001
1000
0000
0010
0100
0010
,
2020
0000
3030
0000
0220
0330
0000
0202
,
0300
0000
1000
0000
1003
0000
0000
0001
,
0000
0010
0100
0000
0100
0010
0000
0001
,
0000
0001
0100
1000
0000
0100
0001
0000
,
0022
0000
0033
0000
0220
0330
0000
2200
,
0300
0000
0001
0000
3001
1000
0100
0001
,
0000
0001
0100
1000
0000
1000
0010
0001
,
0000
0001
0010
1000
0000
0100
0010
0200
,
0000
0000
0010
0000
0310
0001
1000
0002
,
0000
0003
0000
0010
0000
0100
1000
0000
,
1010
0000
0101
0000
1010
0000
0101
0010
,
0000
0100
1000
0100
0000
0010
0001
0010
,
0000
0000
1001
0000
1001
0000
0001
1000
,
0000
0001
1000
0001
0000
1000
0100
0010
,
0011
0000
1100
0000
0011
0000
1100
0010
,
0000
0100
0001
0100
0000
0010
1000
0010
,
0000
0000
1001
0000
1001
0000
1000
0001
,
0000
1000
0001
2000
0000
0002
0000
0000
,
3003
0000
1000
0000
0010
0000
0100
0001
,
0000
0010
0100
0010
0000
0200
0000
0000
,
0300
0000
0010
0000
0001
0000
0100
0010
,
0000
1000
0001
1000
0000
0100
0000
1100
,
0000
0000
1000
1000
0001
0000
1000
0000
,
0010
0010
0100
0010
0000
1000
0100
1000
,
0010
0100
0100
0001
0010
0010
0100
1000
,
1000
0010
0100
0100
0001
0000
1000
0000
,
2002
0000
0000
0000
,
3000
1000
1000
1003
,
2002
0000
0000
0000
,
3003
0010
0100
0010
,
0220
0000
0000
0000
,
0330
0001
1000
0001
,
2002
0000
0000
0000
,
0000
0000
0000
0000
,
0000
0000
0000
0000
,
0000
0000
0000
0000
,
3003
0000
0000
0000
;

//---------------dance-single - ----------------
#NOTES:
     dance-single:
     :
     Easy:
     4:
     0.296,0.337,0.111,0.378,0.000,142.000,10.000,34.000,0.000,0.000:
0000
0000
0000
0000
,
0000
0000
0000
0000
,
1000
0000
0000
0000
,
0001
0000
0000
0000
,
1000
0000
0000
0000
,
0001
0000
0000
0000
,
0100
0000
0010
0000
0100
0000
0010
2000
,
0000
0001
0000
0001
0000
3002
0003
0000
,
0010
0000
0100
0000
0100
0000
0010
0002
,
0000
1000
0000
1000
0000
2003
3000
0000
,
1000
0100
0001
0010
,
1000
0000
1000
0000
1000
0000
0000
0002
,
0000
0000
0000
0003
,
1000
0000
1000
0000
,
0001
0100
1000
0100
,
0001
0000
0001
0000
0001
0000
0000
2000
,
0000
0000
0000
3000
,
0001
0000
0001
0000
,
1000
0100
0001
0100
,
2000
0010
0010
3010
,
0200
0001
0001
0301
,
0020
0100
0100
0130
,
2000
0001
0001
3001
,
0200
0010
0010
0310
,
0020
0000
0100
0000
0100
0000
0130
0002
,
0000
0003
0000
2000
0000
3000
0000
0200
,
0000
0300
0000
0020
0000
0030
0000
0002
,
0000
0000
1000
0000
1003
0000
0000
2002
,
0000
0000
0000
3003
,
1000
0010
1000
0010
,
0000
0100
0100
0100
,
0001
0000
0000
0000
0010
0000
0000
0200
,
0000
0300
0000
2000
0000
3000
0000
0000
,
0001
0010
0001
0010
,
0000
0100
0100
0100
,
1000
0000
0000
0000
0100
0000
0000
0020
,
0000
0030
0000
0002
0000
0003
0000
0000
,
0000
0000
0100
0000
0100
0000
0000
0020
,
0000
0030
0000
0100
0000
0020
0000
0030
,
0000
0000
1000
0000
1000
0000
0000
0002
,
0000
0003
0000
1000
0000
0001
0000
1001
,
0000
0010
0010
0010
,
0100
0100
0000
0001
,
0101
0000
0000
1010
0000
0000
1100
0000
,
0000
0011
0000
0000
1001
0000
0110
0000
,
2002
0000
0000
0000
,
0003
0001
0001
3001
,
0010
0000
0100
0000
0010
0000
0100
2000
,
0000
0001
0000
0001
0000
3002
0003
0000
,
0100
0000
0010
0000
0010
0000
0100
0002
,
0000
1000
0000
1000
0000
2003
3000
0000
,
2002
0000
0000
0000
,
0000
0000
0000
0000
,
0000
0000
0000
0000
,
0000
0000
0000
0000
,
3003
0000
0000
0000
;
