#TITLE:Separated Union;
#SUBTITLE:;
#ARTIST:Glasslake;
#TITLETRANSLIT:;
#SUBTITLETRANSLIT:;
#ARTISTTRANSLIT:;
#CREDIT:;
#BANNER:Separated Union.png;
#BACKGROUND:Separated Union-bg.png;
#LYRICSPATH:;
#CDTITLE:NVLM-cdtitle.png;
#MUSIC:Separated Union.mp3;
#OFFSET:-9.947;
#SAMPLESTART:18.852;
#SAMPLELENGTH:12.000;
#SELECTABLE:YES;
#DISPLAYBPM:242.000;
#BPMS:0.000=242.000,197.500=121.000,199.000=242.000,366.000=121.000,367.000=60.500;
#STOPS:198.833=0.600
;
#BGCHANGES:;
// cache tags:
#FIRSTBEAT:0.000;
#LASTBEAT:376.500;
#SONGFILENAME:Songs/IzzySM Keyboard Mega Pack/Separated Union/Separated Union.sm;
#HASMUSIC:1;
#HASBANNER:1;
#MUSICLENGTH:112.326;
// end cache tags

//---------------dance-single - ----------------
#NOTES:
     dance-single:
     :
     Hard:
     10:
     0.817,0.753,0.436,0.561,0.009,530.000,49.000,63.000,0.000,0.000:  // measure 1
1000
0100
1000
0100
1000
0010
1000
0001
,  // measure 2
1000
0010
1000
0100
1000
0100
0010
0001
,  // measure 3
0010
0001
0100
0001
0010
0001
1000
0001
,  // measure 4
0100
0001
0100
0001
0010
0100
1000
0100
,  // measure 5
1000
0010
0100
0001
0100
0001
1000
0100
,  // measure 6
1000
0100
1000
0010
1000
0010
1000
0100
,  // measure 7
1000
0001
1000
0001
0010
0100
1000
0100
,  // measure 8
1000
0001
0100
0001
0010
0100
1000
0001
,  // measure 9
1001
0000
0000
0000
,  // measure 10
0100
0010
1000
1000
0001
0010
0100
1000
,  // measure 11
0001
0100
0010
1000
0100
0001
0100
0000
,  // measure 12
0010
1000
0001
0010
0100
1000
0010
0100
,  // measure 13
0001
1000
0100
0010
0001
0100
0110
0000
,  // measure 14
1000
0100
0100
0010
0001
0100
0010
1000
,  // measure 15
0100
0001
0100
0010
1000
0010
0001
0000
,  // measure 16
0100
0010
1000
0100
1000
0001
0010
0100
,  // measure 17
1000
0100
0010
0001
0100
0010
1010
0000
,  // measure 18
2000
0100
3002
0010
,  // measure 19
0203
0320
2030
3200
,  // measure 20
0320
0000
0001
0000
0001
0000
0130
1000
,  // measure 21
2000
0010
3200
0001
,  // measure 22
0320
0100
0032
1000
,  // measure 23
0203
0001
0320
1000
,  // measure 24
0130
0001
0100
0001
1000
0100
1000
0100
,  // measure 25
0010
0001
0010
0100
1000
0001
1000
0100
,  // measure 26
0110
0011
0220
0330
,  // measure 27
1100
0000
0000
1001
0000
0000
0101
0000
,  // measure 28
0110
0000
0000
1010
0000
0000
1100
0000
,  // measure 29
1002
0100
0010
1003
,  // measure 30
1100
0000
0000
0101
0000
0000
0110
0000
,  // measure 31
2000
0000
0000
3000
,  // measure 32
0100
0010
0100
0001
1000
0001
0010
0100
,  // measure 33
0000
1100
0000
0000
0101
0000
1001
0000
,  // measure 34
0100
0001
0100
1000
0100
0001
0100
1000
,  // measure 35
0010
0100
0001
0010
0001
1000
0100
0000
,  // measure 36
0010
0010
0001
0010
0100
1000
0001
0100
,  // measure 37
0010
1000
0100
0001
0100
1000
0010
0000
,  // measure 38
0100
0100
0001
1000
0100
1000
0010
0100
,  // measure 39
0001
0010
0100
1000
0001
0100
0010
1000
,  // measure 40
1100
0000
0000
0110
0000
0000
0011
0000
,  // measure 41
0001
0100
0001
0010
0100
1000
0100
0010
,  // measure 42
0001
0100
0001
0100
0010
1000
0010
1000
,  // measure 43
0100
1000
0001
1000
1000
0100
0010
0001
,  // measure 44
0010
0100
1000
0001
0100
0001
0010
0100
,  // measure 45
1000
0100
1000
0001
0100
0001
1000
0100
,  // measure 46
0010
1000
0010
0001
0100
0001
1000
0100
,  // measure 47
1000
0010
0100
0010
0100
0001
1000
0100
,  // measure 48
1000
0010
0100
0001
0010
0001
0100
0010
,  // measure 49
1000
0100
0010
0001
0100
1000
0100
0001
,  // measure 50
2002
0000
0000
3003
,  // measure 51
1000
0001
1000
0001
,  // measure 52
0020
0000
0100
0000
2030
0001
0001
0000
,  // measure 53
3200
1000
0302
1000
,  // measure 54
0203
0000
1000
0000
0001
0000
0010
0310
,  // measure 55
2000
0100
3001
0110
,  // measure 56
2100
3002
0203
2300
,  // measure 57
3200
1000
0320
1000
,  // measure 58
0032
0000
0100
0000
1000
1000
1000
0000
,  // measure 59
0103
0110
1001
0011
,  // measure 60
2010
0001
0100
3010
,  // measure 61
0002
0000
0010
0000
1000
1000
1003
0000
,  // measure 62
1200
0010
0001
1300
,  // measure 63
1002
0000
0010
0000
0100
0100
0103
0000
,  // measure 64
2000
3020
0230
0302
,  // measure 65
0013
1100
1001
0101
,  // measure 66
0210
0000
0001
0000
1000
1000
1300
0000
,  // measure 67
1001
0101
0220
0330
,  // measure 68
1000
0100
0001
0100
2000
0000
3010
0000
,  // measure 69
0001
0100
1000
0100
0002
0000
1003
0000
,  // measure 70
0210
0000
0001
0000
1000
0000
0310
0010
,  // measure 71
0002
0100
1000
0103
,  // measure 72
0010
1000
0010
0100
0001
0010
0001
0000
,  // measure 73
0100
0010
0100
0100
0010
1000
0100
0000
,  // measure 74
1000
0100
1000
0001
0010
0100
1000
0000
,  // measure 75
0010
0100
0001
1000
0100
0010
0001
0000
,  // measure 76
1000
0110
0001
1100
,  // measure 77
0010
1001
0100
1010
,  // measure 78
2000
0010
0100
3002
,  // measure 79
0203
0010
1000
0301
,  // measure 80
0021
0230
2300
3002
,  // measure 81
0103
0010
1000
0100
0000
0010
0001
1000
,  // measure 82
0200
0010
0001
1000
,  // measure 83
0010
0000
1000
0000
0001
0001
0301
0000
,  // measure 84
1000
0011
0100
1001
,  // measure 85
0010
1100
0001
0110
,  // measure 86
2000
0001
0010
3200
,  // measure 87
0302
1000
0010
0103
,  // measure 88
1000
0010
1000
0100
0010
0001
0100
1000
,  // measure 89
0100
0001
0010
0100
1000
0001
0100
0010
,  // measure 90
0010
1000
0100
0001
0100
0010
1000
0100
,  // measure 91
1000
0001
0010
0100
1000
0100
0010
0001
,  // measure 92
2002
0000
3003
0000
,  // measure 93
1000
0000
0100
0000
0010
0000
0000
0020
0000
0000
0000
0000
0031
0000
0000
0002
,  // measure 94
0000
0000
0000
0203
0000
0000
0000
0000
,  // measure 95
0300
0000
0000
0000
;

//---------------dance-single - ----------------
#NOTES:
     dance-single:
     :
     Challenge:
     13:
     1.000,1.000,0.855,0.855,0.289,694.000,96.000,96.000,0.000,2.000:  // measure 1
1001
0100
1000
0010
0100
0001
0010
0100
,  // measure 2
1000
0000
0001
0000
0100
0000
0010
0000
1000
0000
0100
0000
0010
0001
0010
0000
,  // measure 3
1001
0010
0100
0010
0100
0001
1000
0100
,  // measure 4
0010
0000
0001
0000
1000
0000
0010
0000
1000
0100
1000
0100
0010
0000
0001
0000
,  // measure 5
0101
1000
0100
0010
1000
0010
0001
0100
,  // measure 6
0010
1000
0100
0001
0100
1000
0010
0100
,  // measure 7
1001
0010
0100
1000
0001
0100
0010
1000
,  // measure 8
0100
0000
0001
0000
0100
0000
1000
0000
0010
0000
0100
0000
0001
0010
0001
0000
,  // measure 9
2002
0000
3003
1100
,  // measure 10
0110
0000
1000
0000
0001
0000
0100
0000
0010
0000
1000
0000
0100
0001
0100
0001
,  // measure 11
0100
1000
0010
0100
0001
0010
0100
1000
,  // measure 12
1001
0100
0010
0001
0100
0010
0100
1000
,  // measure 13
0010
0000
0001
0000
1000
0000
0100
0000
0010
0001
0010
0001
0010
0000
0100
0000
,  // measure 14
1000
0000
0010
0000
0100
0000
0001
0000
1000
0000
0100
0000
0010
0000
0001
0100
,  // measure 15
0001
0000
0010
0000
0100
0000
1000
0000
0001
0000
0100
0000
0010
0000
1000
0100
,  // measure 16
1000
0000
0010
0000
0100
0000
0001
0000
0010
0000
0100
0000
1000
0000
0001
0100
,  // measure 17
0001
0010
0100
1000
1010
0100
0001
1000
,  // measure 18
2100
0000
0100
0000
3002
0010
0010
0000
,  // measure 19
0203
0010
0320
1000
2030
0001
3200
0010
,  // measure 20
0320
0000
0001
0000
0100
0100
0130
1000
,  // measure 21
2001
0000
0010
0000
3200
0001
0001
0000
,  // measure 22
0320
0100
0100
0000
0032
0100
1000
0000
,  // measure 23
0203
0001
0001
0000
0320
1000
1000
0000
,  // measure 24
0130
0001
0110
1000
0001
0100
0010
1000
,  // measure 25
1100
0001
0100
0010
1001
0100
0010
1000
,  // measure 26
1100
0000
0011
0000
0110
1000
1100
0000
,  // measure 27
2020
3030
1000
2002
3003
0001
0202
0303
,  // measure 28
0220
0330
0010
2020
3030
1000
2200
3300
,  // measure 29
1002
0000
0100
0000
0010
0010
1003
0100
,  // measure 30
2200
3300
0001
0202
0303
0100
0220
0330
,  // measure 31
2002
0000
0000
3003
,  // measure 32
0100
0010
0100
0010
0100
0000
0001
0000
0010
0000
0100
0000
1001
0000
0010
0000
,  // measure 33
0100
0202
0303
0000
1020
1030
2002
3003
,  // measure 34
0110
0000
1000
0000
0001
0000
0010
0000
0100
1000
0100
1000
0100
0000
0010
0000
,  // measure 35
0001
0000
1000
0000
0100
0010
0100
0010
0100
0000
1000
0000
0010
0000
0100
0000
,  // measure 36
0001
1000
0001
1000
0001
0000
0010
0000
0100
0000
1000
0000
0010
0000
0100
0000
,  // measure 37
0001
1001
0100
0010
1000
0001
0202
0303
,  // measure 38
1001
0100
0010
0001
0100
0010
1000
0100
,  // measure 39
0010
0001
0010
0000
0100
0000
1000
0000
0001
0000
0100
0000
0010
0000
1000
0000
,  // measure 40
2200
3300
0100
0220
0330
0010
0022
0033
,  // measure 41
1001
0000
1000
0000
0001
0000
0001
0000
0010
0100
0010
0000
0100
1000
0100
0000
,  // measure 42
1001
0000
0010
0000
0100
0000
0001
0000
1000
0100
1000
0100
1000
0000
0010
0000
,  // measure 43
0100
0000
0001
0000
0010
0000
0100
0000
1000
0001
1000
0001
1000
0000
0100
0000
,  // measure 44
0010
0000
1000
0000
0010
0000
0001
0000
0100
0010
0100
0010
0100
0000
1000
0000
,  // measure 45
0100
0000
0001
0000
1000
0000
0100
0000
0010
0001
0010
0001
0010
0000
0100
0000
,  // measure 46
1000
0000
0001
0000
0100
0000
0010
0000
1000
0100
1000
0100
1000
0000
0001
0000
,  // measure 47
0100
0000
1000
0000
0100
0000
0010
0000
0001
1000
0001
1000
0001
0000
0010
0000
,  // measure 48
0100
0000
1000
0000
0010
0000
0001
0000
0100
0010
0100
0010
0100
0000
1000
0000
,  // measure 49
0001
0000
0100
0000
0010
0000
1000
0000
0100
0010
0100
0010
0001
0000
0100
0000
,  // measure 50
2002
0000
0000
3003
,  // measure 51
0100
1000
0000
0000
0000
0000
0000
0000
0100
0001
0000
0000
0000
0000
0000
0000
0100
1000
0000
0000
0000
0000
0000
0000
0100
0001
0000
0000
0000
0000
0000
0000
,  // measure 52
1020
0000
0100
0000
2030
0001
0001
0000
,  // measure 53
3200
1000
1000
0000
0302
0010
1000
0000
,  // measure 54
0203
0000
1000
0000
0010
0010
0301
1000
,  // measure 55
2001
0000
0100
0000
3001
0100
0110
0000
,  // measure 56
2100
0001
3002
0100
0203
0001
0320
1000
,  // measure 57
2030
0000
0100
0000
3020
1000
0100
0000
,  // measure 58
0032
0000
0100
0000
1000
1000
0010
0000
,  // measure 59
0103
0010
0110
0000
1001
0000
0011
0000
,  // measure 60
2010
0000
0001
0000
0100
0001
3001
1000
,  // measure 61
0102
0000
0010
0000
1000
1000
0103
0000
,  // measure 62
1200
0000
0001
0000
1000
0010
0310
0001
,  // measure 63
1002
0000
0010
0000
0100
0100
1003
0000
,  // measure 64
2001
0010
3020
0100
0230
0001
0302
0010
,  // measure 65
0013
0100
1100
0000
1001
0000
0101
0000
,  // measure 66
0210
0000
0001
0000
1000
1000
0310
0001
,  // measure 67
1001
0000
0000
0000
0101
0000
0000
0000
0100
0010
0100
0010
0100
0010
1000
0000
,  // measure 68
1001
0000
0100
0000
0010
0001
0010
0000
0100
0000
1000
0000
0001
0100
0001
0000
,  // measure 69
0010
0000
0100
0000
1000
0010
1000
0000
0001
0000
0100
0000
0010
1000
0010
0000
,  // measure 70
0210
0000
0001
0000
1000
0010
0310
0001
,  // measure 71
1002
0000
0010
0000
1000
1000
0103
0010
,  // measure 72
0110
1000
0001
0100
0010
1000
1100
0001
,  // measure 73
0100
0010
1000
0100
0001
0100
1001
0010
,  // measure 74
0100
1000
1001
0100
0010
1000
1100
0001
,  // measure 75
0100
0010
1000
0100
0110
0001
0100
0010
,  // measure 76
1001
0000
0001
0000
0010
0100
0010
0000
0001
0000
0001
0000
1000
0100
1000
0000
,  // measure 77
0010
0000
0010
0000
0100
0001
0100
0000
0001
0000
0001
0000
0010
0100
1000
0000
,  // measure 78
2001
0000
0010
0000
0100
0001
3002
1000
,  // measure 79
0203
0000
0001
0000
1000
0010
0310
0001
,  // measure 80
0021
0100
0230
1000
2300
0001
3002
1000
,  // measure 81
0103
0000
0100
0000
0010
1000
0010
0000
1000
0000
0001
0000
0010
0000
0100
0000
,  // measure 82
1200
0000
0001
0000
0010
1000
1000
0000
,  // measure 83
0001
0000
1000
0000
0001
0001
0301
1000
,  // measure 84
1010
0000
0001
0000
1000
0100
1000
0000
0001
0000
0001
0000
0010
0100
0010
0000
,  // measure 85
0001
0000
0001
0000
1000
0010
1000
0000
0100
0000
0100
0000
0001
0100
0001
0000
,  // measure 86
2001
0000
0010
0000
0001
0001
3200
0010
,  // measure 87
0302
0000
0100
0000
0010
1000
1003
0001
,  // measure 88
1001
0010
0100
1000
0110
0001
0100
1000
,  // measure 89
1010
0001
0100
0010
1001
0010
0100
1000
,  // measure 90
1001
0100
0010
1000
0110
0001
0100
1000
,  // measure 91
1010
0100
0101
0010
0110
1000
1001
0101
,  // measure 92
2002
0000
0000
0000
0200
3003
0300
0000
,  // measure 93
1100
0001
0101
0000
1010
0001
0011
0100
0220
0000
0330
0000
1001
0010
0101
0001
,  // measure 94
0022
0000
0000
0000
0000
0000
0000
0000
0033
0000
0000
0000
2000
0200
0002
0000
0000
0000
0000
0000
3000
0000
0000
0000
0000
0000
0000
0000
0300
0000
0000
0000
,  // measure 95
0000
0003
0000
0000
0000
0000
0000
0000
;

//---------------dance-single - ----------------
#NOTES:
     dance-single:
     :
     Medium:
     9:
     0.775,0.753,0.961,0.917,0.009,398.000,108.000,103.000,0.000,0.000:  // measure 1
1000
0100
1000
0000
0001
0100
0001
0000
,  // measure 2
0010
0100
0010
0000
0001
1000
0001
0000
,  // measure 3
0100
0010
0100
0000
0010
1000
0010
0000
,  // measure 4
1000
0100
1000
0000
0001
0010
0001
0000
,  // measure 5
0100
0010
0100
0000
1000
0100
1000
0000
,  // measure 6
0100
0001
0100
0000
0001
0010
0001
0000
,  // measure 7
1000
0010
1000
0000
0100
0010
0100
0000
,  // measure 8
0010
0001
0010
0000
0100
1000
0100
0000
,  // measure 9
1001
0000
0000
0000
,  // measure 10
0110
1001
0110
1001
,  // measure 11
1100
0011
1100
0011
,  // measure 12
0101
1010
0101
1010
,  // measure 13
1000
0100
0010
0001
0010
0100
1000
0000
,  // measure 14
0101
1100
0101
1100
,  // measure 15
1010
0011
1010
0011
,  // measure 16
1001
0110
1001
0110
,  // measure 17
1000
0100
0010
0001
0010
0100
1000
0000
,  // measure 18
2020
3030
0202
0303
,  // measure 19
0002
0023
0230
2300
,  // measure 20
3020
0000
0000
0000
0000
0000
0230
0302
,  // measure 21
2003
0000
0000
3000
0220
0000
0330
0000
,  // measure 22
0022
0033
2002
3003
,  // measure 23
0220
0330
2020
3030
,  // measure 24
0100
0001
0100
0000
0001
0000
0010
0000
,  // measure 25
0100
1000
0100
0000
1000
0000
0001
0000
,  // measure 26
0220
0330
2200
3300
,  // measure 27
1100
0000
0000
1001
0000
0000
0101
0000
,  // measure 28
0110
0000
0000
1010
0000
0000
1100
0000
,  // measure 29
2002
0000
0000
3003
,  // measure 30
1100
0000
0000
0101
0000
0000
0110
0000
,  // measure 31
2002
0000
0000
3003
,  // measure 32
0100
0010
0100
0010
1000
0001
1000
0100
,  // measure 33
0000
0110
0000
0000
0101
0000
1001
0000
,  // measure 34
1010
0110
0101
0011
,  // measure 35
0110
1100
1001
0101
,  // measure 36
0100
0010
1000
0000
0001
0010
0100
0000
,  // measure 37
1000
0001
1000
0000
0100
0010
0001
0000
,  // measure 38
0110
1100
1001
0101
,  // measure 39
0110
0011
1001
1010
,  // measure 40
0110
0000
0000
1001
0000
0000
1100
0000
,  // measure 41
0100
0010
0001
0010
0100
1000
0001
0100
,  // measure 42
0010
1000
0010
0100
0001
0010
0001
0100
,  // measure 43
0010
1000
0100
1000
0100
0010
0001
0000
,  // measure 44
0100
0010
0100
0001
0010
0001
1000
0100
,  // measure 45
1000
0001
0010
0100
1000
0100
0010
0000
,  // measure 46
0001
0100
0001
1000
0100
0010
0001
0010
,  // measure 47
0100
1000
0001
0100
0010
1000
0100
0000
,  // measure 48
1000
0100
0001
0100
1000
0010
0100
0001
,  // measure 49
0100
0001
0010
0100
1000
0100
0010
0000
,  // measure 50
2002
0000
0000
3003
,  // measure 51
1001
0110
1001
0110
,  // measure 52
0202
0303
2002
3003
,  // measure 53
2200
3300
0220
0330
,  // measure 54
0202
0000
0000
0000
0300
0000
0023
0230
,  // measure 55
2300
0000
3001
0010
,  // measure 56
0200
2300
3020
0230
,  // measure 57
0302
0000
0000
0003
0220
0000
0330
0000
,  // measure 58
2002
0000
0000
3003
,  // measure 59
0100
0010
0100
0000
0001
0000
1001
0000
,  // measure 60
2020
0000
3030
0210
,  // measure 61
0302
1000
1000
0003
,  // measure 62
2200
0000
0300
3002
,  // measure 63
0203
0000
0010
0300
,  // measure 64
2000
3020
0230
0302
,  // measure 65
0013
1100
1001
0101
,  // measure 66
0220
0000
0000
0330
,  // measure 67
1001
0101
0220
0330
,  // measure 68
1000
0000
0001
0100
0001
0000
1000
0010
,  // measure 69
1000
0000
0100
0010
0001
0000
0011
0000
,  // measure 70
0220
0000
0000
0000
0330
0000
2000
3200
,  // measure 71
0320
0001
0001
0030
,  // measure 72
1000
0100
0001
0000
0001
0100
1000
0000
,  // measure 73
0010
1001
1100
0101
,  // measure 74
0001
0100
0010
0000
0010
1000
0100
0000
,  // measure 75
1100
0000
0101
0000
0001
0010
0100
0000
,  // measure 76
1000
1200
0310
1002
,  // measure 77
0103
1020
0130
1001
,  // measure 78
2200
0000
0000
0000
3300
0000
0002
0023
,  // measure 79
0230
0000
1000
0300
,  // measure 80
0021
0230
2300
3002
,  // measure 81
0203
0000
0000
0320
0000
0000
2030
0000
,  // measure 82
3200
0000
0010
0000
,  // measure 83
0001
0000
1000
0300
,  // measure 84
0010
1002
0103
2010
,  // measure 85
3001
0210
1300
0101
,  // measure 86
2002
0000
0000
0000
3003
0000
0200
0320
,  // measure 87
0032
0000
0010
0003
,  // measure 88
0100
0010
1000
0100
1000
0001
0100
0001
,  // measure 89
0010
0100
0010
0100
1000
0010
1000
0010
,  // measure 90
0100
0001
0100
1000
0100
0001
1000
0010
,  // measure 91
1000
0100
0010
0001
0100
0010
1000
0100
,  // measure 92
0020
0000
0030
0000
,  // measure 93
1000
0000
0100
0000
0010
0000
0000
0020
0000
0000
0000
0000
0031
0000
0000
0002
,  // measure 94
0000
0000
0000
0203
0000
0000
0000
0000
,  // measure 95
0300
0000
0000
0000
;

//---------------dance-single - ----------------
#NOTES:
     dance-single:
     :
     Easy:
     7:
     0.577,0.753,0.686,0.632,0.009,306.000,77.000,71.000,0.000,0.000:  // measure 1
1000
0100
0010
0001
,  // measure 2
0001
0100
0010
1000
,  // measure 3
0100
1000
0001
0100
,  // measure 4
1000
0100
0001
0100
,  // measure 5
0010
1000
0100
1000
,  // measure 6
1000
0001
0010
0100
,  // measure 7
1000
1000
0100
0010
,  // measure 8
0001
0100
0010
1000
,  // measure 9
2002
0000
0000
3003
,  // measure 10
0100
0010
1000
0001
,  // measure 11
0001
0010
0100
1000
,  // measure 12
0001
0100
0010
1000
,  // measure 13
0110
0011
0110
0011
,  // measure 14
1000
0001
0010
0100
,  // measure 15
1000
0001
0100
0001
,  // measure 16
0010
0100
1000
0001
,  // measure 17
0101
0110
0101
0110
,  // measure 18
2000
0000
3200
0000
,  // measure 19
0320
0032
0203
0320
,  // measure 20
2030
0000
0000
3200
,  // measure 21
0320
0000
0032
0000
,  // measure 22
0203
0000
0320
0000
,  // measure 23
0230
0000
0302
0000
,  // measure 24
0103
1001
0010
1001
,  // measure 25
0100
1001
0010
1001
,  // measure 26
0020
0000
0230
0300
,  // measure 27
1100
0000
0000
1001
0000
0000
0101
0000
,  // measure 28
0110
0000
0000
1010
0000
0000
1100
0000
,  // measure 29
2002
0000
0000
3003
,  // measure 30
1100
0000
0000
0101
0000
0000
0110
0000
,  // measure 31
2002
0000
0000
3003
,  // measure 32
0100
0010
0100
0010
,  // measure 33
0000
0110
0000
0000
0101
0000
1001
0000
,  // measure 34
1000
0010
0001
0010
,  // measure 35
1000
0010
0001
0010
,  // measure 36
1000
0100
0001
0100
,  // measure 37
0000
1001
0000
0000
0101
0000
0011
0000
,  // measure 38
1000
0001
0010
0100
,  // measure 39
1000
0001
0100
0010
,  // measure 40
0110
0000
0000
1001
0000
0000
1100
0000
,  // measure 41
0001
1000
0001
0000
1000
0001
1000
0000
,  // measure 42
0010
0100
0001
0010
,  // measure 43
0100
1000
0001
0101
,  // measure 44
1000
0100
0010
0001
,  // measure 45
0100
0010
1000
1100
,  // measure 46
0001
0100
1000
0100
,  // measure 47
0010
1000
0001
0101
,  // measure 48
0010
1000
0100
0001
,  // measure 49
0100
0010
1000
0100
,  // measure 50
0022
0000
0000
0033
,  // measure 51
1001
1001
1001
1001
,  // measure 52
0200
0000
0302
0000
,  // measure 53
0023
0000
0230
0000
,  // measure 54
2300
0000
0000
3020
,  // measure 55
0230
0000
0301
0000
,  // measure 56
0200
0320
2030
3200
,  // measure 57
0320
0000
0032
0000
,  // measure 58
0203
0000
0310
0000
,  // measure 59
0001
0110
1000
0110
,  // measure 60
0200
0000
0000
0320
,  // measure 61
0032
0000
1003
0000
,  // measure 62
2000
0000
0000
3002
,  // measure 63
0203
0000
0310
0000
,  // measure 64
2000
3020
0230
0302
,  // measure 65
0013
1100
1000
0110
,  // measure 66
0020
0000
0031
0000
,  // measure 67
1001
0110
1001
0000
,  // measure 68
0100
0110
0001
1001
,  // measure 69
0100
1100
0001
1001
,  // measure 70
2000
0000
0000
3200
,  // measure 71
0320
0000
0031
0000
,  // measure 72
1000
0100
0010
1000
,  // measure 73
0010
0001
0100
0010
,  // measure 74
1000
0001
0010
0100
,  // measure 75
1000
0001
0001
0100
,  // measure 76
1000
1100
0001
0101
,  // measure 77
0010
1010
0100
0101
,  // measure 78
2000
0000
0000
3002
,  // measure 79
0203
0000
0310
0000
,  // measure 80
0020
0032
0203
0320
,  // measure 81
2030
0000
0000
3002
0000
0000
0023
0000
,  // measure 82
0230
0000
0310
0000
,  // measure 83
1000
0100
1000
0001
,  // measure 84
0010
0110
1000
1100
,  // measure 85
0001
0011
0100
0110
,  // measure 86
2000
0000
0000
3200
,  // measure 87
0320
0000
0031
0000
,  // measure 88
1100
1010
1100
1010
,  // measure 89
0011
0101
0011
0101
,  // measure 90
0110
1001
0110
1001
,  // measure 91
1010
0101
1010
0101
,  // measure 92
0220
0000
0330
0000
,  // measure 93
1000
0000
0100
0000
0010
0000
0000
0020
0000
0000
0000
0000
0031
0000
0000
0002
,  // measure 94
0000
0000
0000
0203
0000
0000
0000
0000
,  // measure 95
0300
0000
0000
0000
;

//---------------dance-double - ----------------
#NOTES:
     dance-double:
     :
     Hard:
     10:
     0.823,0.753,0.588,0.614,0.009,512.000,66.000,69.000,0.000,0.000:  // measure 1
01000000
00001000
01000000
00001000
00010000
00000010
00010000
00000010
,  // measure 2
00000100
00000001
00000100
00000100
00000010
00010000
00000010
00001000
,  // measure 3
00000100
00010000
00001000
01000000
00100000
10000000
00100000
01000000
,  // measure 4
00010000
00100000
00010000
10000000
00001000
00010000
00001000
00010000
,  // measure 5
00000010
00001000
00000010
00001000
00000100
00010000
00000100
00001000
,  // measure 6
00000001
00000100
00000001
00000010
00000100
00000010
00000100
00001000
,  // measure 7
00000010
00010000
00001000
00010000
00010000
00001000
01000000
00100000
,  // measure 8
01000000
00010000
10000000
01000000
10000000
00100000
01000000
00001000
,  // measure 9
00011000
00000000
00000000
00000000
,  // measure 10
10000000
00010000
01000000
00001000
00010000
00000100
00000010
00000100
,  // measure 11
00010000
00001000
00010000
00001000
00100000
01000000
00100000
00000000
,  // measure 12
10000000
01000000
10000000
00010000
01000000
00001000
00010000
00000010
,  // measure 13
00000100
00000010
00000100
00000001
00001000
00000001
00001000
00000000
,  // measure 14
00000100
00010000
00000100
00001000
00000010
00010000
00001000
01000000
,  // measure 15
00100000
10000000
00100000
10000000
00010000
01000000
00001000
00000000
,  // measure 16
01000000
00100000
10000000
00010000
00100000
00001000
00100000
00010000
,  // measure 17
00001000
00000100
00000010
00000001
00000010
00000001
00001001
00000000
,  // measure 18
00002200
00003300
00022000
00033000
,  // measure 19
00020000
00230000
02300000
13000000
,  // measure 20
02020000
00000000
00000000
00000000
03030000
00000000
00100000
00010000
,  // measure 21
00002000
00003000
00002200
00003300
,  // measure 22
00020020
00030030
00022000
00033000
,  // measure 23
02200000
03300000
20020000
30030000
,  // measure 24
01100000
01001000
00011000
00010100
,  // measure 25
00000010
00000001
00000010
00000100
00001000
00000010
00010000
00001000
,  // measure 26
00100000
00010000
00110000
00000000
20020000
00000000
30030000
00000000
,  // measure 27
11000000
00000000
00000000
01100000
00000000
00000000
00110000
00000000
,  // measure 28
00011000
00000000
00000000
00001100
00000000
00000000
00000110
00000000
,  // measure 29
00000100
00001000
00000001
00000000
00000001
00000100
00001000
00000000
,  // measure 30
00001100
00000000
00000000
00011000
00000000
00000000
00110000
00000000
,  // measure 31
20020000
00000000
30030000
00000000
,  // measure 32
01000000
00001000
00010000
00000100
00001000
00000010
00001000
00000001
,  // measure 33
00000000
00000101
00000000
00000000
00011000
00000000
00110000
00000000
,  // measure 34
00100000
01000000
10000000
00010000
01000000
00001000
00010000
00001000
,  // measure 35
00001000
01000000
00000100
00010000
00000010
00001000
00000001
00000000
,  // measure 36
00001000
00000100
00010000
00001000
01000000
00100000
10000000
01000000
,  // measure 37
10000000
01000000
00100000
00001000
00100000
00001000
00010000
00000000
,  // measure 38
00000100
00001000
00000010
00001000
00000010
00000100
00000001
00000100
,  // measure 39
00000001
00010000
00001000
00010000
00001000
00100000
01000000
00100000
,  // measure 40
01100000
00000000
00000000
00110000
00000000
00000000
00011000
00000000
,  // measure 41
00010000
00000010
00001000
00000010
00000100
00000001
00000010
00000100
,  // measure 42
00001000
00000100
00000010
00000001
00010000
00001000
00010000
00001000
,  // measure 43
01000000
00100000
01000000
00100000
10000000
01000000
10000000
01000000
,  // measure 44
00100000
00010000
00100000
00010000
00001000
00000100
00001000
00000100
,  // measure 45
00000010
00000001
00000100
00000010
00010000
00001000
00100000
01000000
,  // measure 46
10000000
00010000
01000000
00010000
00100000
00001000
00100000
00010000
,  // measure 47
01000000
00000100
00010000
00000010
00001000
00000001
00000100
00000001
,  // measure 48
00000010
00000100
00001000
00000010
00010000
00001000
01000000
00100000
,  // measure 49
10000000
01000000
00100000
00010000
00001000
00000100
00000010
00000001
,  // measure 50
00002002
00000000
00000000
00003003
,  // measure 51
10000000
00010000
00001000
00000001
,  // measure 52
00002200
00003300
00220000
00330000
,  // measure 53
02200000
03300000
02002000
03003000
,  // measure 54
22000000
00000000
00000000
00000000
33000000
00000000
00100000
00010000
,  // measure 55
00002000
00000000
00003100
00000010
,  // measure 56
00000002
00000203
00002300
00013000
,  // measure 57
02200000
03300000
22000000
33000000
,  // measure 58
20000000
01000000
30100000
00010000
,  // measure 59
01000000
00001000
00010000
00000010
00000100
00000001
00000100
00000000
,  // measure 60
00001000
00010000
00100000
00000000
01000000
10000000
00100000
00000000
,  // measure 61
10000000
00010000
00100000
00000000
00001000
00010000
00001000
00000000
,  // measure 62
00100000
00010000
00100000
00000000
00010000
00001000
02000000
00000000
,  // measure 63
03001000
00010000
00000100
00000000
00000001
00000000
00001001
00000000
,  // measure 64
00000200
00002300
00023000
00230000
,  // measure 65
01300000
10000000
00010000
01000000
00000000
00001000
00010000
00000000
,  // measure 66
00010100
00000000
00000010
00000000
00000001
00001000
00000001
00000000
,  // measure 67
00000110
00001100
00022000
00033000
,  // measure 68
01000000
10010000
00100000
00011000
,  // measure 69
00000100
00000011
00000001
00000110
,  // measure 70
00022000
00000000
00000000
00000000
00033000
00000000
01000000
00100000
,  // measure 71
00020000
00000000
00031000
00000100
,  // measure 72
00000010
00000001
00000010
00000100
00001000
00000010
00010000
00001000
,  // measure 73
10000000
00001000
01000000
00100000
01000000
00010000
00100000
00000000
,  // measure 74
00001000
00010000
00000100
00010000
00000010
00001000
00000001
00010000
,  // measure 75
00001000
00000010
00000001
00001000
00000100
00010000
00001000
00100000
,  // measure 76
00010000
01100000
10000000
00110000
,  // measure 77
00001000
00000110
00000001
00001100
,  // measure 78
00022000
00000000
00000000
00000000
00033000
00000000
00010000
00100000
,  // measure 79
02000000
10000000
00100000
03010000
,  // measure 80
00200000
00302000
00023000
00030200
,  // measure 81
00001300
00000010
00001000
00000100
00000000
00100000
00010000
10000000
,  // measure 82
02000000
00100000
03100000
00010000
,  // measure 83
00001000
00000000
00001100
00000000
00000010
00000001
00000010
00000000
,  // measure 84
00001000
00010100
00001000
00110000
,  // measure 85
01000000
10010000
00100000
00011000
,  // measure 86
02020000
00000000
00000000
00000000
03030000
00000000
10000000
00100000
,  // measure 87
00020000
00001000
00031000
00000100
,  // measure 88
00000010
00000001
00000010
00000100
00001000
00000010
00010000
00001000
,  // measure 89
01000000
00100000
10000000
01000000
00010000
00001000
00000100
00000010
,  // measure 90
00000001
00001000
00000010
00010000
00001000
01000000
00100000
10000000
,  // measure 91
01000000
10000000
00010000
00100000
00001000
00010000
00000100
00001000
,  // measure 92
00022000
00000000
00033000
00000000
,  // measure 93
10000000
00000000
01000000
00000000
00110000
00000000
00000000
00011000
00000000
00000000
00000000
00000000
00000110
00000000
00000000
00011000
,  // measure 94
00000000
00000000
00000000
02000000
00000000
00000000
00000000
00000000
,  // measure 95
03000000
00000000
00000000
00000000
;

//---------------dance-double - ----------------
#NOTES:
     dance-double:
     :
     Challenge:
     11:
     0.942,1.000,0.908,0.605,0.022,571.000,102.000,68.000,0.000,0.000:  // measure 1
01000000
00001000
00100000
00001000
00010000
00000100
00001000
00000010
,  // measure 2
00000100
00000001
00000100
00001000
00000010
00010000
00000100
00001000
,  // measure 3
00000001
00010000
00001000
01000000
00100000
10000000
00010000
01000000
,  // measure 4
00001000
00100000
00010000
10000000
00001000
00010000
00000100
00001000
,  // measure 5
00000010
00000100
00000001
00001000
00000100
00010000
00000010
00001000
,  // measure 6
00000001
00000100
00000001
00000010
00001000
00000010
00000100
00001000
,  // measure 7
00000010
00010000
00001000
00010000
00010000
00001000
01000000
00100000
,  // measure 8
01000000
00010000
10000000
01000000
10000000
00100000
01000000
00001000
,  // measure 9
00022000
00000000
00000000
00033000
00000000
00000000
00110000
00000000
,  // measure 10
10010000
00010000
01000000
00001000
00010000
00000100
00000010
00000100
,  // measure 11
00010000
00001000
01000000
00001000
00100000
01000000
01100000
00100000
,  // measure 12
10000000
01000000
00100000
00010000
01000000
00001000
00010000
00000010
,  // measure 13
00000100
00000001
00000010
00000100
00001000
00000001
00001001
00001000
,  // measure 14
00000100
00010000
00000100
00001000
00000010
00010000
00001000
01000000
,  // measure 15
00100000
10000000
01000000
00100000
00010000
01000000
01001000
00001000
,  // measure 16
01000000
00100000
10000000
00010000
00100000
00001000
00100000
00010000
,  // measure 17
00001000
00000100
00000010
00000001
00000010
00000001
00001001
00001000
,  // measure 18
00001200
00010300
00012000
00103000
,  // measure 19
10020000
00230000
02300000
13000000
,  // measure 20
02010000
00000000
00100000
00000000
03010000
00000000
00100000
00010000
,  // measure 21
00012000
00003100
00001200
00000310
,  // measure 22
00020010
00031000
00012000
00103000
,  // measure 23
01200000
10300000
20010000
30100000
,  // measure 24
01000000
00010000
01001000
00000000
00010000
00001000
00010100
00000000
,  // measure 25
00000010
00000001
00000010
00000100
00001000
00000010
00010000
00001000
,  // measure 26
00100000
00010000
00110000
00000000
20020000
00000000
30030000
00000000
,  // measure 27
11000000
00000000
01000000
01100000
00000000
00100000
00110000
00000000
,  // measure 28
00011000
00000000
00001000
00001100
00000000
00000100
00000110
00000000
,  // measure 29
00000100
00001000
00000001
00000010
00000001
00000100
00001000
00000000
,  // measure 30
00001100
00000000
00001000
00011000
00000000
00010000
00110000
00000000
,  // measure 31
20020000
00000000
30030000
00000000
,  // measure 32
01000000
00001000
00010000
00000100
00001000
00000010
00001000
00000001
,  // measure 33
00000100
00000101
00000000
00000000
00011000
00000000
00110000
00000000
,  // measure 34
00100000
01000000
10000000
00010000
01000000
00001000
00010000
00000100
,  // measure 35
00001000
01000000
00000100
00010000
00000010
00001000
00000001
00000100
,  // measure 36
00001000
00000100
00010000
00001000
01000000
00100000
10000000
01000000
,  // measure 37
00010000
01000000
00100000
00001000
00010000
00001000
01000000
00010000
,  // measure 38
00000100
00001000
00000010
00000100
00000010
00010000
00000001
00000100
,  // measure 39
00000001
00010000
00001000
01000000
00001000
00010000
01000000
00100000
,  // measure 40
01100000
00000000
00010000
00110000
00000000
00001000
00011000
00000000
,  // measure 41
00010001
00000010
00001000
00000010
00000100
00000001
00000010
00000100
,  // measure 42
00001000
00000100
00000010
00000001
00010000
00001000
00100000
00010000
,  // measure 43
01000000
00100000
00010000
00100000
10000000
01000000
00010000
01000000
,  // measure 44
00100000
10000000
00100000
00010000
00001000
00000100
00000001
00000100
,  // measure 45
00000010
00000001
00000100
00000010
00010000
00001000
00100000
01000000
,  // measure 46
10000000
00010000
01000000
00010000
00100000
00001000
10000000
00010000
,  // measure 47
01000000
00000100
00010000
00000010
00001000
00000001
00000100
00001000
,  // measure 48
00000010
00000100
00001000
00000010
00010000
00001000
01000000
00100000
,  // measure 49
10000000
01000000
00100000
00010000
00001000
00000100
00000010
00000001
,  // measure 50
00002002
00000000
00000000
00003003
,  // measure 51
00011000
10010000
00011000
00001001
,  // measure 52
00001200
00010300
00120000
00031000
,  // measure 53
02100000
03010000
01002000
00103000
,  // measure 54
21000000
00000000
00010000
00000000
31000000
00000000
00100000
00010000
,  // measure 55
00002000
00000000
00010000
00000000
00003100
00000010
00000001
00000000
,  // measure 56
00000012
00000203
00002300
00013000
,  // measure 57
02100000
13000000
10020000
00130000
,  // measure 58
20010000
01000000
30100000
00010000
,  // measure 59
01000000
00001000
00010000
00000010
00000100
00000001
00000010
00000100
,  // measure 60
00001000
00010000
00100000
01000000
10000000
01000000
01100000
00000000
,  // measure 61
10000000
00000000
01100000
00000000
00001000
00010000
00001000
00000000
,  // measure 62
00100000
00010000
01000000
00100000
00010000
00001000
02000000
00000000
,  // measure 63
03001000
00010000
00000100
00000010
00000001
00000000
00001001
00000000
,  // measure 64
00000210
00002300
00023000
00230000
,  // measure 65
01300000
10000000
00010000
01010000
00000000
00001000
00010000
00001000
,  // measure 66
00020100
00000000
00030010
00000000
00000001
00001000
00000001
00000000
,  // measure 67
00000110
00001100
00022000
00033000
,  // measure 68
01000000
10020000
00130000
00012000
,  // measure 69
00003100
00000000
00000021
00000000
00000031
00000000
00000110
00001000
,  // measure 70
00021000
00000000
00100000
00000000
00031000
00000000
01000000
00100000
,  // measure 71
00020000
00001000
00031000
00000100
,  // measure 72
00000010
00000001
00000010
00000100
00001000
00000010
00010000
00001000
,  // measure 73
10000000
00010000
01000000
00100000
10000000
00010000
00100000
01000000
,  // measure 74
00001000
00010000
00000100
00100000
00000010
00001000
00000001
00010000
,  // measure 75
00001000
00000010
00000001
00001000
00000100
00010000
00001000
00100000
,  // measure 76
00010000
01200000
10300000
00120000
,  // measure 77
00031000
00000000
00000120
00000000
00000031
00000000
00001100
00001000
,  // measure 78
00021000
00000000
00100000
00000000
00031000
00000000
00010000
00100000
,  // measure 79
02000000
10000000
00100000
03010000
,  // measure 80
01200000
00302000
00023000
00030200
,  // measure 81
00001300
00000010
00001000
00001100
00000000
00101000
00010000
10000000
,  // measure 82
12000000
00100000
03100000
00010000
,  // measure 83
00001000
00000100
00001100
00000000
00000010
00000001
00000011
00000000
,  // measure 84
00001000
00010200
00001300
00210000
,  // measure 85
01300000
00000000
20010000
00000000
30100000
00000000
00011000
00010000
,  // measure 86
02010000
00000000
00100000
00000000
13000000
00000000
10000000
00100000
,  // measure 87
00020000
00000000
00001000
00000000
00031000
00000100
00000110
00000000
,  // measure 88
00000011
00000001
00000010
00000100
00011000
00000010
00100000
00001000
,  // measure 89
01010000
00100000
10000000
01000000
00110000
00001000
00000100
00000010
,  // measure 90
00000101
00001000
00000010
00010000
00011000
01000000
00100000
10000000
,  // measure 91
01010000
10000000
00010000
00100000
01001000
00010000
00000100
00001000
,  // measure 92
00022000
00000000
00033000
00000000
,  // measure 93
10001000
00000000
01010000
00000000
00110000
00001100
00000000
00022000
00000000
00000000
00033000
00000000
00000110
00011000
00000000
00022000
,  // measure 94
00000000
00000000
00033000
00000000
00000000
00000000
01000100
02000200
00000000
00000000
00000000
00000000
00000000
00000000
00000000
00000000
,  // measure 95
03000300
00000000
00000000
00000000
;
