#TITLE:Lollipop;
#SUBTITLE:;
#ARTIST:Lil Wayne;
#TITLETRANSLIT:;
#SUBTITLETRANSLIT:;
#ARTISTTRANSLIT:;
#CREDIT:Arch0wl;
#BANNER:lollipop-bn.png;
#BACKGROUND:lollipop-bg.png;
#LYRICSPATH:;
#CDTITLE:!arch0wltitle.png;
#MUSIC:lollipop.ogg;
#OFFSET:1.576;
#SAMPLESTART:24.980;
#SAMPLELENGTH:28.000;
#SELECTABLE:YES;
#BPMS:0.000=148.000;
#STOPS:;
#BGCHANGES:0.000=lollipop-bg.png=1.000=0=0=1,
739.000=lollipop-bg.png=1.000=0=0=1,
99999=-nosongbg-=1.000=0=0=0 // don't automatically add -songbackground-
;
// cache tags:
#FIRSTBEAT:4.000;
#LASTBEAT:740.000;
#SONGFILENAME:Songs/Archmage and Dark0wl Hammer of Thor UltraHyperMegaPack/Lollipop/lollipop.sm;
#HASMUSIC:1;
#HASBANNER:1;
#MUSICLENGTH:105.000;
// end cache tags

//---------------dance-single - Arch0wl----------------
#NOTES:
     dance-single:
     Arch0wl:
     Challenge:
     13:
     1.000,1.000,1.000,0.657,0.438,1459.000,508.000,69.000,0.000,15.000:
0000
0000
0000
0000
,
1000
1000
1000
1000
0100
0100
0100
0100
,
0010
0010
0010
0010
0001
0001
0001
0001
,
1000
1000
1000
1000
0100
0100
0100
0100
,
0010
0010
0010
0010
0001
0001
0001
0001
,
1000
0010
1000
0100
0010
1000
0010
0001
,
0100
1000
0100
0001
0010
0100
0010
0001
,
1000
1000
1000
1000
0100
0100
0020
0032
,
2103
3021
1032
1203
2301
3001
2100
0100
,
3011
1000
0100
1000
0011
0100
1001
0100
,
0010
1001
0100
0010
1001
0100
0010
1000
,
0011
1000
0100
1000
0011
1100
0010
1000
,
0010
1001
0100
0010
1001
0100
0010
1000
,
0101
1100
0101
1100
0001
0010
1001
0100
,
0010
1001
0100
0010
1001
0100
1001
0100
,
1001
0010
1000
0010
0100
0001
0100
1000
,
1000
0000
0100
0000
0010
0000
1000
0000
1000
0000
1000
0001
0010
0000
0101
0000
,
2001
3010
0100
0010
1001
0100
0001
1001
,
0100
1100
1001
0010
0101
0010
1000
0100
,
2001
3100
1000
0100
0011
0100
1100
1001
,
0100
1100
1001
0010
1000
0100
0010
0001
,
2100
0100
0100
3011
0100
1000
0001
0010
,
2100
0100
3100
1001
0001
1100
1000
0010
,
0101
0000
1000
0000
0100
0000
1000
0000
0011
0000
1000
0100
1000
0000
0101
0000
,
0010
0000
0100
0001
1000
0100
1000
0100
1000
0000
0101
0000
0001
0000
1100
0000
,
0201
0010
0010
0310
1001
0001
0100
1010
,
0001
1100
0011
1000
0110
1000
0001
1000
,
0021
0100
0130
0100
1001
0100
0010
1001
,
0100
1001
0101
0010
1000
0100
0010
0001
,
2100
0001
3100
0010
1000
0100
0010
0001
,
2100
0001
3100
0010
0001
1000
0001
1000
,
2100
0000
0100
0000
0100
0000
0100
0000
0001
0000
3001
0000
0100
0010
1000
0100
,
0010
0000
0000
0000
0001
1000
0001
1000
0001
0000
1000
0000
0100
0000
0010
0000
,
1001
0000
0010
1100
0011
0000
1100
0011
,
0001
0000
1100
0000
0011
0000
1000
0000
1001
0000
0001
0100
0001
0000
1001
0000
,
1100
0000
0100
1100
1001
0110
1001
0010
,
1001
0100
0100
1000
0100
0010
1001
0000
,
0110
0000
1000
0001
0101
0000
1000
0001
,
0110
1000
0001
0000
1100
0000
0010
0001
,
1100
0000
0010
0000
0001
0000
0010
0000
1100
0000
1000
0001
1000
0000
0001
0000
,
1000
0000
0100
0000
0100
0000
0001
0000
0100
0000
1000
0010
1000
0000
0100
0000
,
1001
0010
1000
0101
1010
0001
1100
0011
,
1000
0011
1100
0001
0100
0010
1000
0010
,
0101
0000
0000
0000
0000
0000
1100
0000
0000
0000
0000
0000
0011
0000
0000
0100
1000
0000
0000
0000
0000
0011
0000
0000
,
1000
0001
0001
0100
0010
1000
0100
0010
,
1001
0000
1100
0001
1001
0000
0101
0100
,
1000
0001
0001
1000
0101
1100
0101
1000
,
0101
0000
0001
0001
0001
0000
0001
0000
0101
0000
0000
0000
2020
0000
0000
0000
,
3131
0000
1000
0100
1000
0100
1000
0100
1001
0000
0000
0000
0101
0000
0000
0000
,
0001
1100
0101
1100
0101
0010
1001
0010
,
0100
1001
0010
0100
1001
0100
1001
0100
,
1001
0101
1100
0101
1001
0110
1001
0010
,
0100
1001
0010
0100
1001
1001
1100
0101
,
1010
0011
1010
0011
1010
0001
1000
0100
,
0010
0001
0100
0010
1000
0010
0101
0010
,
1001
0000
0010
0000
0101
0000
0010
0000
1000
0000
1000
0100
0001
0000
0100
0000
,
1100
0000
0000
0000
0010
0100
0010
0100
1001
0000
0101
0000
1001
0000
1100
0000
,
2001
3010
0100
0010
1001
0100
0001
1001
,
0100
1100
1001
0010
0101
0010
1000
0100
,
2001
3100
1000
0100
0011
0100
1100
1001
,
0100
1100
1001
0010
1000
0100
0010
0001
,
2100
0100
0100
3011
0100
1000
0001
0010
,
2100
0100
3100
1001
0001
1100
1000
0010
,
0101
0000
1000
0000
0100
0000
1000
0000
0011
0000
1000
0100
1000
0000
0101
0000
,
0010
0100
0001
1000
1001
0101
1001
1100
,
0201
0010
0010
0310
1001
0001
0100
1010
,
0001
1100
0011
1000
0110
1000
0001
1000
,
0021
0100
0130
0100
1001
0100
0010
1001
,
0100
1001
0101
0010
1000
0100
0010
0001
,
2100
0001
3100
0010
1000
0100
0010
0001
,
2100
0001
3100
0010
0001
1000
0001
1000
,
2100
0000
0100
0000
0100
0000
0100
0000
0001
0000
3001
0000
0100
0010
1000
0100
,
0010
0000
0000
0000
0001
1000
0001
1000
0001
0000
1000
0000
0100
0000
0010
0000
,
1001
0000
1100
0000
1001
0000
0101
0010
,
1100
0101
1100
1001
,
0110
0001
1000
0110
0000
0101
1100
0001
,
1100
0101
0010
1000
0101
0000
1001
0001
,
1100
0000
0000
0000
1001
0000
0000
0000
0010
0000
0110
0000
0110
1000
0001
0000
,
0101
0000
0100
0000
0010
0000
1000
0000
0101
0000
0000
0000
0001
0001
0001
0000
,
1100
1000
0010
0100
1001
0110
1001
0010
,
1001
0010
0100
0010
0100
0010
0100
0010
1000
0000
0100
0000
0010
0000
0001
0000
,
1000
0100
0010
0001
1100
0000
1000
0000
,
1001
0000
0001
0000
0100
0001
1000
0010
,
0100
0001
1000
0010
0101
0000
0001
0010
,
1001
0000
1000
0000
1000
0100
0010
0001
,
1001
1010
1100
1001
0101
0100
0101
0100
,
1010
0010
0010
0010
1001
0101
0011
1001
,
1100
0110
1001
0110
1000
1001
0100
1001
,
1001
0000
0100
0000
0100
0000
0101
0000
0101
0000
0001
0100
0010
0000
1000
0000
,
1001
0000
1001
0100
1010
0000
0101
0000
,
1001
0000
1001
0010
0101
1000
1100
0000
,
1001
0000
1000
0001
1001
0110
0001
0110
,
1000
0001
0100
0000
0010
1000
1001
0000
,
1100
0100
0100
1100
0110
0010
1001
0000
,
0101
0000
1100
1000
0101
1100
0101
0000
,
1001
0000
0100
0000
0000
0100
0000
0100
,
0100
0001
1000
0001
1000
0001
1000
0001
1001
0000
0101
0000
1001
0000
1100
0000
,
2001
3010
0100
0010
1001
0100
0001
1001
,
0100
1100
1001
0010
0101
0010
1000
0100
,
2001
3100
1000
0100
0011
0100
1100
1001
,
0100
1100
1001
0010
1000
0100
0010
0001
,
2100
0100
0100
3011
0100
1000
0001
0010
,
2100
0100
3100
1001
0001
1100
1000
0010
,
0101
0000
1000
0000
0100
0000
1000
0000
0011
0000
1000
0100
1000
0000
0101
0000
,
0010
0100
0001
1001
1100
0101
1001
1100
,
0010
0010
0010
0010
0011
0100
1100
0011
,
0100
1100
0011
1000
0002
0023
0230
2300
,
3010
0010
0010
0010
1010
0101
0010
0001
,
1010
0011
1010
0100
0002
2003
3200
0320
,
1032
0000
0103
0000
1002
0000
0013
0000
0100
0000
1000
0000
0001
0100
0001
0100
,
0001
0100
0001
0100
0001
0000
1100
0000
0110
0000
0011
0000
1001
0000
1100
0000
,
0101
0010
0201
0010
0001
0001
0010
0010
,
0001
0000
0001
0000
0301
1000
0100
1000
0200
0000
0320
0000
0032
0000
0203
0000
,
2301
3010
0100
0010
1001
0100
1001
1100
,
1001
0101
1001
0010
0101
0010
1000
0100
,
2001
3100
1000
0100
1001
0100
1001
0101
,
1001
1100
1001
0010
1000
0100
0010
0001
,
1001
1001
1001
0011
0100
1000
0001
0010
,
1001
1001
1001
1100
0001
1100
1000
0010
,
0101
0000
1000
0000
0100
0000
1000
0000
0011
0000
1000
0100
1000
0000
0101
0000
,
0010
0000
0100
0000
0001
1000
0100
1000
0100
0000
1000
0000
1001
0000
1100
0000
,
1001
0000
0000
1000
0001
0001
0100
0110
,
1000
0110
0010
1001
0100
1001
1001
0100
,
1001
0000
0000
0001
1001
0001
0101
1100
,
0100
1100
1001
0110
1000
0110
0110
0001
,
1001
0010
0100
0010
0010
1000
0100
0010
,
0001
1100
0110
0011
1001
0010
1001
0010
,
1001
0001
0001
0001
1000
0001
0001
1000
,
1000
0010
1000
0000
1000
0010
1000
0000
1000
0000
1000
0010
1000
0000
1000
0000
,
0101
0001
0001
0011
1100
0100
1100
0011
,
0001
0011
1100
1001
0100
1001
1001
0100
,
1001
0000
0100
0010
1001
0100
0010
1001
,
1100
0101
1100
1001
0001
0110
0110
1000
,
0110
0010
0010
1000
1010
0001
1001
1010
,
1000
1001
1010
1000
1001
0000
1001
0000
,
1001
0000
1001
0100
0010
0000
1001
0000
1001
0100
0010
0000
1001
0000
1001
0000
,
1001
0100
0010
0000
1001
0100
0010
0000
1001
0000
1001
0100
0010
0000
1001
0000
,
2001
3010
0100
0010
1001
0100
0001
1001
,
0100
1100
1001
0010
0101
0010
1000
0100
,
2001
3100
1000
0100
0011
0100
1100
1001
,
0100
1100
1001
0010
1000
0100
0010
0001
,
2100
0100
0100
3011
0100
1000
0001
0010
,
2100
0100
3100
1001
0001
1100
1000
0010
,
0101
0000
1000
0000
0100
0000
1000
0000
0011
0000
1000
0100
1000
0000
0101
0000
,
0010
0100
0001
1001
1100
0101
1001
1100
,
2001
3010
0100
0010
1001
0100
0001
1001
,
0100
1100
1001
0010
0101
0010
1000
0100
,
2001
3100
1000
0100
0011
0100
1100
1001
,
0100
1100
1001
0010
1000
0100
0010
0001
,
2100
0100
0100
3011
0100
1000
0001
0010
,
2100
0100
3100
1001
0001
1100
1000
0010
,
0101
0000
1000
0000
0100
0000
1000
0000
0011
0000
1000
0100
1000
0000
0101
0000
,
0010
0000
0100
0000
0001
1000
0001
1000
0100
0000
0010
0000
0100
0000
0010
0000
,
1001
0000
0001
0101
1100
0000
1000
1100
,
0000
1000
1100
0000
1001
1000
0001
0101
,
1001
1000
0001
0010
0101
1010
0100
1010
,
0100
0000
0101
0000
1010
0000
1000
0000
0001
1000
0001
1000
0001
1000
0001
1000
,
0100
0000
0100
0000
0100
0000
1100
0000
0101
0010
1000
0010
1000
0000
0001
1000
,
0100
0000
1000
0000
0001
0000
1000
0001
0100
0001
0100
0001
0100
0000
0010
1000
,
0001
0000
1000
0000
0100
0000
1000
0001
0100
0010
0100
0010
0100
0000
0001
1000
,
0100
1000
0001
1000
0001
0001
0001
0001
,
1200
0000
0000
0000
1000
0000
1300
0010
,
0011
0100
1100
0000
1001
0000
1001
0000
,
0201
0000
0000
0000
0001
0000
0301
0010
,
1010
0100
0101
0000
1001
0010
1001
0010
,
2001
0000
0000
0001
0100
0000
3010
0101
,
1001
0101
1001
0000
0110
0000
1001
0000
,
0110
0000
0010
0000
0000
0010
0000
0010
,
0010
0000
0010
1000
0100
1000
0100
1000
0100
0000
1000
0001
0010
0000
0110
0000
,
1001
0000
0000
0000
0001
1000
0100
1000
0001
0000
0000
0000
1000
0000
0001
0000
,
1000
0100
0010
0001
1000
0000
0010
0000
0100
0000
0001
0000
1100
0000
0000
0000
,
0101
0000
0000
1000
0101
0000
1000
0101
,
0000
0000
0001
0000
1100
0000
0000
0000
1001
0000
0010
0000
1000
0100
0010
0001
,
1000
0000
0000
0000
0000
0000
0001
0000
0110
0000
0000
0000
0010
1000
0100
0010
,
0001
1000
0100
1000
0101
1010
0101
0000
,
1100
0000
0000
0100
1001
0000
0000
1001
,
1001
0000
0001
0100
0001
0100
0001
0100
0010
0000
1000
0000
0010
0000
0100
0000
,
0101
1100
0101
1100
0011
1100
0101
1100
,
0101
0000
1001
0000
1001
0000
0010
0000
1000
0100
0010
0001
1000
0000
0010
0000
,
0100
0101
1000
0101
1100
0101
1001
0101
,
1001
1100
1001
0010
1001
1001
1001
0100
,
1000
0010
1000
0100
0010
1000
0010
0001
,
0100
1000
0100
0001
0010
0100
0010
0001
,
1000
0100
0010
0001
1000
0000
0001
0000
0010
0000
0001
0000
2000
0000
3200
0000
,
0320
0032
2003
3200
0320
0000
2032
0000
,
3003
0000
0000
0000
;
