#TITLE:[4-4] Like a Phoenix;
#SUBTITLE:;
#ARTIST:IAYD;
#TITLETRANSLIT:;
#SUBTITLETRANSLIT:;
#ARTISTTRANSLIT:;
#CREDIT:;
#BANNER:../Beast 4 - bn.png;
#BACKGROUND:../Beast 4 - bg.png;
#LYRICSPATH:;
#CDTITLE:;
#MUSIC:Like a Phoenix.ogg;
#OFFSET:0.010;
#SAMPLESTART:48.040;
#SAMPLELENGTH:16.744;
#SELECTABLE:YES;
#BPMS:0.000=215.000;
#STOPS:;
#BGCHANGES:;
// cache tags:
#FIRSTBEAT:0.000;
#LASTBEAT:502.500;
#SONGFILENAME:Songs/Beast Aoreo BEAST! 4/Like a Phoenix - [Aoreo]/Like a Phoenix.sm;
#HASMUSIC:1;
#HASBANNER:1;
#MUSICLENGTH:141.058;
// end cache tags

//---------------dance-single - J. Nero----------------
#NOTES:
     dance-single:
     J. Nero:
     Challenge:
     17:
     1.000,1.000,0.028,0.801,1.000,1515.000,4.000,113.000,0.000,0.000:
1000
0001
0100
0001
1000
0010
0100
0010
1000
0001
1000
0100
0010
0001
1000
0100
,
1000
0001
0100
0010
0100
0001
1000
0001
0010
0100
1000
0001
1000
0010
0100
0010
,
1000
0001
0010
0100
1000
0001
0100
0001
1000
0010
0100
0010
1000
0001
0100
0001
,
1000
0100
1000
0001
1000
0010
0100
0010
1000
0001
0100
0010
1000
0001
0010
0100
,
0010
0001
1000
0001
0100
0010
0100
0001
1000
0100
0010
0001
1000
0100
1000
0001
,
0100
0010
0100
0001
1000
0001
0100
0010
0100
0001
1000
0100
1000
0001
0100
0001
,
1000
0010
0100
0010
1000
0001
1000
0100
0010
0001
1000
0010
0100
0010
1000
0001
,
0010
0000
0100
0000
1000
0001
1000
0000
0010
0000
1000
0000
0001
0000
0100
0001
,
0010
0100
1000
0010
0100
0001
1000
0100
1000
0001
0010
0001
1000
0010
0100
0010
,
1000
0001
0100
0010
0100
0001
1000
0100
0010
0001
1000
0100
1000
0001
0100
0010
,
0100
0001
1000
0001
0010
0100
1000
0001
1000
0010
0100
0010
1000
0001
0010
0100
,
1000
0001
0100
0001
1000
0100
1000
0001
0010
0100
0010
0001
1000
0001
0100
0010
,
0100
0001
1000
0100
0010
0100
1000
0001
0100
0010
0100
0001
1000
0100
1000
0001
,
0010
0100
1000
0001
1000
0010
0100
0010
1000
0001
0010
0100
1000
0001
1000
0010
,
0100
0010
1000
0001
0100
0001
1000
0100
0010
0100
1000
0001
0100
0010
0100
0001
,
1000
0000
0001
0000
0100
0010
0100
0000
0001
0000
0010
0000
0100
0000
1000
0000
,
0002
0003
0000
0020
0030
0200
0300
2000
,
3002
0003
0200
0320
0030
0200
0300
0002
,
0023
0000
0230
2300
3000
0002
0003
0100
,
0010
0010
2000
3000
0200
0300
0020
0030
,
0002
0003
0000
2000
3000
0200
0300
2000
,
3020
0000
0230
0302
0003
0020
0030
0200
,
2300
0000
3020
0230
0300
0002
0003
0010
,
0100
0100
2000
3000
0020
0030
0200
0300
,
0002
0003
0000
2000
3000
0200
0300
2000
,
3020
0030
0200
0302
0003
0020
0030
0200
,
2300
0000
3020
0230
0300
0002
0003
1000
,
0001
0001
0020
0030
0200
0300
2000
3000
,
0001
0100
0010
0100
0001
1000
0100
0010
,
0001
1000
0100
0010
0100
1000
0001
0100
,
0010
1000
0010
0100
0001
1000
0100
0010
0001
1000
0001
0100
0010
0100
0001
1000
,
0100
0010
0100
1000
0010
0100
0001
0010
0100
1000
0001
0100
0010
1000
0100
0010
,
0002
0000
0000
0000
0000
0003
0000
0000
,
2000
3000
0000
0000
0000
0000
0000
0000
2000
3000
0000
0000
0000
0000
0000
0000
2000
3000
0000
0000
0000
0000
0000
0000
2000
3000
0000
0000
0000
0000
0000
0000
,
0001
0000
0100
0010
0100
0000
0001
0000
0010
0000
0100
0000
1000
0001
1000
0010
,
0100
0001
1000
0100
0010
0100
1000
0001
0100
0001
1000
0010
0100
0010
1000
0001
,
0010
0100
1000
0001
1000
0010
0100
0010
1000
0001
0100
0001
1000
0010
0100
0001
,
1000
0001
0010
0100
1000
0001
0100
0010
0100
0001
1000
0100
0010
0001
1000
0100
,
1000
0001
0100
0010
0100
0001
1000
0001
0010
0100
1000
0001
0100
0001
1000
0010
,
0100
0010
1000
0001
0010
0100
1000
0001
0100
0001
1000
0010
0100
0010
1000
0001
,
0010
0100
0010
0001
1000
0100
1000
0001
0100
0010
0100
0001
1000
0100
0010
0001
,
1000
0001
0100
0010
0100
0001
1000
0001
0010
0100
1000
0001
0100
0010
0100
0001
,
1000
0100
0010
0001
1000
0001
0100
0010
0100
0001
1000
0100
0010
0001
1000
0100
,
1000
0001
0100
0010
0100
0001
1000
0001
0010
0100
1000
0001
0100
0010
0100
0001
,
1000
0100
0010
0100
1000
0010
0100
0010
1000
0100
0010
0001
0100
0001
1000
0010
,
0100
0010
1000
0001
0100
0001
1000
0100
0010
0001
1000
0001
0100
0010
0100
0001
,
1000
0100
1000
0001
0100
0001
1000
0010
0100
0010
1000
0001
0010
0100
1000
0001
,
0100
0001
1000
0100
0010
0100
1000
0001
0100
0010
0100
0001
1000
0100
0010
0001
,
1000
0001
0010
0100
1000
0010
0100
0001
0010
0001
1000
0100
1000
0001
0100
0010
,
0100
0001
0010
0100
1000
0010
0100
0001
1000
0100
0010
0001
0100
0010
1000
0001
,
1000
0000
0001
0000
0010
0000
0100
0000
1000
0000
0001
0000
0100
0001
0010
0100
,
1000
0001
0100
0001
1000
0100
1000
0001
0010
0100
1000
0001
0100
0010
0100
0001
,
1000
0100
1000
0001
0100
0010
0100
0001
1000
0100
0010
0001
1000
0100
1000
0001
,
0100
0010
0100
0001
1000
0100
0010
0001
1000
0100
1000
0001
0100
0010
0100
0001
,
1000
0001
0010
0100
1000
0001
0100
0010
0100
0001
1000
0001
0100
0010
0100
0001
,
0010
0100
1000
0001
0100
0010
0100
0001
1000
0100
1000
0001
0100
0010
0100
0001
,
1000
0100
0010
0001
1000
0001
0100
0010
0100
0001
1000
0100
1000
0001
1000
0010
,
0100
0010
1000
0001
0010
0100
0010
0001
1000
0010
0100
0010
1000
0001
0100
0001
,
1000
0100
0010
0001
1000
0001
0100
0010
0100
0001
1000
0100
0010
0001
1000
0100
,
1000
0001
0100
0010
0100
0001
1000
0001
0100
0010
0100
0001
1000
0100
1000
0001
,
0100
0010
0100
0001
1000
0001
0010
0100
1000
0001
0100
0010
0100
0001
1000
0100
,
0010
0100
1000
0001
0100
0001
1000
0100
0010
0001
1000
0001
0100
0010
0100
0001
,
1000
0001
0010
0100
1000
0001
1000
0100
1000
0001
0100
0010
0100
0001
1000
0100
,
0010
0100
1000
0001
0100
0010
0100
0001
1000
0001
0010
0100
1000
0001
0100
0001
,
1000
0010
0100
0010
1000
0001
1000
0100
1000
0001
0100
0001
1000
0010
0100
0001
,
0100
0010
1000
0001
0010
0100
0010
0001
1000
0001
0100
0010
0100
0001
1000
0100
,
2000
0000
3000
0000
0000
0000
0000
0000
0001
0010
0100
1000
0001
0100
0010
1000
,
0100
1000
0001
0010
0100
0010
0001
1000
0010
1000
0001
0100
0010
0100
0001
1000
,
0100
0010
0001
1000
0001
0100
0010
0100
0001
1000
0010
1000
0001
0100
0010
1000
,
0001
1000
0100
0010
0001
1000
0010
0100
0010
1000
0001
0010
0100
1000
0001
0010
,
0001
1000
0010
0100
0010
1000
0001
1000
0100
0010
0001
1000
0010
1000
0001
0100
,
0010
0100
0001
1000
0100
0010
0001
1000
0010
1000
0001
0100
0010
0100
0001
1000
,
0100
0010
0100
1000
0001
0010
0001
1000
0010
0100
0010
1000
0001
0010
0100
1000
,
0001
1000
0010
0100
0010
1000
0001
1000
0100
0010
0001
1000
0010
0100
0010
1000
,
0001
0010
0100
1000
0001
1000
0010
0100
0010
1000
0001
0010
0100
1000
0001
0010
,
0001
1000
0010
0100
0010
1000
0001
1000
0100
0010
0001
1000
0010
0100
0010
1000
,
0001
0010
0100
0010
0001
0100
0010
0100
0001
0010
0100
1000
0010
1000
0001
0100
,
0010
0100
0001
1000
0010
1000
0001
0010
0100
1000
0001
1000
0010
0100
0010
1000
,
0001
0010
0001
1000
0010
1000
0001
0100
0010
0100
0001
1000
0100
0010
0001
1000
,
0010
1000
0001
0010
0100
0010
0001
1000
0010
0100
0010
1000
0001
0010
0100
1000
,
0001
1000
0100
0010
0001
0100
0010
1000
0100
1000
0001
0010
0001
1000
0010
0100
,
0010
1000
0100
0010
0001
0100
0010
1000
0001
0010
0100
1000
0010
0100
0001
1000
,
0004
0003
0000
0000
0000
0000
0000
0000
0400
0300
0000
0000
0000
0000
0000
0000
0004
0003
0000
0000
0000
0000
0000
0000
0040
0030
0000
0000
0000
0000
0000
0000
0400
0300
0000
0000
0000
0000
0000
0000
4000
3000
0000
0000
0000
0000
0000
0000
0002
0000
0000
0000
0000
0000
0000
0000
0003
0000
0000
0000
0000
0000
0000
0000
,
1000
0100
1000
0000
0001
0010
0100
1000
,
0001
0100
0010
0000
0100
0001
1000
0100
,
0010
0001
0100
0010
0100
0001
1000
0001
,
0010
0100
1000
0001
0100
0010
0100
0001
,
1000
0100
0010
0100
1000
0001
0100
0010
,
0100
0001
1000
0001
0010
0100
1000
0010
,
0100
0001
1000
0100
0010
0001
1000
0001
,
0100
0010
0100
0001
1000
0100
1000
0001
,
0200
0302
0023
0230
0000
2300
3200
2300
,
3020
0000
0230
0302
0000
0003
1000
1000
,
0002
0003
0020
0030
0200
0300
2000
3000
,
0002
0003
0200
0300
0020
0030
2000
3000
,
0002
0023
0230
2300
0000
3020
0230
0320
,
2030
0000
3002
0203
0000
0300
0001
0001
,
2000
3000
0200
0300
0020
0030
0002
0003
,
2000
3000
0020
0030
0200
0300
0002
0003
,
2000
3000
0200
2300
3000
0002
0003
0200
,
0320
0030
0200
0302
0003
0020
0030
0200
,
2300
3000
0002
0203
0300
0020
0030
0200
,
0302
0003
0020
0030
0200
0300
2000
3000
,
0001
0100
0001
1000
0100
0010
0100
1000
,
0001
0100
0010
0100
0001
0010
0100
1000
,
0001
0100
0010
0100
0001
1000
0100
0010
0001
1000
0010
0100
0010
1000
0001
0010
,
0100
1000
0010
0100
0001
1000
0100
0010
0001
0100
0010
1000
0001
0010
0100
1000
,
0002
0000
0000
0000
0000
0003
0000
0000
,
1000
0100
1000
0100
0010
0000
0100
0000
1000
0000
0010
0000
0100
0001
0010
0100
,
1000
0001
0100
0010
0100
0001
1000
0100
1000
0001
0100
0010
0100
0001
1000
0001
,
0010
0100
1000
0001
0100
0010
0100
0001
1000
0100
1000
0001
0100
0010
0100
0001
,
1000
0001
0010
0100
1000
0001
0100
0010
0100
0001
1000
0100
0010
0001
1000
0001
,
0100
0010
0100
0001
1000
0001
0010
0100
1000
0001
0100
0010
1000
0001
0010
0001
,
0100
0010
1000
0001
1000
0010
0100
0010
1000
0001
0100
0001
1000
0100
0010
0001
,
1000
0001
0100
0010
0100
0001
1000
0001
0010
0100
1000
0001
0100
0010
0100
0001
,
1000
0100
0010
0100
1000
0001
0100
0010
0100
0001
1000
0100
0010
0001
1000
0001
,
0100
0010
0100
0001
1000
0001
0010
0100
1000
0001
0100
0010
0100
0001
0010
0100
,
1000
0010
0100
0001
0100
0010
1000
0001
1000
0100
0010
0001
1000
0001
0100
0010
,
0100
0001
1000
0010
0100
0001
1000
0100
0010
0100
1000
0001
1000
0010
0100
0010
,
1000
0001
0010
0100
1000
0001
0100
0001
1000
0010
0100
0010
1000
0001
0100
0010
,
0100
0001
1000
0100
0010
0001
1000
0100
1000
0001
0100
0010
0100
0001
1000
0001
,
0010
0100
1000
0001
0100
0010
0100
0001
1000
0100
0010
0100
1000
0010
0100
0001
,
1000
0001
0010
0100
1000
0001
0100
0010
0100
0001
1000
0100
0010
0001
1000
0001
,
0100
0000
0000
0101
0000
0000
1001
0000
,
0110
0000
0000
0000
,
2002
0000
0000
0000
0000
3003
0000
0000
;

//---------------dance-single - J. Nero----------------
#NOTES:
     dance-single:
     J. Nero:
     Hard:
     16:
     1.000,1.000,0.028,1.000,1.000,1357.000,4.000,197.000,0.000,0.000:
1000
0001
0100
0001
1000
0010
0100
0010
1000
0001
1000
0100
0010
0001
1000
0100
,
1000
0001
0100
0010
0100
0001
1000
0001
0010
0100
1000
0001
1000
0010
0100
0010
,
1000
0001
0010
0100
1000
0001
0100
0001
1000
0010
0100
0010
1000
0001
0100
0001
,
1000
0100
1000
0001
1000
0010
0100
0010
1000
0001
0100
0010
1000
0001
0010
0100
,
0010
0001
1000
0001
0100
0010
0100
0001
1000
0100
0010
0001
1000
0100
1000
0001
,
0100
0010
0100
0001
1000
0001
0100
0010
0100
0001
1000
0100
1000
0001
0100
0001
,
1000
0010
0100
0010
1000
0001
1000
0100
0010
0001
1000
0010
0100
0010
1000
0001
,
0010
0000
0100
0000
1000
0001
1000
0000
0010
0000
1000
0000
0001
0000
0100
0001
,
0010
0100
1000
0010
0100
0001
1000
0100
1000
0001
0010
0001
1000
0010
0100
0010
,
1000
0001
0100
0010
0100
0001
1000
0100
0010
0001
1000
0100
1000
0001
0100
0010
,
0100
0001
1000
0001
0010
0100
1000
0001
1000
0010
0100
0010
1000
0001
0010
0100
,
1000
0001
0100
0001
1000
0100
1000
0001
0010
0100
0010
0001
1000
0001
0100
0010
,
0100
0001
1000
0100
0010
0100
1000
0001
0100
0010
0100
0001
1000
0100
1000
0001
,
0010
0100
1000
0001
1000
0010
0100
0010
1000
0001
0010
0100
1000
0001
1000
0010
,
0100
0010
1000
0001
0100
0001
1000
0100
0010
0100
1000
0001
0100
0010
0100
0001
,
1000
0000
0001
0000
0100
0010
0100
0000
0001
0000
0010
0000
0100
0000
1000
0000
,
0002
0003
0000
0020
0030
0200
0300
2000
,
3002
0003
0200
0320
0030
0200
0300
0002
,
0023
0000
0230
2300
3000
0002
0003
0100
,
0010
0010
2000
3000
0200
0300
0020
0030
,
0002
0003
0000
2000
3000
0200
0300
2000
,
3020
0000
0230
0302
0003
0020
0030
0200
,
2300
0000
3020
0230
0300
0002
0003
0010
,
0100
0100
2000
3000
0020
0030
0200
0300
,
0002
0003
0000
2000
3000
0200
0300
2000
,
3020
0030
0200
0302
0003
0020
0030
0200
,
2300
0000
3020
0230
0300
0002
0003
1000
,
0001
0001
0020
0030
0200
0300
2000
3000
,
0001
0100
0010
0100
0001
1000
0100
0010
,
0001
1000
0100
0010
0100
1000
0001
0100
,
0010
1000
0010
0100
0001
1000
0100
0010
0001
1000
0001
0100
0010
0100
0001
1000
,
0100
0010
0100
1000
0010
0100
0001
0010
0100
1000
0001
0100
0010
1000
0100
0010
,
0002
0000
0000
0000
0000
0003
0000
0000
,
2000
3000
0000
0000
0000
0000
0000
0000
2000
3000
0000
0000
0000
0000
0000
0000
2000
3000
0000
0000
0000
0000
0000
0000
2000
3000
0000
0000
0000
0000
0000
0000
,
0001
0000
0100
0010
0100
0000
0001
0000
0010
0000
0100
0000
1000
0001
1000
0010
,
0100
0001
1000
0100
0010
0100
1000
0001
0100
0001
1000
0010
0100
0010
1000
0001
,
0010
0100
1000
0001
1000
0010
0100
0010
1000
0001
0100
0001
1000
0010
0100
0001
,
1000
0001
0010
0100
1000
0001
0100
0010
0100
0001
1000
0100
0010
0001
1000
0100
,
1000
0001
0100
0010
0100
0001
1000
0001
0010
0100
1000
0001
0100
0001
1000
0010
,
0100
0010
1000
0001
0010
0100
1000
0001
0100
0001
1000
0010
0100
0010
1000
0001
,
0010
0100
0010
0001
1000
0100
1000
0001
0100
0010
0100
0001
1000
0100
0010
0001
,
1000
0001
0100
0010
0100
0001
1000
0001
0010
0100
1000
0001
0100
0010
0100
0001
,
1000
0100
0010
0001
1000
0001
0100
0010
0100
0001
1000
0100
0010
0001
1000
0100
,
1000
0001
0100
0010
0100
0001
1000
0001
0010
0100
1000
0001
0100
0010
0100
0001
,
1000
0100
0010
0100
1000
0010
0100
0010
1000
0100
0010
0001
0100
0001
1000
0010
,
0100
0010
1000
0001
0100
0001
1000
0100
0010
0001
1000
0001
0100
0010
0100
0001
,
1000
0100
1000
0001
0100
0001
1000
0010
0100
0010
1000
0001
0010
0100
1000
0001
,
0100
0001
1000
0100
0010
0100
1000
0001
0100
0010
0100
0001
1000
0100
0010
0001
,
1000
0001
0010
0100
1000
0010
0100
0001
0010
0001
1000
0100
1000
0001
0100
0010
,
0100
0001
0010
0100
1000
0010
0100
0001
1000
0100
0010
0001
0100
0010
1000
0001
,
1000
0000
0001
0000
0010
0000
0100
0000
1000
0000
0001
0000
0100
0001
1000
0100
,
0020
0030
0002
2003
3000
0200
2300
3020
,
0230
0300
0002
0023
0030
0200
0300
2000
,
3002
0003
0200
0320
0030
0200
0302
0003
,
2000
3000
0200
2300
3000
0020
0230
0302
,
2003
3000
0020
0230
0300
0002
2003
3200
,
0320
0030
0200
2300
3000
0002
0003
0200
,
0302
0003
2000
3020
0030
2000
3002
0003
,
0020
0030
0200
2300
3000
0002
0023
0230
,
2300
3000
0020
0230
0300
0002
2003
3200
,
0320
0030
0200
2300
3000
0002
0003
2000
,
3200
0300
0020
0230
0300
2000
3000
0020
,
0230
0300
0002
2003
3000
0002
0023
0230
,
2300
3000
0002
0203
0300
0020
2030
3200
,
0320
0030
0002
2003
3000
0200
0300
2000
,
3020
0030
0200
0302
0003
0020
0030
0200
,
2300
0000
3000
0000
0002
0000
0203
0000
0310
0000
1000
0000
0001
0100
0010
1000
,
0100
1000
0001
0010
0100
0010
0001
1000
0010
1000
0001
0100
0010
0100
0001
1000
,
0100
0010
0001
1000
0001
0100
0010
0100
0001
1000
0010
1000
0001
0100
0010
1000
,
0001
1000
0100
0010
0001
1000
0010
0100
0010
1000
0001
0010
0100
1000
0001
0010
,
0001
1000
0010
0100
0010
1000
0001
1000
0100
0010
0001
1000
0010
1000
0001
0100
,
0010
0100
0001
1000
0100
0010
0001
1000
0010
1000
0001
0100
0010
0100
0001
1000
,
0100
0010
0100
1000
0001
0010
0001
1000
0010
0100
0010
1000
0001
0010
0100
1000
,
0001
1000
0010
0100
0010
1000
0001
1000
0100
0010
0001
1000
0010
0100
0010
1000
,
0001
0010
0100
1000
0001
1000
0010
0100
0010
1000
0001
0010
0100
1000
0001
0010
,
0001
1000
0010
0100
0010
1000
0001
1000
0100
0010
0001
1000
0010
0100
0010
1000
,
0001
0010
0100
0010
0001
0100
0010
0100
0001
0010
0100
1000
0010
1000
0001
0100
,
0010
0100
0001
1000
0010
1000
0001
0010
0100
1000
0001
1000
0010
0100
0010
1000
,
0001
0010
0001
1000
0010
1000
0001
0100
0010
0100
0001
1000
0100
0010
0001
1000
,
0010
1000
0001
0010
0100
0010
0001
1000
0010
0100
0010
1000
0001
0010
0100
1000
,
0001
1000
0100
0010
0001
0100
0010
1000
0100
1000
0001
0010
0001
1000
0010
0100
,
0010
1000
0100
0010
0001
0100
0010
1000
0001
0010
0100
1000
0010
0100
0001
1000
,
0004
0003
0000
0000
0000
0000
0000
0000
0400
0300
0000
0000
0000
0000
0000
0000
0004
0003
0000
0000
0000
0000
0000
0000
0040
0030
0000
0000
0000
0000
0000
0000
0400
0300
0000
0000
0000
0000
0000
0000
4000
3000
0000
0000
0000
0000
0000
0000
0002
0000
0000
0000
0000
0000
0000
0000
0003
0000
0000
0000
0000
0000
0000
0000
,
1000
0100
1000
0000
0001
0010
0100
1000
,
0001
0100
0010
0000
0100
0001
1000
0100
,
0010
0001
0100
0010
0100
0001
1000
0001
,
0010
0100
1000
0001
0100
0010
0100
0001
,
1000
0100
0010
0100
1000
0001
0100
0010
,
0100
0001
1000
0001
0010
0100
1000
0010
,
0100
0001
1000
0100
0010
0001
1000
0001
,
0100
0010
0100
0001
1000
0100
1000
0001
,
0200
0302
0023
0230
0000
2300
3200
2300
,
3020
0000
0230
0302
0000
0003
1000
1000
,
0002
0003
0020
0030
0200
0300
2000
3000
,
0002
0003
0200
0300
0020
0030
2000
3000
,
0002
0023
0230
2300
0000
3020
0230
0320
,
2030
0000
3002
0203
0000
0300
0001
0001
,
2000
3000
0200
0300
0020
0030
0002
0003
,
2000
3000
0020
0030
0200
0300
0002
0003
,
2000
3000
0200
2300
3000
0002
0003
0200
,
0320
0030
0200
0302
0003
0020
0030
0200
,
2300
3000
0002
0203
0300
0020
0030
0200
,
0302
0003
0020
0030
0200
0300
2000
3000
,
0001
0100
0001
1000
0100
0010
0100
1000
,
0001
0100
0010
0100
0001
0010
0100
1000
,
0001
0100
0010
0100
0001
1000
0100
0010
0001
1000
0010
0100
0010
1000
0001
0010
,
0100
1000
0010
0100
0001
1000
0100
0010
0001
0100
0010
1000
0001
0010
0100
1000
,
0002
0000
0000
0000
0000
0003
0000
0000
,
1000
0100
1000
0100
0010
0000
0100
0000
1000
0000
0010
0000
0100
0001
0010
0100
,
1000
0001
0100
0010
0100
0001
1000
0100
1000
0001
0100
0010
0100
0001
1000
0001
,
0010
0100
1000
0001
0100
0010
0100
0001
1000
0100
1000
0001
0100
0010
0100
0001
,
1000
0001
0010
0100
1000
0001
0100
0010
0100
0001
1000
0100
0010
0001
1000
0001
,
0100
0010
0100
0001
1000
0001
0010
0100
1000
0001
0100
0010
1000
0001
0010
0001
,
0100
0010
1000
0001
1000
0010
0100
0010
1000
0001
0100
0001
1000
0100
0010
0001
,
1000
0001
0100
0010
0100
0001
1000
0001
0010
0100
1000
0001
0100
0010
0100
0001
,
1000
0100
0010
0100
1000
0001
0100
0010
0100
0001
1000
0100
0010
0001
1000
0001
,
0100
0010
0100
0001
1000
0001
0010
0100
1000
0001
0100
0010
0100
0001
0010
0100
,
1000
0010
0100
0001
0100
0010
1000
0001
1000
0100
0010
0001
1000
0001
0100
0010
,
0100
0001
1000
0010
0100
0001
1000
0100
0010
0100
1000
0001
1000
0010
0100
0010
,
1000
0001
0010
0100
1000
0001
0100
0001
1000
0010
0100
0010
1000
0001
0100
0010
,
0100
0001
1000
0100
0010
0001
1000
0100
1000
0001
0100
0010
0100
0001
1000
0001
,
0010
0100
1000
0001
0100
0010
0100
0001
1000
0100
0010
0100
1000
0010
0100
0001
,
1000
0001
0010
0100
1000
0001
0100
0010
0100
0001
1000
0100
0010
0001
1000
0001
,
0100
0000
0000
0101
0000
0000
1001
0000
,
0110
0000
0000
0000
,
2002
0000
0000
0000
0000
3003
0000
0000
;
