#TITLE:Back 2 Back;
#SUBTITLE:Sonic Rush (2005);
#ARTIST:長沼英樹;
#TITLETRANSLIT:;
#SUBTITLETRANSLIT:;
#ARTISTTRANSLIT:Hideki Naganuma;
#CREDIT:;
#BANNER:Back 2 Back.jpg;
#BACKGROUND:Back 2 Back-bg.jpg;
#LYRICSPATH:;
#CDTITLE:!macTitle.png;
#MUSIC:Back 2 Back.mp3;
#OFFSET:-0.280;
#SAMPLESTART:89.886;
#SAMPLELENGTH:12.000;
#SELECTABLE:YES;
#BPMS:0.000=150.000,44.000=50.000,45.000=150.000,138.000=50.000,139.000=150.000,268.000=50.000,269.000=150.000;
#STOPS:;
#BGCHANGES:;
// cache tags:
#FIRSTBEAT:0.000;
#LASTBEAT:270.000;
#SONGFILENAME:Songs/VGMP 3/Back 2 Back (MacGravel)/Back 2 Back.sm;
#HASMUSIC:1;
#HASBANNER:1;
#MUSICLENGTH:115.495;
// end cache tags

//---------------dance-single - Blank----------------
#NOTES:
     dance-single:
     Blank:
     Hard:
     11:
     1.000,1.000,1.000,1.000,0.771,679.000,217.000,158.000,0.000,0.000:

1000
0000
0100
1000
0000
0000
0100
0000
1000
0010
0100
0001
1000
0000
0000
0000
,
1000
0000
0100
1000
0000
0000
0010
0100
0001
1000
0010
0100
1000
0000
0000
0000
,
1000
0000
0100
1000
0000
0000
0100
0000
1000
0010
0100
0001
1000
0000
0000
0000
,
1000
0000
0000
0000
0100
0000
1000
0000
0000
0000
0000
0000
0010
0000
0100
0000
1000
0000
0000
0000
0100
0000
1000
0000
0200
0300
0020
0030
0002
0003
0000
0000
,
1000
0000
0100
1000
0011
0000
0100
0000
1000
0010
0100
0001
1010
0000
0000
0000
,
1000
0000
0100
1000
0011
0000
0010
0100
0001
1000
0010
0100
1010
0000
0000
0000
,
1000
0000
0100
1000
0011
0000
0100
0000
1000
0010
0100
0001
1010
0000
0010
0100
,
0001
1000
0010
0100
1010
0000
0010
0100
1000
0010
0100
0001
1010
0000
0000
0000
,
1100
0000
0100
1000
0011
0000
0100
0000
1000
0010
1100
0001
1010
0000
0000
0000
,
1100
0000
0100
1000
0011
0000
0010
0100
0001
1000
0011
0100
1010
0000
0000
0000
,
1100
0010
0100
0001
1010
0000
0101
0000
1000
0010
1100
0001
1010
0000
0110
0000
,
1001
0000
0000
0000
0000
0000
0000
0000
0000
0000
0000
0000
0000
0000
0000
0000
0101
0000
0000
0000
0000
0000
0000
0000
0100
0000
0000
0000
0010
0000
0000
0000
1000
0000
0000
0000
0000
0000
0000
0000
0011
0000
0000
0000
0000
0000
0000
0000
0200
0000
0000
0000
0000
0000
0300
0000
0000
0000
0000
0000
0020
0000
0000
0000
0000
0000
0030
0000
0000
0000
0000
0000
0002
0000
0000
0000
0000
0000
0003
0000
0000
0000
0000
0000
0000
0000
0000
0000
0000
0000
0000
0000
0000
0000
0000
0000
0100
0000
0000
0000
0000
0000
0000
0000
0000
0000
0000
0000
0000
0000
0000
0000
0000
0000
0000
0000
0000
0000
0000
0000
0100
0000
0000
0000
0000
0000
0000
0000
0000
0000
0000
0000
0000
0000
0000
0000
0000
0000
0000
0000
0000
0000
0000
0000
0100
0000
0000
0000
0000
0000
0000
0000
0000
0000
0000
0000
0000
0000
0000
0000
0000
0000
0000
0000
0000
0000
0000
0000
0110
0000
0000
0000
0000
0000
0000
0000
0000
0000
0000
0000
0000
0000
0000
0000
0000
0000
0000
0000
0000
0000
0000
0000
,
0110
1000
1000
0000
0010
0010
0010
0110
,
0110
1000
1000
0000
0100
0100
0100
0110
,
0110
1000
1000
0000
0010
0010
0010
0110
,
0110
1000
1000
0000
0110
0100
0100
0110
,
0110
0000
1000
0000
1002
0003
0000
0000
0110
0000
0010
0000
0010
0000
0110
0000
,
0110
0000
1000
0000
1002
0003
0000
0000
0110
0000
0100
0000
0100
0000
0110
0000
,
0110
0000
1000
0000
1002
0003
0000
0000
0110
0000
0010
0000
0110
0000
0010
0000
,
0110
0000
0000
0000
1002
0003
0000
0000
0110
0000
0100
0000
0101
0000
0100
0010
,
1000
0000
1000
0000
1001
0000
0000
0000
0110
0000
0010
0000
0011
0000
0100
0010
,
1000
0000
0000
0000
1000
0000
0000
0000
1200
0300
0020
0030
0002
0003
0000
0000
0110
0000
0000
0000
0100
0000
0000
0000
0101
0000
0000
0000
0100
0000
0010
0000
,
1000
0000
1000
0000
1001
0000
0000
0000
0110
0000
0010
0000
0011
0000
0100
0010
,
1000
0000
0000
0000
1000
0000
0000
0000
1200
0300
0020
0030
0002
0003
0000
0000
0110
0000
0000
0000
0100
0000
0000
0000
0101
0000
0000
0000
0100
0000
0010
0000
,
1000
0000
1000
0000
1001
0000
0000
0000
0110
0000
0010
0000
0011
0000
0100
0010
,
1000
0000
0000
0000
1000
0000
0000
0000
1200
0300
0020
0030
0002
0003
0000
0000
0110
0000
0000
0000
0100
0000
0000
0000
0101
0000
0000
0000
0100
0000
0010
0000
,
1000
1000
1001
0000
0110
0010
0110
0010
,
0110
0000
0010
0000
0110
0000
0010
0000
0110
0000
0100
0000
0101
0000
0100
0010
,
1002
0003
1000
0000
1001
0000
0000
0000
0110
0000
0010
0000
0011
0000
0100
0010
,
1002
0000
0003
0000
1000
0000
0000
0000
1200
0300
0020
0030
0002
0003
0000
0000
0110
0000
0000
0000
0100
0000
0000
0000
0101
0000
0000
0000
0100
0000
0010
0000
,
1002
0003
1000
0000
1001
0000
0000
0000
0110
0000
0010
0000
0011
0000
0100
0010
,
1002
0000
0003
0000
1000
0000
0000
0000
1200
0300
0020
0030
0002
0003
0000
0000
0110
0000
0000
0000
0100
0000
0000
0000
0101
0000
0000
0000
0100
0000
0010
0000
,
1002
0003
1000
0000
1001
0000
0000
0000
0110
0000
0010
0000
0011
0000
0100
0010
,
1002
0000
0003
0000
1000
0000
0000
0000
1200
0300
0020
0030
0002
0003
0000
0000
1100
0000
0010
0000
1000
0000
0001
0000
1010
0000
0000
0000
1100
0000
0001
0000
,
0100
0000
0000
0000
0000
0000
0000
0000
0000
0000
0000
0000
0010
0000
0000
0000
0000
0000
0000
0000
0000
0000
0000
0000
1100
0000
0000
0000
0000
0000
0000
0000
0000
0000
0000
0000
0001
0000
0000
0000
0000
0000
0000
0000
0000
0000
0000
0000
1010
0000
0000
0000
0000
0000
0000
0000
0000
0000
0000
0000
0000
0000
0000
0000
0000
0000
0000
0000
0000
0000
0000
0000
0110
0000
0000
0000
0000
0000
0000
0000
0000
0000
0000
0000
0000
0000
0000
0000
0000
0000
0000
0000
0000
0000
0000
0000
1100
0000
0000
0000
0000
0000
0000
0000
0000
0000
0000
0000
0000
0000
0000
0000
0101
0000
0000
0000
0000
0000
0000
0000
0100
0000
0000
0000
0010
0000
0000
0000
1000
0000
0000
0000
0000
0000
0000
0010
0000
0000
0001
0000
0000
0010
0000
0000
0002
0000
0000
0000
0000
0000
0000
0000
0000
0000
0000
0000
0003
0000
0000
0000
0000
0000
0000
0000
0000
0000
0000
0000
0000
0000
0000
0000
0000
0000
0000
0000
0000
0000
0000
0000
0000
0000
0000
0000
0000
0000
0000
0000
0000
0000
0000
0000
,
0110
0000
0000
0000
0000
0000
0000
0000
0100
0000
0000
0000
0000
0000
0000
0000
0102
0000
0000
0000
0000
0000
0000
0000
0100
0000
0000
0000
0010
0000
0000
0000
2000
3000
0200
0300
0023
0030
0002
0003
0000
0000
0000
0000
0000
0000
0000
0000
1001
0000
0000
0000
0000
0000
0000
0000
0100
0000
0000
0000
0000
0000
0000
0000
,
0012
0000
0000
0000
0000
0000
0000
0000
0010
0000
0000
0000
0000
0000
0000
0000
0010
0000
0000
0000
0000
0000
0000
0000
0203
0000
0000
0000
0310
0000
0000
0000
2000
0000
0200
0300
3020
0030
0002
0003
1000
0000
0000
0000
0000
0000
0000
0000
1100
0000
0000
0000
0000
0000
0000
0000
0010
0000
0000
0000
0000
0000
0000
0000
,
0110
0000
0000
0000
0000
0000
0000
0000
0100
0000
0000
0000
0000
0000
0000
0000
0102
0000
0000
0000
0000
0000
0000
0000
0100
0000
0000
0000
0010
0000
0000
0000
2000
3000
0200
0300
0023
0030
0002
0003
1000
0000
0000
0000
0000
0000
0000
0000
1001
0000
0000
0000
0000
0000
0000
0000
0100
0000
0000
0000
0000
0000
0000
0000
,
0012
0000
0000
0000
0000
0000
0000
0000
0010
0000
0000
0000
0000
0000
0000
0000
0010
0000
0000
0000
0000
0000
0000
0000
0203
0000
0000
0000
0310
0000
0000
0000
2000
0000
0200
0300
3020
0030
0002
0003
1000
0000
0000
0000
0000
0000
0000
0000
1100
0000
0000
0000
0000
0000
0000
0000
0010
0000
0000
0000
0000
0000
0000
0000
,
0110
0000
0000
0000
0000
0000
0000
0000
0100
0000
0000
0000
0000
0000
0000
0000
0102
0000
0000
0000
0000
0000
0000
0000
0100
0000
0000
0000
0010
0000
0000
0000
2000
3000
0200
0300
0023
0030
0002
0003
1000
0000
0000
0000
0000
0000
0000
0000
1001
0000
0000
0000
0000
0000
0000
0000
0010
0000
0000
0000
0000
0000
0000
0000
,
0110
0000
0000
0000
0000
0000
0000
0000
0100
0000
0000
0000
0000
0000
0000
0000
0102
0000
0000
0000
0000
0000
0000
0000
0100
0000
0000
0000
0010
0000
0000
0000
2000
3000
0200
0300
0023
0030
0002
0003
1000
0000
0000
0000
0000
0000
0000
0000
1001
0000
0000
0000
0000
0000
0000
0000
0100
0000
0000
0000
0000
0000
0000
0000
,
0012
0000
0000
0000
0000
0000
0000
0000
0010
0000
0000
0000
0000
0000
0000
0000
0010
0000
0000
0000
0000
0000
0000
0000
0203
0000
0000
0000
0310
0000
0000
0000
2000
0000
0200
0300
3020
0030
0002
0003
1000
0000
0000
0000
0000
0000
0000
0000
1100
0000
0000
0000
0000
0000
0000
0000
0100
0000
0000
0000
0000
0000
0000
0000
,
0012
0000
0010
0000
0010
0000
0203
0300
0000
0000
0010
0000
0001
0000
0010
0000
,
1100
0000
0000
0000
0010
0000
0000
0000
0100
0000
0000
0000
0001
0000
0000
0000
1100
0000
0000
0000
0000
0000
0000
0000
0100
0000
0000
0000
0010
0000
0000
0000
2000
3000
0200
0300
0020
0030
0002
0003
1000
0000
0000
0000
0000
0000
0000
0000
0011
0000
0000
0000
0000
0000
0000
0000
0010
0000
0000
0000
0100
0000
0000
0000
,
0011
0000
0000
0000
1000
0000
0000
0000
0010
0000
0000
0000
0100
0000
0000
0000
1010
0000
0000
0000
0000
0000
0000
0000
0100
0000
0000
0000
0010
0000
0000
0000
2000
3000
0200
0300
0020
0000
0032
0003
0010
0000
0000
0000
0000
0000
0000
0000
1001
0000
0000
0000
0000
0000
0000
0000
0010
0000
0000
0000
0000
0000
0000
0000
,
1100
0000
0000
0000
0010
0000
0000
0000
0100
0000
0000
0000
0001
0000
0000
0000
1100
0000
0000
0000
0000
0000
0000
0000
0100
0000
0000
0000
0010
0000
0000
0000
2000
3000
0200
0300
0020
0030
0002
0003
1000
0000
0000
0000
0000
0000
0000
0000
0011
0000
0000
0000
0000
0000
0000
0000
0010
0000
0000
0000
0100
0000
0000
0000
,
0011
0000
0000
0000
1000
0000
0000
0000
0010
0000
0000
0000
0100
0000
0000
0000
1010
0000
0000
0000
0000
0000
0000
0000
0100
0000
0000
0000
0010
0000
0000
0000
2000
3000
0200
0300
0020
0030
0002
0003
0010
0000
0000
0000
0000
0000
0000
0000
1001
0000
0000
0000
0000
0000
0000
0000
0010
0000
0000
0000
0000
0000
0000
0000
,
1100
0000
0000
0000
0010
0000
0000
0000
0100
0000
0000
0000
0001
0000
0000
0000
1100
0000
0000
0000
0000
0000
0000
0000
0100
0000
0000
0000
0010
0000
0000
0000
2000
3000
0200
0300
0020
0030
0002
0003
0100
0000
0000
0000
0001
0000
0000
0000
1100
0000
0000
0000
0000
0000
0000
0000
0100
0000
0000
0000
0001
0000
0000
0000
,
1100
0000
0000
0000
0010
0000
0000
0000
0100
0000
0000
0000
0001
0000
0000
0000
1100
0000
0000
0000
0000
0000
0000
0000
0100
0000
0000
0000
0010
0000
0000
0000
2000
3000
0200
0300
0020
0030
0002
0003
0100
0000
0000
0000
0001
0000
0000
0000
1100
0000
0000
0000
0000
0000
0000
0000
0010
0000
0000
0000
0000
0000
0000
0000
,
1100
0000
0000
0000
0010
0000
0000
0000
0100
0000
0000
0000
0001
0000
0000
0000
1100
0000
0000
0000
0000
0000
0000
0000
0100
0000
0000
0000
0010
0000
0000
0000
2000
3000
0200
0300
0020
0030
0002
0003
0010
0000
0000
0000
0100
0000
0000
0000
0011
0000
0000
0000
0000
0000
0000
0000
0100
0000
0000
0000
0000
0000
0000
0000
,
0011
0000
0100
0000
0011
0100
0001
1000
0011
0000
0100
0000
0010
0100
0001
0000
,
0120
0030
0000
0000
0100
0000
0000
0000
2100
3000
0000
0000
0110
0000
0000
0000
0210
0300
0000
0000
1000
0000
0000
0000
1002
0000
0003
0000
0000
0000
0000
0000
,
0020
0030
0000
0000
0010
0000
0000
0000
2010
3000
0000
0000
0110
0000
0000
0000
0210
0300
0000
0000
1000
0000
0000
0000
2002
3000
0203
0300
0020
0030
0001
0000
,
0120
0030
0000
0000
0100
0000
0000
0000
2100
3000
0000
0000
0110
0000
0000
0000
0210
0300
0000
0000
1000
0000
0000
0000
1002
0000
0003
0000
0000
0000
0000
0000
,
0020
0030
0000
0000
0010
0000
0000
0000
0020
0030
0000
0000
0110
0000
0000
0000
0120
0030
0000
0000
1000
0000
0000
0000
2002
3000
0203
0300
0020
0030
0000
0000
,
0120
0030
0000
0000
0100
0000
0000
0000
2100
3000
0000
0000
0110
0000
0000
0000
0210
0300
0000
0000
1000
0000
0000
0000
1002
0000
0003
0000
0000
0000
0000
0000
,
0120
0030
0000
0000
0010
0000
0000
0000
2010
3000
0000
0000
0110
0000
0000
0000
0210
0300
0000
0000
1000
0000
0000
0000
2002
3000
0203
0300
0020
0030
0001
0000
,
0120
0030
0000
0000
0100
0000
0000
0000
0120
0030
0000
0000
0110
0000
0000
0000
0120
0030
0000
0000
1000
0000
0000
0000
1002
0000
0003
0000
0000
0000
0000
0000
,
0210
0300
0000
0000
0210
0300
0000
0000
0210
0300
0000
0000
0210
0300
0000
0000
0210
0300
0000
0000
0000
0000
0000
0000
1002
0000
0003
0000
0000
0000
0000
0000
,
0110
0000
0100
0000
0101
0000
0100
0010
1000
0000
1000
0000
1001
0000
0000
0000
,
0110
0000
0000
0000
0010
0000
0000
0000
0011
0000
0000
0000
0100
0000
0010
0000
1000
0000
0000
0000
1000
0000
0000
0000
1200
0300
0020
0030
0002
0003
0000
0000
,
0110
0000
0100
0000
0101
0000
0100
0010
1000
0000
1000
0000
1001
0000
0000
0000
,
0110
0000
0000
0000
0010
0000
0000
0000
0011
0000
0000
0000
0100
0000
0010
0000
1000
0000
0000
0000
1000
0000
0000
0000
1200
0300
0020
0030
0002
0003
0000
0000
,
0110
0000
0100
0000
0101
0000
0100
0010
1000
0000
1000
0000
1001
0000
0000
0000
,
0110
0000
0000
0000
0010
0000
0000
0000
0011
0000
0000
0000
0100
0000
0010
0000
1000
0000
0000
0000
1000
0000
0000
0000
1200
0300
0020
0030
0002
0003
0000
0000
,
1000
0010
0100
0001
1000
0000
0010
0000
1000
0010
0100
0001
1000
0000
0010
0000
,
1100
1100
1100
0110
0110
0110
0011
0011
,
1001
0000
0000
0000
0000
0000
0000
0000
0000
0000
0000
0000
0000
0000
0000
0000
0101
0000
0000
0000
0000
0000
0000
0000
0100
0000
0000
0000
0010
0000
0000
0000
1000
0000
0000
0000
0000
0000
0000
0000
0011
0000
0000
0000
0000
0000
0000
0000
0200
0000
0000
0000
0000
0000
0300
0000
0000
0000
0000
0000
0020
0000
0000
0000
0000
0000
0030
0000
0000
0000
0000
0000
0002
0000
0000
0000
0000
0000
0003
0000
0000
0000
0000
0000
0000
0000
0000
0000
0000
0000
0000
0000
0000
0000
0000
0000
1100
0000
0000
0000
0000
0000
0000
0000
0000
0000
0000
0000
0000
0000
0000
0000
0000
0000
0000
0000
0000
0000
0000
0000
0000
0000
0000
0000
0000
0000
0000
0000
0000
0000
0000
0000
0000
0000
0000
0000
0000
0000
0000
0000
0000
0000
0000
0000
0000
0000
0000
0000
0000
0000
0000
0000
0000
0000
0000
0000
0000
0000
0000
0000
0000
0000
0000
0000
0000
0000
0000
0000
0000
0000
0000
0000
0000
0000
0000
0000
0000
0000
0000
0000
0000
0000
0000
0000
0000
0000
0000
0000
0000
0000
0000
0000
;
