#TITLE:Illumination of the Sky;
#SUBTITLE:;
#ARTIST:Phantasma;
#TITLETRANSLIT:;
#SUBTITLETRANSLIT:;
#ARTISTTRANSLIT:;
#CREDIT:;
#BANNER:Illumination of the Sky.png;
#BACKGROUND:Illumination of the Sky-BG.png;
#LYRICSPATH:;
#CDTITLE:2kM Index.png;
#MUSIC:illumination_of_the_sky.mp3;
#OFFSET:-0.140;
#SAMPLESTART:66.020;
#SAMPLELENGTH:12.000;
#SELECTABLE:YES;
#BPMS:0.000=102.000;
#STOPS:;
#BGCHANGES:;
// cache tags:
#FIRSTBEAT:0.000;
#LASTBEAT:192.000;
#SONGFILENAME:Songs/Fresh Flock of Fantastic Files F4/(2kM) Illumination of the Sky/Illumination.sm;
#HASMUSIC:1;
#HASBANNER:1;
#MUSICLENGTH:118.708;
// end cache tags

//---------------dance-single - ----------------
#NOTES:
     dance-single:
     :
     Hard:
     11:
     1.000,1.000,1.000,0.042,1.000,723.000,163.000,5.000,0.000,0.000:
0001
0010
0100
1000
0010
0100
0001
1000
0001
0010
0001
1000
0100
1000
0001
0100
,
0001
1000
0010
1000
0100
0010
0100
1000
0001
0100
0010
0100
0001
1000
0001
0100
,
0010
1000
0100
0010
0001
1000
0001
0010
0100
1000
0001
0100
0010
1000
0100
0010
,
0100
1000
0001
0100
0010
0100
0001
1000
0100
0010
0001
1000
0001
0010
0100
1000
,
0100
0100
0010
0001
0001
0100
0010
0010
1000
0100
0100
0010
0001
1000
0100
0010
,
0001
0001
1000
0100
0100
0010
0001
0001
0100
0010
0010
1000
0100
0010
0001
1000
,
0100
0100
0010
0001
0001
1000
0010
0010
0100
0001
0001
1000
0100
0010
0001
0100
,
0010
0010
1000
0100
0100
0010
0001
0001
0100
0010
0010
1000
0100
0010
0001
0100
,
1001
0000
0000
1001
0000
0000
0000
0000
0000
0000
0000
0000
0000
0000
0010
0000
,
1001
0100
0000
1001
0000
0000
0000
0000
0000
0000
0000
0000
0000
1001
0100
0000
,
1001
0000
0010
1001
0000
0000
1001
0000
1001
0000
0000
1001
0010
0020
0030
0100
,
1001
0010
0100
1001
0100
0010
0000
1100
1100
0000
0011
0011
0100
0020
0030
0100
,
1001
0010
0100
1001
0000
0010
0000
0100
1001
0010
0100
1001
0000
0010
0100
0100
,
1001
0100
0010
1001
0000
0100
0000
0011
0011
1100
1100
1001
0010
0200
0300
1001
,
1001
0100
0010
1001
0000
0010
0000
0100
1001
0010
0100
1001
0000
0010
0000
1001
,
1001
1001
0000
1001
0010
0000
0000
0000
2002
0000
0000
0000
3003
0000
0000
0000
,
1000
0100
0010
0001
0010
0100
0000
1000
0100
0000
0010
0001
0000
0010
0100
1000
,
0100
0010
0000
0001
0010
0000
0100
1000
0000
0010
0100
0000
0001
0010
0100
1000
,
0010
0000
1000
0100
0000
0010
0001
0000
1000
0001
0000
0010
0100
1000
0010
0100
,
0001
0000
1000
0000
0100
0000
0010
0001
0010
0000
0100
0000
1000
0010
1000
0000
0001
0000
0100
0001
0100
0000
0010
0000
1000
0001
1000
0000
0110
0000
0110
0000
,
0001
1000
0010
0100
0001
1000
0000
0100
0010
0000
0100
1000
0000
0001
1000
0010
,
1000
0001
0000
0010
0100
0000
1000
0010
0000
0100
0010
0000
1000
0100
0010
0001
,
1000
0000
0010
0100
0000
0001
1000
0000
0001
0010
0000
0100
1000
0010
0100
0001
,
0010
0000
0100
0000
1000
0000
0001
0100
0001
0000
1000
0000
0001
0010
0001
0000
0100
0000
0010
1000
0010
0000
1000
0000
0100
0010
0100
0000
1001
0000
1001
0000
,
0010
0100
0001
1000
0100
0010
0000
0001
0011
0000
0100
1100
0000
0100
0010
0001
,
0010
0100
0000
1000
1100
0000
0010
0011
0000
0100
0110
0000
1000
0100
0010
0001
,
0100
0000
0001
0011
0000
0100
1100
0000
0001
1001
0000
0001
0010
0001
0100
0010
,
1001
0000
0100
0000
1000
0000
0100
1000
0100
0000
1001
0000
0001
0100
0001
0000
1001
0000
0010
1000
0010
0000
1001
0000
0001
1000
0001
0000
0110
0000
0110
0000
,
1000
0001
0100
0010
1000
0001
0000
0010
0110
0000
0010
0011
0000
1000
0001
0100
,
0001
1000
0000
0100
0110
0000
0001
0101
0000
0010
0110
0000
0001
0010
0100
1000
,
0001
0000
0100
0110
0000
1000
1001
0000
1000
1100
0000
0010
0001
0100
0010
0100
,
1001
0000
1000
0000
0010
0000
1000
0010
1000
0000
1001
0000
0001
0100
0001
0000
1001
0000
0100
1000
0100
0000
1010
0000
0010
0100
0010
0000
1001
0000
0110
0000
,
1001
0010
1100
0010
0100
0001
1000
0110
0000
0110
0001
1000
0010
0100
0001
0010
,
1001
0100
0011
0100
0010
1000
0001
0110
0000
0110
1000
0001
0100
0010
1000
0100
,
1001
0010
1100
0010
0100
0001
0010
1001
0000
1001
0100
1000
0010
0100
0001
0010
,
1001
0100
0011
0100
0010
1000
0100
1001
0000
1001
0010
0001
0100
0010
1000
0100
,
1001
0010
1100
0010
0101
1010
0101
1010
0000
1010
0101
1010
0101
0010
1001
0110
,
1001
0100
0011
1000
0011
1100
0011
1100
0000
1100
0011
1100
0011
0100
1001
0110
,
1001
0100
1010
0100
1001
0110
1001
0110
0000
0110
1001
0110
1001
0010
1001
0110
,
1001
0100
1010
0100
1001
0110
1001
0110
0000
0110
1001
0110
1001
0100
1001
0110
,
0001
0000
0100
0000
0010
1000
0100
0000
0000
0000
0010
0001
0100
0010
1000
0100
0010
0000
0001
0000
1000
0001
0010
0000
0000
0000
0100
1000
0010
0100
0001
0010
,
0100
0000
1000
0000
0001
0010
0001
0000
0000
0000
1000
0100
0010
0100
1000
0010
0100
0000
0001
0000
0010
0100
1000
0000
0000
0000
0100
0010
0001
1000
0001
0010
,
0100
0000
1000
0000
0100
0010
0100
0000
0000
0000
1000
0001
0010
0100
0010
0001
0100
0000
0010
0000
1000
0100
1000
0000
0000
0000
0001
0010
0100
1000
0010
0100
,
0001
0000
1000
0000
0100
0010
0100
0000
1000
0000
0001
0010
0001
0000
1000
0000
0010
0100
0010
0000
1000
0000
0001
0100
0001
0000
1000
0000
0001
0100
0010
1000
,
0100
0000
1001
0000
0100
0001
0010
0000
1001
0000
0100
1000
0010
0100
0001
0010
0100
0000
1010
0000
0001
1000
0100
0000
1001
0000
0010
0001
0100
0010
1000
0100
,
0010
0000
0101
0000
1000
0100
1000
0000
0110
0000
0001
0010
0100
0010
0001
0100
0010
0000
1001
0000
0010
1000
0001
0000
1100
0000
0010
0100
1000
0001
1000
0100
,
0010
0000
1001
0000
0010
0100
0010
0000
1100
0000
0001
1000
0100
0010
0100
1000
0010
0000
1100
0000
0001
0010
0001
0000
0110
0000
1001
0000
0110
0000
0000
0001
,
0100
1010
1100
0101
0011
1010
1100
0101
1100
1100
0110
0110
0011
0011
1001
0110
,
1001
0000
0000
0000
;
