#TITLE:Complex Code;
#SUBTITLE:;
#ARTIST:ToastedNoodlez;
#TITLETRANSLIT:;
#SUBTITLETRANSLIT:;
#ARTISTTRANSLIT:;
#CREDIT:Owem;
#BANNER:../banner.png;
#BACKGROUND:../bg.png;
#LYRICSPATH:;
#CDTITLE:../cdtitleowem.png;
#MUSIC:Complex Code.ogg;
#OFFSET:-1.403;
#SAMPLESTART:67.232;
#SAMPLELENGTH:29.999;
#SELECTABLE:YES;
#BPMS:0.000=43.750,16.000=87.500,32.000=175.000;
#STOPS:;
#BGCHANGES:;
// cache tags:
#FIRSTBEAT:0.000;
#LASTBEAT:659.500;
#SONGFILENAME:Songs/Owem's Simfiles 08 1.1/Complex Code - [Owem] v1.0.0/Complex Code.sm;
#HASMUSIC:1;
#HASBANNER:1;
#MUSICLENGTH:252.368;
// end cache tags

//---------------dance-single - 16- (Owem)----------------
#NOTES:
     dance-single:
     16- (Owem):
     Challenge:
     16:
     1.000,1.000,0.265,0.472,1.000,2197.000,67.000,119.000,24.000,0.000:

1000
0000
0100
0010
0000
0001
0100
0001
0100
0000
0100
0000
0010
0000
0010
0000
1000
0000
1000
0100
0000
0010
0001
1000
0001
0000
0001
0000
0100
0000
0100
0000
,
0010
0000
1000
0010
0000
0100
0001
0000
1000
0000
1000
0000
0100
0000
0100
0000
0010
0000
0001
1000
0000
0010
1000
0000
0001
0000
000M
0000
0010
0000
0010
0000
,
0100
0000
1000
0010
0000
0100
0001
0100
0010
0000
0010
0000
1000
0000
1000
0000
0100
0000
0010
0001
1000
0010
0100
0000
0100
0000
0M00
0000
0010
0000
0010
0000
,
1010
0000
1000
0001
0000
0010
0100
0000
0100
0000
0M00
0000
1000
0000
1000
0000
0010
0000
0100
0001
0000
1000
0010
0100
0010
0000
00M0
0000
0100
0000
0200
0000
,
4304
3003
0000
4400
3300
0000
0440
0330
0000
0000
0000
0000
0000
0000
0020
0030
,
0044
0033
0000
0440
0330
0000
4400
3300
4004
3003
0000
0404
0303
0000
0440
0330
,
4040
3030
0000
4004
3003
0000
04M4
M303
00M0
0M00
000M
M000
0M00
00M0
0044
0033
,
4004
3003
0000
4040
3030
0000
0440
0330
0404
0303
0000
4004
3003
0000
4400
3300
,
0440
0000
0000
0330
0000
0000
0000
0000
0010
0000
0000
0000
0001
0000
0000
0000
1000
0000
0000
0000
0001
0000
0000
0000
0100
0000
0000
0000
0010
0000
0000
0000
,
1000
0010
0100
0001
1000
0100
0010
0000
,
0021
0030
0001
1002
1003
0000
1020
0030
,
0210
0300
0001
1002
1003
0000
0200
0300
,
0010
0001
1000
0001
0100
0010
1000
0100
,
1000
0001
0010
0100
0010
0001
1000
0010
,
0100
0001
1000
0001
0100
0010
1000
0100
1000
0001
0010
0100
1000
0001
1000
0010
,
0100
0000
0000
0000
0000
0000
0000
0000
0000
0000
0001
0000
0000
0000
0000
0000
0000
0000
0000
1000
0000
0000
0000
0000
0000
0000
0000
0000
0000
0010
0000
0000
0000
0000
0000
0000
0000
0000
1000
0000
0000
0000
0000
0000
0000
0000
0000
0000
0100
0000
0000
0000
0000
0000
0000
0000
0000
0000
0010
0000
0000
0000
0000
0000
0000
0000
0000
0001
0000
0000
0000
0000
0000
0000
0000
0000
0000
1000
0000
0000
0000
0000
0000
0000
0000
0000
0001
0000
0000
0000
0000
0000
0000
0000
0000
0000
0200
0000
0000
0000
0000
0000
0000
0000
0000
0000
0000
0000
0000
0000
0000
0000
0000
0000
0000
0000
0000
0000
0000
0000
0300
0000
0000
0000
0000
0000
0000
0000
0000
0000
0000
0000
0000
0000
0000
0000
0000
0000
0000
0000
0000
0000
0000
0000
0040
0000
0000
0000
0000
0000
0000
0000
0000
0000
0000
0000
0030
0000
0000
0000
0000
0000
0000
0000
0000
0000
0000
0000
0000
0000
0000
0000
0000
0000
0000
0000
0000
0000
0000
0000
0000
0000
0000
0000
0000
0000
0000
0000
0000
0000
0000
0000
,
1000
0001
1000
0100
0010
0001
1000
0100
1000
0001
0100
0010
1000
0001
0100
0001
,
1000
0100
0010
0001
0100
0010
1000
0001
0100
0010
0100
0001
1000
0010
1000
0100
,
0010
0001
1000
0100
1000
0001
0100
0010
1000
0100
1000
0001
0010
0001
0100
0010
,
1000
0001
0100
0010
0100
0001
1000
0100
0010
0100
1000
0001
0100
0001
1000
0010
,
0100
0001
0100
0010
1000
0001
0100
0001
1000
0100
0010
0001
0100
0010
1000
0001
,
0010
0001
0100
0010
1000
0001
0100
0001
1000
0100
1000
0010
0100
0001
1000
0100
,
1000
0001
0010
0100
1000
0001
0010
0001
0100
0010
1000
0001
0100
0010
0100
0001
,
1000
0100
0010
0100
1000
0001
0100
0010
0100
0001
1000
0100
1000
0001
1000
0100
,
0010
0001
1000
0100
1000
0001
0100
0010
0100
0001
1000
0010
0100
0010
1000
0100
,
1000
0001
0010
0100
1000
0001
0100
0001
0100
0010
1000
0001
0100
0010
0100
0001
,
1000
0100
1000
0001
0010
0100
1000
0001
0100
0010
0100
0001
1000
0010
1000
0001
,
0010
0001
0100
0010
1000
0001
0100
0010
0100
0001
1000
0100
0010
0100
1000
0001
,
0100
0001
0010
0100
1000
0001
0010
0001
0100
0010
1000
0100
1000
0001
0100
0001
,
1000
0100
0010
0100
1000
0001
0100
0010
1000
0001
0100
0001
0100
0010
1000
0001
,
0010
0001
1000
0100
0010
0100
1000
0001
0010
0001
1000
0100
0010
0100
1000
0001
,
0100
0010
0100
0001
1000
0010
1000
0001
0100
0010
0100
0001
1000
0100
1000
0001
,
0010
0100
1000
0001
1000
0100
0010
0001
1000
0100
1000
0001
0100
0010
1000
0001
,
0100
0001
1000
0100
0010
0100
1000
0001
0100
0001
1000
0100
1000
0001
0100
0010
,
0100
0001
1000
0100
0010
0001
1000
0010
1000
0001
1000
0100
0010
0001
1000
0100
,
1000
0001
0100
0010
1000
0001
0100
0001
1000
0100
0010
0001
0100
0010
1000
0001
,
0100
0010
0100
0001
1000
0010
1000
0100
0010
0001
1000
0100
1000
0001
0100
0010
,
1000
0100
1000
0001
0010
0001
0100
0010
1000
0001
0100
0010
0100
0001
1000
0100
,
0010
0100
1000
0001
0100
0001
1000
0010
0100
0001
0100
0010
1000
0001
0100
0001
,
1000
0100
0010
0001
0100
0010
1000
0001
0010
0001
0100
0010
1000
0001
0100
0001
,
1000
0100
1000
0010
0100
0001
1000
0100
1000
0001
0010
0100
1000
0001
0010
0001
,
0100
0010
1000
0001
0100
0010
0100
0001
1000
0100
0010
0100
1000
0001
0100
0010
,
0100
0001
1000
0100
1000
0001
1000
0100
0010
0001
1000
0100
1000
0001
0100
0010
,
0100
0001
1000
0010
0100
0010
1000
0100
1000
0001
0010
0100
1000
0001
0100
0001
,
0100
0010
1000
0001
0100
0010
0100
0001
1000
0100
1000
0001
0010
0100
1000
0001
,
0100
0010
0100
0001
1000
0010
1000
0001
0010
0001
0100
0010
1000
0001
0100
0010
,
0100
0001
1000
0100
0010
0100
1000
0001
0100
0001
0010
0100
1000
0001
0010
0001
,
0100
0010
1000
0100
1000
0001
0100
0001
1000
0100
0010
0100
1000
0001
0100
0010
,
1000
0001
0100
0001
0100
0010
1000
0001
0010
0001
1000
0100
0010
0100
1000
0001
,
0010
0001
1000
0100
0010
0100
1000
0001
0100
0010
0100
0001
1000
0010
1000
0001
,
0100
0010
0100
0001
1000
0100
1000
0001
0010
0100
1000
0001
1000
0100
0010
0001
,
1000
0100
1000
0001
0100
0010
1000
0001
0100
0001
1000
0100
0010
0100
1000
0001
,
0100
0001
1000
0100
1000
0001
0100
0010
0100
0001
1000
0100
0010
0001
1000
0010
,
0100
0001
1000
0100
0010
0001
0100
0010
0100
0001
1000
0010
1000
0001
1000
0100
,
0010
0001
1000
0100
1000
0100
0010
0001
1000
0001
0100
0010
0100
0001
1000
0010
,
1000
0001
0100
0010
1000
0001
1000
0100
0010
0100
1000
0001
0100
0001
1000
0100
,
1000
0010
0100
0001
1000
0001
0010
0001
0100
0010
1000
0001
0100
0001
1000
0100
,
0010
0100
1000
0001
0100
0010
4000
0000
0000
0000
0000
0000
3002
0000
0000
0000
,
0103
0010
0100
0001
1000
0100
1000
0001
1000
0100
0010
0001
0100
0001
1000
0010
,
0100
0001
0100
0010
1000
0001
0040
0000
0000
0000
0000
0000
0230
0000
0000
0000
,
1300
0001
1000
0100
0010
0001
1000
0100
1000
0001
0100
0010
1000
0001
0100
0001
,
1000
0100
0010
0001
0100
0010
1000
0001
0100
0010
0100
0001
1000
0010
1000
0100
,
0010
0001
1000
0100
1000
0001
0100
0010
1000
0100
1000
0001
0010
0001
0100
0010
,
1000
0001
0100
0010
0100
0001
1000
0100
0010
0100
1000
0001
0100
0001
1000
0010
,
0100
0001
0100
0010
1000
0001
0100
0001
1000
0100
0010
0001
0100
0010
1000
0001
,
0010
0001
0100
0010
1000
0001
0100
0001
1000
0100
1000
0010
0100
0001
1000
0100
,
1000
0001
0010
0100
1000
0001
0010
0001
0100
0010
1000
0001
0100
0010
0100
0001
,
1000
0100
0010
0100
1000
0001
0100
0010
0100
0001
1000
0100
1000
0001
1000
0100
,
0010
0001
1000
0100
1000
0001
0100
0010
0100
0001
1000
0010
0100
0010
1000
0100
,
1000
0001
0010
0100
1000
0001
0100
0001
0100
0010
1000
0001
0100
0010
0100
0001
,
1000
0100
1000
0001
0010
0100
1000
0001
0100
0010
0100
0001
1000
0010
1000
0001
,
0010
0001
0100
0010
1000
0001
0100
0010
0100
0001
1000
0100
0010
0100
1000
0001
,
0100
0001
0010
0100
1000
0001
0010
0001
0100
0010
1000
0100
1000
0001
0100
0001
,
1000
0100
0010
0100
1000
0001
0100
0010
1000
0001
0100
0001
0100
0010
1000
0001
,
0010
0001
1000
0100
0010
0100
1000
0001
0010
0001
1000
0100
0010
0100
1000
0001
,
0100
0010
0100
0001
1000
0010
1000
0001
0100
0010
0100
0001
1000
0100
1000
0001
,
0010
0100
1000
0001
1000
0100
0010
0001
1000
0100
1000
0001
0100
0010
1000
0001
,
0100
0001
1000
0100
0010
0100
1000
0001
0100
0001
1000
0100
1000
0001
0100
0010
,
0100
0001
1000
0100
0010
0001
0100
0010
1000
0001
0100
0001
1000
0100
1000
0001
,
0010
0001
0100
0010
1000
0001
0100
0010
0100
0001
1000
0100
1000
0010
0100
0001
,
1000
0000
0100
0000
0010
0000
0002
0000
1003
0000
0010
0000
0100
0000
0010
1000
,
0001
0000
0010
0000
0100
0000
1000
0010
0100
0000
0002
0000
0103
0000
0020
0030
,
2000
0000
3000
0000
0001
0000
0020
0000
0200
0030
1300
0000
0001
0100
0000
0010
,
0200
0000
0301
0000
1000
0000
0200
0000
0300
0000
0010
0000
0001
1000
0002
0003
,
0020
0000
0030
0000
0100
0000
2000
0000
0001
3000
0100
0000
0010
1000
0001
1000
,
0100
0000
0020
0030
0001
0000
0100
0010
1000
0000
0002
0000
0103
0000
0010
1000
,
0020
0000
0030
0000
0100
0000
0001
1000
0002
0000
0013
0000
0100
1000
0001
0000
,
0200
0000
0320
0000
1030
0000
0002
0000
1003
0000
0100
0010
0001
0000
1000
0000
,
0020
0000
0000
0000
1030
0000
0100
0000
1000
0000
0001
0000
0200
0000
0300
0010
,
1000
0000
0002
0003
0010
0000
0200
0000
1300
0000
0001
1000
0010
0000
0200
0300
,
0001
2000
3000
0000
0100
0000
0020
0000
0031
0000
1000
0000
0040
0000
0000
0000
,
0130
0000
0001
0000
1000
0000
0200
0000
0310
0000
0001
1000
0001
0000
0100
0000
,
0020
0000
0030
0000
1000
0000
0010
0100
0001
0000
1000
0000
1040
0000
0000
0130
,
0001
0000
2000
3000
0100
0000
0020
0000
0030
0000
0001
1000
0020
0030
0200
0300
,
0002
0000
0003
0000
1001
0000
2000
0000
3100
0000
0010
0000
0012
0000
1003
0010
,
0100
0000
0010
0000
1000
0000
0002
0000
0003
0000
2001
0000
3200
0000
0320
0030
,
0001
1000
0010
0100
0001
1000
0100
1000
0001
0100
0010
1000
0001
0100
0001
1000
,
0100
0010
0001
1000
0100
1000
0001
0100
0010
0100
0001
1000
0100
1000
0010
0100
,
0001
1000
0100
1000
0010
0100
0001
1000
0100
1000
0001
0010
0100
1000
0001
0100
,
0001
0010
0100
1000
0001
1000
0010
0100
0001
1000
0100
1000
0010
0100
0001
1000
,
0100
1000
0010
0100
0001
1000
0100
1000
0001
0010
0001
1000
0100
0010
0100
1000
,
0001
0100
0010
1000
0001
0100
0010
0100
0001
1000
0010
1000
0100
1000
0010
0100
,
0001
1000
0100
0010
0001
1000
0100
1000
0001
0100
0010
1000
0010
0100
0001
1000
,
0100
1000
0001
0010
0001
1000
0100
0010
0001
1000
0100
1000
0010
0100
0001
0100
,
0010
1000
0001
0010
0001
1000
0100
0010
0100
1000
0001
0100
0010
0100
0001
1000
,
0100
1000
0010
1000
0001
0100
0010
0100
0001
1000
0100
0010
0001
1000
0100
1000
,
0010
0100
0001
1000
0100
1000
0001
1000
0010
0100
0010
0100
0001
1000
0100
1000
,
0010
0100
0001
1000
0100
0010
0100
1000
0001
0010
0001
0100
0010
1000
0010
0100
,
0001
1000
0100
1000
0001
0010
0100
1000
0001
1000
0010
1000
0001
0100
0010
0100
,
0001
1000
0100
1000
0010
1000
0001
1000
0100
0010
0001
1000
0100
1000
0001
0100
,
0010
1000
0100
1000
0001
0100
0001
0010
0100
1000
0001
0010
0001
1000
0100
1000
,
0010
0100
0001
1000
0100
1000
0010
0100
0001
1000
0100
1000
0010
0100
0001
1000
,
0100
1000
0001
0010
0100
1000
0001
1000
0100
1000
0010
0100
0001
1000
0100
0010
,
0001
0100
0010
0200
0301
1000
0100
0010
,
0001
1000
0100
0010
0001
1000
0100
1000
0001
0100
0010
1000
0001
0100
0001
1000
,
0100
0010
0001
0100
0010
1000
0001
0100
0010
0100
0001
1000
0010
1000
0100
0010
,
0001
1000
0100
1000
0001
0100
0010
1000
0100
1000
0001
0010
0001
0100
0010
1000
,
0001
0100
0010
0100
0001
1000
0100
0010
0100
1000
0001
0100
0001
1000
0010
0100
,
0001
0100
0010
1000
0001
0100
0001
1000
0100
0010
0001
0100
0010
1000
0001
0010
,
0001
0100
0010
1000
0001
0100
0001
1000
0100
1000
0010
0100
0001
1000
0100
1000
,
0001
0010
0100
1000
0001
0010
0001
0100
0010
1000
0001
0100
0010
0100
0001
1000
,
0100
0010
0100
1000
0001
0100
0010
0100
0001
1000
0100
1000
0001
1000
0100
0010
,
0001
1000
0100
1000
0001
0100
0010
0100
0001
1000
0010
0100
0010
1000
0100
1000
,
0001
0010
0100
1000
0001
0100
0001
0100
0010
1000
0001
0100
0010
0100
0001
1000
,
0100
1000
0001
0010
0100
1000
0001
0100
0010
0100
0001
1000
0010
1000
0001
0010
,
0001
0100
0010
1000
0001
0100
0010
0100
0001
1000
0100
0010
0100
1000
0001
0100
,
0001
0010
0100
1000
0001
0010
0001
0100
0010
1000
0100
1000
0001
0100
0001
1000
,
0100
0010
0100
1000
0001
0100
0010
1000
0001
0100
0001
0100
0010
1000
0001
0010
,
0001
1000
0100
0010
0100
1000
0001
0010
0001
1000
0100
0010
0100
1000
0001
0100
,
0010
0100
0001
1000
0010
1000
0001
0100
0010
0100
0001
1000
0100
1000
0001
0010
,
0100
1000
0001
1000
0100
0010
0001
1000
0100
1000
0001
0100
0010
1000
0001
0100
,
0001
1000
0100
0010
0100
1000
0001
0100
0001
1000
0100
1000
0001
0100
0010
0100
,
0001
1000
0100
0010
0001
1000
0010
0100
0001
1000
0100
0010
0001
0100
0010
0100
,
0001
1000
0010
1000
0001
1000
0100
0010
0001
1000
0100
1000
0100
0010
0001
1000
,
0001
0100
0010
0100
0001
1000
0010
1000
0001
0100
0010
1000
0001
1000
0100
0010
,
0100
1000
0001
0100
0001
1000
0100
1000
0010
0100
0001
1000
0001
0010
0001
0100
,
0010
1000
0001
0100
0001
1000
0100
0010
0100
1000
0001
0100
0010
1000
0001
0100
,
0001
1000
0100
0010
0001
1000
0001
0100
0010
0100
0001
1000
0100
1000
0001
1000
,
0100
0010
0001
0100
0001
1000
0010
0100
0001
0100
0010
1000
0001
0010
0001
1000
,
0100
1000
0001
0010
0100
1000
0001
0100
0001
1000
0100
0010
0001
1000
0100
1000
,
0001
0100
0010
1000
0001
0100
0001
1000
0100
0010
0001
0100
0010
1000
0001
0100
,
0010
0100
0001
1000
0010
1000
0100
0010
0001
1000
0100
1000
0001
0100
0010
1000
,
0100
1000
0001
0010
0001
0100
0010
1000
0001
0100
0010
0100
0001
1000
0100
0010
,
0100
1000
0001
0100
0001
1000
0010
0100
0001
1000
0100
1000
0010
0100
0001
1000
,
0100
1000
0010
0100
0010
1000
0001
0100
0010
0100
0001
1000
0100
0010
0100
1000
,
0001
0100
0001
1000
0001
0100
0010
0100
0001
1000
0100
0010
0100
1000
0001
1000
,
0020
0030
0100
0202
0303
0001
2002
3003
,
1000
0100
1000
0010
0100
0001
1000
0001
0100
0010
0100
0001
1000
0100
0010
0001
,
2000
3000
0100
0220
0330
0010
0022
0033
,
2002
3003
1000
2020
3030
0010
0220
0330
,
0202
0303
0001
2002
3003
1000
2200
3300
,
0100
0010
0001
1000
0001
0100
0010
1000
0001
1000
0100
0010
0001
1000
0001
0100
,
0020
0030
1000
2020
3030
0010
0220
0330
,
0202
0303
0001
2002
3003
1000
2200
3300
,
0220
0330
0010
0022
0033
0001
2002
3003
,
1000
0010
1000
0001
0100
0010
0100
0001
1000
0100
0010
0100
1000
0001
0010
0001
,
0200
0300
0010
2020
3030
1000
2002
3003
,
0202
0303
0100
0220
0330
0010
2020
3030
,
2200
3300
0100
0220
0330
0010
0022
0033
,
0001
1000
0100
1000
0010
0100
0001
1000
0010
0100
0001
0100
0010
1000
0001
1000
,
0200
0300
0010
0022
0033
0001
2002
3003
,
2020
0000
3030
0000
0440
0330
0220
0000
0330
0000
0404
0303
1002
0000
1003
0000
,
1020
0000
0000
0000
0200
0030
0000
0000
,
0002
0000
0000
0000
0303
0M0M
0000
0M0M
,
0000
0M0M
0000
0M0M
0000
0M0M
0000
0M0M
;
