#TITLE:Witchyworld;
#SUBTITLE:(Banjo Tooie);
#ARTIST:Rareware;
#TITLETRANSLIT:;
#SUBTITLETRANSLIT:;
#ARTISTTRANSLIT:;
#CREDIT:;
#BANNER:witchyworld.png;
#BACKGROUND:witchyworld-bg.png;
#LYRICSPATH:;
#CDTITLE:kykaCD.png;
#MUSIC:witchyworld.mp3;
#OFFSET:-0.380;
#SAMPLESTART:92.360;
#SAMPLELENGTH:16.000;
#SELECTABLE:YES;
#BPMS:0.000=60.010;
#STOPS:;
#BGCHANGES:;
// cache tags:
#FIRSTBEAT:0.000;
#LASTBEAT:126.000;
#SONGFILENAME:Songs/toune 6/Witchyworld/tooie.sm;
#HASMUSIC:1;
#HASBANNER:1;
#MUSICLENGTH:138.004;
// end cache tags

//---------------dance-single - ----------------
#NOTES:
     dance-single:
     :
     Beginner:
     1:
     0.090,0.103,0.000,0.014,0.000,85.000,0.000,2.000,0.000,0.000:
1000
1000
0000
0001
,
0000
0100
0000
0010
,
0000
1000
0000
0010
,
0000
0100
0000
0001
,
0000
1000
0000
0001
,
0000
0100
0000
0001
,
0000
1000
0000
0100
,
0000
1000
0000
0010
,
0000
0100
0000
0001
,
0000
1000
0000
0001
,
0100
0010
1000
0001
,
0100
0001
0010
0001
,
1000
0100
1000
0010
,
0100
0010
1000
0001
,
1000
0001
0000
0100
,
0000
0010
0000
1000
,
0000
0010
0000
0100
,
0000
0001
0000
1000
,
0001
0100
0000
0100
,
0000
0010
0000
0010
,
0000
1000
0000
1000
,
0000
0001
0000
0001
,
0000
1000
0000
1000
,
0001
1000
0002
0000
,
1003
1000
0001
0001
,
0100
0010
0200
0000
,
0310
1000
0010
0100
,
0001
1000
0000
1000
,
0000
0001
0000
0001
,
0000
0100
0000
0100
,
1000
0010
1000
0010
,
0100
0001
0100
0000
;

//---------------dance-single - ----------------
#NOTES:
     dance-single:
     :
     Easy:
     2:
     0.203,0.194,0.500,0.014,0.000,125.000,69.000,2.000,0.000,0.000:
1000
0101
0001
1001
,
1000
1100
0010
0110
,
1000
1001
0100
0011
,
1000
0101
1000
1010
,
0100
1001
0010
0101
,
0100
0011
1000
1001
,
1000
0101
1000
0110
,
0100
0011
0010
1001
,
0100
0101
1000
0011
,
1000
0101
0001
0011
,
0001
0101
1000
1100
,
0010
0110
1001
0101
,
0001
1001
1000
1100
,
1010
1001
0101
0011
,
1000
1010
0010
0110
,
0001
1001
1000
1100
,
0010
0110
0001
1001
,
1001
1100
1010
1001
,
0001
1001
1000
1100
,
0010
0110
0001
1001
,
1000
1100
0110
1001
,
0101
1001
1100
0110
,
1001
0101
0001
1001
,
1000
0100
0020
0000
,
0031
0100
0010
1000
,
0001
1000
0200
0000
,
0310
0001
1000
0001
,
1000
1010
0010
0110
,
0001
1001
1100
1010
,
0010
1010
0001
0101
,
1001
1100
0110
1001
,
0101
1001
1100
0000
;

//---------------dance-single - ----------------
#NOTES:
     dance-single:
     :
     Medium:
     4:
     0.274,0.240,0.072,0.029,0.464,251.000,10.000,4.000,0.000,0.000:
1000
0000
0010
0100
0000
0010
1000
0000
0001
0100
0000
0001
,
0010
0000
0001
0100
0000
0010
1000
0000
0100
1000
0000
0010
,
0100
0000
0001
1000
0000
0001
0100
0000
0001
1000
0000
0000
,
0010
0000
1000
0100
0000
1000
0010
0000
0000
0110
0000
0000
,
1000
0000
0001
0100
0000
0001
1000
0000
0100
1000
0000
0010
,
0100
0000
0010
1000
0000
0001
0100
0000
0000
1001
0000
0000
,
1000
0000
0010
0100
0000
0001
1000
0000
0001
0100
0000
0000
,
0010
0000
1000
0001
0000
0010
0001
0000
0000
0101
0000
0000
,
1001
0000
0001
0100
0000
0001
1000
0000
0010
1000
0000
0000
,
1010
0000
0000
0010
0100
0010
0100
0010
0100
0010
0000
0000
,
0010
1000
1000
0010
0000
0000
0100
0001
0001
0100
0000
0000
,
0010
1000
1000
0010
0000
0100
0010
0000
1000
0001
1000
0001
,
0100
0010
0010
0100
0000
0000
0010
1000
1000
0010
0000
0000
,
1000
0001
0001
1000
0001
0001
1000
0001
0001
1000
0001
0001
,
1000
0000
0001
0100
0000
0001
1000
0000
0001
0100
0000
0000
,
0010
0000
1000
0100
0000
1000
0010
0000
0000
1010
0000
0000
,
0010
0000
1000
0100
0000
0010
0001
0000
0100
0001
0000
0000
,
1001
0000
0000
1000
0001
1000
0001
1000
0001
1000
0000
0000
,
0001
0010
0100
1000
0001
0100
0001
0000
1000
0001
0000
1001
,
0000
1000
0100
1000
0010
0100
0010
0000
1000
0001
0000
0000
,
1000
0000
0001
0100
0000
0001
0100
0000
0010
1000
0000
0001
,
0100
0000
0001
1000
0010
1000
0001
0000
0000
0000
1000
0100
,
1000
0000
0001
0100
0000
0001
1000
0000
0001
0100
0000
0001
,
1000
0000
0010
0100
0000
0010
2002
0000
0000
0000
0000
3003
,
0100
0000
0001
1000
0000
0001
0100
0000
0010
1000
0000
0010
,
0100
0000
0010
1000
0000
0001
2200
0000
0000
0000
3300
0001
,
1000
0000
0010
1000
0000
0001
0100
0000
0001
1000
0000
0001
,
0100
0001
0001
0100
0000
0000
0010
1000
1000
0010
0000
0000
,
0100
0001
0001
0100
0000
0010
0100
0000
0001
1000
0001
1000
,
0010
0100
0100
0010
0000
0000
0100
0001
0001
0100
0000
0000
,
0001
1000
1000
0001
1000
1000
0001
1000
1000
0001
1000
1000
,
0001
1000
1000
0010
1000
1000
0100
0000
0000
0000
0000
0000
;

//---------------dance-single - ----------------
#NOTES:
     dance-single:
     :
     Hard:
     7:
     0.579,0.593,1.000,0.058,0.935,413.000,138.000,8.000,0.000,0.000:
1000
0100
1000
0010
0100
0010
1000
0001
0100
0001
1000
0001
,
0100
0010
1000
0100
1000
0010
0100
0001
1000
0001
0100
0001
,
1000
0010
0110
1001
0001
1001
1100
0010
0110
1001
1000
0100
,
0011
0001
1100
1010
0010
0110
1001
0001
0100
1001
1000
0100
,
1100
0010
0101
1001
1000
1100
0110
0001
1001
1100
0010
1100
,
0011
0001
0101
1010
1000
1100
1010
0010
0100
1001
0001
0100
,
1001
1000
0101
1001
0001
1001
1100
0100
1100
0110
0010
1000
,
1001
0010
1010
0101
0001
1001
1100
0010
0100
0110
0010
1000
,
1001
0001
0101
1001
1000
1100
1010
0010
0110
0101
0001
1000
,
1100
0010
0100
1001
0110
0101
1001
1001
0110
1100
0001
0100
,
1001
0000
0100
1000
0100
0000
0110
0000
1001
0000
0101
0000
0001
0000
1000
0100
1000
0000
1010
0000
0110
0000
1001
0000
,
0001
0000
1000
0100
0010
0000
0101
0000
1001
0000
1100
0000
0110
0000
1000
0010
0001
0000
0101
0000
0001
0100
1000
0000
,
1001
0000
1000
0010
0100
0000
1010
0000
0101
0000
1001
0000
0001
0000
0100
0001
0010
0000
0101
0000
1001
0000
1100
0000
,
1010
0000
0100
0010
0100
0000
1010
0000
0010
0100
0010
0000
1001
0000
0001
0100
0001
0000
1001
0000
1000
0100
1000
0000
,
1010
0000
1000
0110
0000
0010
0101
0000
0001
1001
0000
0000
,
1100
0000
0010
0110
0000
0001
1001
0000
0000
1100
0000
0000
,
1001
0000
0100
0101
0000
0001
0011
0000
0001
1001
0000
0000
,
1100
0000
0000
1100
0101
1010
0110
1001
0110
1001
0000
0000
,
1000
0001
1000
0001
1000
0001
0100
0000
0010
0000
1000
0000
0002
0000
0000
0000
0103
0000
0020
0000
0000
0000
1030
0000
,
0000
0000
1000
0001
1000
0001
1000
0000
0010
0000
0100
0000
0002
0000
0000
0000
0013
0000
0002
0000
0000
0000
0000
0000
,
0103
0000
0001
0010
0001
0100
0020
0000
0130
0002
0000
1003
,
0020
0000
0130
0001
1000
0010
2000
0000
0000
0000
3001
0010
,
0011
0010
0100
0001
1000
0001
0100
0010
1000
0001
0100
0001
,
1000
0000
0000
0000
0100
0000
0000
0000
1000
0000
0000
0000
0100
0000
0000
0000
1000
0000
0000
0000
0100
0000
0000
0000
1000
0001
1000
0001
1000
0001
1000
0001
1000
0001
1000
0001
1000
0001
1000
0001
1000
0001
1000
0001
1000
0001
1000
0001
,
1000
0000
0000
0000
0010
0000
0000
0000
1010
0000
0000
0000
0101
0000
0000
0000
0001
0000
0000
0000
1001
0000
0000
0000
1100
0000
0000
0000
0010
0000
0000
0000
0110
0000
0000
0000
1001
0000
0000
0000
0001
0000
0000
0000
0101
0000
0100
0001
,
0100
0000
0000
0000
0010
0000
0000
0000
0100
0000
0000
0000
0010
0000
0000
0000
0100
0000
0000
0000
0010
0000
0000
0000
0100
0001
0100
0001
0100
0001
0100
0001
0100
0001
0100
0001
0100
0001
0100
0001
0100
0001
0100
0001
0100
0001
0100
0001
,
0100
0001
0101
1001
0100
1001
1100
0010
0110
1001
0001
0101
,
1001
0000
0010
0001
0010
0000
0110
0000
1001
0000
1010
0000
1000
0000
0001
0010
0001
0000
0101
0000
0110
0000
1001
0000
,
1000
0000
0001
0010
0100
0000
1010
0000
1001
0000
0011
0000
0110
0000
0001
0100
1000
0000
1010
0000
1000
0010
0001
0000
,
1001
0000
0001
0100
0010
0000
0101
0000
1010
0000
1001
0000
1000
0000
0010
1000
0100
0000
1010
0000
1001
0000
0011
0000
,
0101
0000
0010
0100
0010
0000
0101
0000
0100
0010
0100
0000
1001
0000
1000
0010
1000
0000
1001
0000
0001
0010
0001
0000
,
0101
0000
1000
0001
1000
0000
0110
0000
0100
0010
0100
0000
1010
0000
0000
0000
0000
0000
0000
0000
0000
0000
0000
0000
;
