#TITLE:Ageha;
#SUBTITLE:;
#ARTIST:Ryu*;
#TITLETRANSLIT:;
#SUBTITLETRANSLIT:;
#ARTISTTRANSLIT:;
#CREDIT:;
#BANNER:Ageha-bn.png;
#BACKGROUND:Ageha-bg.png;
#LYRICSPATH:Ageha.lrc;
#CDTITLE:!mm989cdtitle.png;
#MUSIC:Ageha.mp3;
#OFFSET:0.109;
#SAMPLESTART:2.540;
#SAMPLELENGTH:10.640;
#SELECTABLE:YES;
#BPMS:0.000=180.000,44.000=90.000,60.000=180.000;
#STOPS:196.000=1.660
;
#BGCHANGES:;
// cache tags:
#FIRSTBEAT:4.000;
#LASTBEAT:338.000;
#SONGFILENAME:Songs/Fresh Flock of Fantastic Files F4/(MM989) Ageha/Ageha.sm;
#HASMUSIC:1;
#HASBANNER:1;
#MUSICLENGTH:121.286;
// end cache tags

//---------------dance-single - ----------------
#NOTES:
     dance-single:
     :
     Hard:
     11:
     1.000,1.000,1.000,0.140,0.664,680.000,231.000,17.000,0.000,0.000:  // measure 1
0000
0000
0000
0000
,  // measure 2
1000
0100
0010
0000
0100
0010
0001
0000
0100
0000
1000
0010
1000
0000
0100
0000
,  // measure 3
1001
0000
0011
0000
1010
1010
0001
0110
,  // measure 4
0000
0110
0000
0101
0101
0010
1100
0000
,  // measure 5
1010
0001
1100
0001
1010
0000
0011
1000
,  // measure 6
0101
1000
0011
0000
1100
0010
1100
0000
,  // measure 7
1001
0000
0011
0000
0101
0101
1000
0011
,  // measure 8
0000
0110
0000
1010
1010
0100
0011
0000
,  // measure 9
0110
1000
0101
1000
0110
0000
0110
0001
,  // measure 10
1010
0100
0001
0000
0001
0010
0100
0000
1000
0000
0100
1000
0010
0000
0100
0000
,  // measure 11
2002
0000
3003
0100
,  // measure 12
0020
0000
0000
0000
0030
1000
0010
0100
0002
0000
0000
0000
0203
0000
0000
0000
,  // measure 13
1300
0020
0000
0031
0020
0000
2030
0000
,  // measure 14
3200
0000
0000
0000
0300
0001
0010
0100
2000
0000
0000
0000
0000
0000
3000
0000
,  // measure 15
0102
0000
1000
0003
2100
0000
0010
3000
,  // measure 16
1001
0000
0010
0000
1100
0000
0001
0010
0001
0000
0100
0000
0110
0000
1000
0000
,  // measure 17
0011
0000
0100
0000
1010
0000
0001
1000
0001
0000
0010
0000
1100
0000
0001
0000
,  // measure 18
1001
0000
0100
0000
0011
0000
0100
0001
0100
0000
1000
0000
0110
0000
0001
0000
,  // measure 19
1100
0000
0010
0000
0101
0000
1000
0010
1001
0000
0100
0000
0011
0000
0100
0000
,  // measure 20
1001
0000
0100
0001
1000
0000
0010
0000
1001
0000
0100
0000
0011
0000
1000
0000
,  // measure 21
0110
0000
0001
1000
0100
0000
0010
0000
1001
0000
0010
0000
1100
0000
0010
0000
,  // measure 22
1001
0100
1010
0100
1001
0000
0011
0100
,  // measure 23
1001
0010
0100
0000
0100
0001
1000
0000
0100
0000
0010
0001
1000
0000
0100
0000
,  // measure 24
1001
0000
0110
0000
1100
1100
0001
0010
,  // measure 25
0000
0011
0000
0101
0101
1000
0011
0000
,  // measure 26
0011
1010
1001
1100
0011
0000
1010
1100
,  // measure 27
0110
0011
0101
0000
0110
1001
0110
0000
,  // measure 28
1001
0000
1100
0000
0101
0101
0010
1000
,  // measure 29
0000
1100
0000
0011
0011
0100
1010
0000
,  // measure 30
0101
1100
1010
1001
0101
0000
1100
1001
,  // measure 31
0011
0100
1000
0000
1000
0010
0100
0000
0001
0000
0100
0010
1000
0000
0100
0000
,  // measure 32
1001
0001
0001
0001
,  // measure 33
1001
0011
0101
1001
,  // measure 34
0001
0010
0100
1000
0001
0100
0010
0100
0001
1000
0100
1000
0001
0010
0100
0010
,  // measure 35
0001
1000
0100
0010
0001
0100
0010
1000
0001
0010
0001
0100
0010
1000
0100
0010
,  // measure 36
0001
0100
0010
1000
0100
1000
0001
0100
0010
0100
0001
0010
0100
1000
0010
0100
,  // measure 37
0010
1000
0100
0010
0100
1000
0001
0010
1001
0000
0100
0000
1001
0000
0100
0000
,  // measure 38
1001
0010
0001
0100
0001
0010
0100
1000
0100
0010
0001
1000
0010
0100
0010
1000
,  // measure 39
0001
0010
0100
1000
0001
0100
0010
0100
0001
0010
0001
1000
0100
1000
0001
0010
,  // measure 40
0001
0100
0010
1000
0010
0100
0001
1000
0100
0010
0001
0100
0001
0010
0001
1000
,  // measure 41
0100
0010
0001
1000
0010
1000
0001
0010
0100
0010
0001
0010
0100
1000
0001
0100
,  // measure 42
1001
0000
0101
0000
1000
0001
0010
0000
1100
0000
0011
0000
0100
0001
1000
0000
,  // measure 43
0110
0000
1100
0000
0001
0010
0100
0000
1010
0000
1100
0000
0001
0100
0010
0000
,  // measure 44
1001
0000
0101
0000
0010
1000
0100
0000
0011
0000
0101
0000
1000
0010
0100
0000
,  // measure 45
1001
0000
0011
0000
0100
1000
0001
0000
0110
0000
1100
0000
0110
0000
0101
0000
,  // measure 46
1100
0000
0011
0000
0100
0010
1000
0000
0101
0000
1100
0000
0010
0100
0001
0000
,  // measure 47
0110
0000
1010
0000
0100
0001
1000
0000
0011
0000
1010
0000
0100
0001
1000
0000
,  // measure 48
0010
0100
0010
0100
0001
0010
0001
0010
0100
1000
0100
1000
0010
0100
0010
0100
,  // measure 49
0001
1000
0001
1000
0100
0010
0100
0010
0001
0100
0001
0100
0010
1000
0010
1000
,  // measure 50
0001
0000
0000
0200
0000
0000
0000
0000
0000
0310
0000
0010
,  // measure 51
1000
0000
0000
1001
0000
0100
0001
0000
0001
0010
0000
0001
,  // measure 52
1000
0000
0000
1100
0000
0010
0001
0000
0001
0100
0000
0100
,  // measure 53
0010
0000
0000
1010
0000
0100
0001
0000
0001
0010
0000
0010
,  // measure 54
0100
0000
0000
0110
0000
1000
0001
0000
0001
0100
0000
0100
,  // measure 55
0010
0000
0010
1000
0000
1000
0001
0000
0001
0010
0000
0010
,  // measure 56
0100
0000
0000
1001
0000
0010
0001
0000
0001
0100
0000
0100
,  // measure 57
0010
0000
0010
1000
0000
1000
0001
0000
0001
0010
0000
0010
,  // measure 58
0100
0000
0100
1000
0000
0100
0010
0000
0000
1001
0000
0001
,  // measure 59
0100
0000
0010
0100
0000
1000
0001
0000
0010
0100
0000
1000
,  // measure 60
0010
0000
0100
0001
0000
0010
0100
0000
1000
0100
0000
0010
,  // measure 61
0001
0000
0100
0010
0000
1000
0100
0000
1000
0001
0000
0010
,  // measure 62
0001
0000
0001
0100
0000
0001
0100
1000
0100
0002
0000
0000
,  // measure 63
0000
0000
0000
0023
,  // measure 64
0000
0000
0000
0000
0030
0000
1010
0011
,  // measure 65
1001
0000
0101
0000
1100
0000
0000
0000
0011
0000
1001
0000
0110
1000
0001
0000
,  // measure 66
0110
0001
1000
0000
0110
0000
0001
1000
0110
0000
0001
0000
1001
0000
0000
0000
,  // measure 67
1010
0000
0110
0110
0001
1100
0000
0101
,  // measure 68
0000
1010
1010
0001
0110
0000
1010
0110
,  // measure 69
1001
1100
0101
0000
1010
0110
1001
1100
,  // measure 70
0101
0000
0011
1100
0011
0000
1001
0000
,  // measure 71
1100
0000
0110
0110
1000
0101
0000
1001
,  // measure 72
0000
0011
0011
1000
1100
0000
0110
1001
,  // measure 73
1010
0000
0011
0000
0101
0000
0000
0000
1010
0000
0101
0000
0110
1000
0001
0000
,  // measure 74
0110
0001
1000
0000
0110
0000
0001
1000
0110
0000
0001
0000
1001
0000
0100
0000
,  // measure 75
0011
1000
0101
0010
1100
0001
0110
1000
,  // measure 76
0011
0100
1010
0001
1100
0010
1001
0100
,  // measure 77
0011
1000
0101
0010
1100
0001
0110
1000
,  // measure 78
0011
0100
1010
0001
1100
0010
1001
0100
,  // measure 79
1010
0001
0110
1000
0101
0010
1100
0001
,  // measure 80
0110
1000
0011
1000
0101
0010
1001
1010
,  // measure 81
1100
0000
0110
0000
0011
0000
0000
0000
1001
0000
1010
0000
1100
0010
0001
0000
,  // measure 82
0001
0100
0010
0000
1000
0000
0100
0010
0001
0000
0100
0000
1001
0000
0101
0000
,  // measure 83
0011
0101
1001
0000
1001
1100
1010
1100
,  // measure 84
1001
0000
0010
0100
0001
0000
2002
0000
,  // measure 85
0000
0000
3003
0000
;
