#TITLE:R/T 2003;
#SUBTITLE:(DDR hypershort edit);
#ARTIST:DJ NEGI remixed wobnam_orioa with Gun-SEKI;
#TITLETRANSLIT:;
#SUBTITLETRANSLIT:;
#ARTISTTRANSLIT:;
#CREDIT:;
#BANNER:rt2003oni.png;
#BACKGROUND:rt2003oni_bg.png;
#LYRICSPATH:RT2003oni.lrc;
#CDTITLE:cdtitle.png;
#MUSIC:rt2003oni.mp3;
#OFFSET:-10.160;
#SAMPLESTART:25.853;
#SAMPLELENGTH:12.000;
#SELECTABLE:YES;
#DISPLAYBPM:180.000;
#BPMS:0.000=180.000,3.438=25.580,3.750=20.300,4.000=180.000,158.000=141.980,160.000=136.220,163.000=180.000,198.000=193.020,200.000=181.500,208.000=180.000;
#STOPS:;
#BGCHANGES:;
// cache tags:
#FIRSTBEAT:3.313;
#LASTBEAT:402.500;
#SONGFILENAME:Songs/Japanese Collaboration Mix/RT2003oni/RT2003oni.sm;
#HASMUSIC:1;
#HASBANNER:1;
#MUSICLENGTH:145.827;
// end cache tags

//---------------dance-single - Copied from SMANIAC----------------
#NOTES:
     dance-single:
     Copied from SMANIAC:
     Hard:
     9:
     0.663,0.725,0.357,0.178,0.099,599.000,52.000,26.000,0.000,0.000:
0000
0000
0000
0000
0000
0000
0000
0000
0000
0000
0000
0000
0000
0000
0000
0000
0000
0000
0000
0000
0000
0000
0000
0000
0000
0000
0000
0000
0000
0000
0000
0000
0000
0000
0000
0000
0000
0000
0000
0000
0000
0000
0000
0000
0000
0000
0000
0000
0000
0000
0000
0000
0000
0220
0000
0000
0000
0000
0000
0000
0000
0000
0000
0000
,
0000
0000
0000
0000
0000
0000
0000
0330
,
0000
0000
0000
0000
,
1001
0000
1000
0001
0000
0001
1000
0000
,
1100
0000
0010
0001
0000
0001
0010
0000
,
0110
0000
0100
0001
0000
0001
0100
0000
,
1001
0000
0100
0010
0000
0010
0100
0000
,
0101
0000
0010
1000
0000
1000
0100
0000
,
0011
0000
0010
0100
0000
0100
1000
0000
,
1010
0000
0010
0100
0000
0001
1000
0000
,
0020
0100
0100
0130
,
1200
0000
0001
0000
1300
0000
0001
1000
,
0100
0000
0010
0001
0010
0001
1000
0000
,
0010
0100
0001
0100
0010
1000
0001
1000
,
0010
0100
0001
1000
0100
0010
0011
0000
,
0021
0000
1000
0000
0031
0000
1000
0001
,
0010
0000
0100
1000
0100
1000
0001
0000
,
0100
0010
1000
0010
0100
0001
1000
0001
,
0100
0010
1000
0001
0010
0100
1100
0000
,
0001
0100
0001
0000
1000
0000
1100
0000
0000
0000
0000
0000
0010
0000
0011
0000
,
0000
0000
1000
1001
0100
0010
0001
0100
,
0001
1000
0100
0010
0100
1000
0010
0100
,
0001
0010
0200
0000
1000
0000
1300
0000
,
1000
0100
1000
0000
0001
0000
0101
0000
0000
0000
0000
0000
0010
0000
1010
0000
,
0000
0000
0001
1001
0100
0010
1000
0100
,
1000
0001
0100
0010
0100
0001
0010
0100
,
1000
0010
0200
0000
0001
0000
0301
0000
,
0010
0000
0100
0001
1000
0000
0100
0010
0001
0000
1000
0000
1001
0000
0000
0000
,
1000
1100
0001
0101
0010
0100
0110
0000
,
1000
0001
0010
0100
0010
0001
0010
0001
,
0100
0010
1000
0100
0001
0000
1100
0000
,
0001
1000
0010
0100
0010
1000
0010
1000
,
0100
0000
0010
0000
0001
0000
0100
0000
1000
0000
0000
0000
0101
0000
0100
0010
,
0100
0001
1000
0100
0001
0100
0010
0001
,
0100
0010
1000
0001
0020
0000
1030
0000
,
0001
0000
0010
0100
0010
0001
2000
0000
0000
0000
0000
0000
3100
0000
0000
0000
,
0010
0000
0001
0000
0010
0100
0000
0000
1000
0000
0010
0000
1000
0001
0000
0000
,
1001
0100
0010
0100
,
0110
0000
0000
0000
,
1100
0000
0000
0000
0000
0000
0000
0011
0000
0000
0000
0000
,
0101
0000
0000
0000
0000
0000
0000
0000
0000
1100
0000
0000
0000
0000
0000
0000
0000
0000
0000
0000
0000
0000
0000
0000
0000
0000
0000
0000
0000
0000
0000
0000
0000
0000
0000
0000
1000
0000
0000
0000
0010
0000
0000
0000
0100
0000
0000
0000
,
0001
0000
0010
0000
0100
0000
1000
0000
0001
0000
0100
0000
0010
0000
0000
0000
0000
0000
0010
0000
0000
0010
0000
0000
,
1000
0001
1000
0100
1000
0010
0100
0010
,
0001
1000
0100
0010
0100
0001
1000
0001
,
1000
0100
0010
0001
1000
0001
0010
0100
,
0010
1000
0001
0100
0010
0001
0011
0000
,
0100
0001
0100
0010
1000
0100
1000
0001
,
0100
0010
1000
0100
0010
1000
0010
0001
,
1000
0100
0010
0100
0001
0100
1000
0010
,
1000
0001
0100
0010
1000
1010
0000
0101
,
0020
1000
0000
0001
0000
0031
0000
0100
,
0002
0010
0000
0010
0000
1003
0000
0001
,
2000
0001
0000
0001
0000
3100
0000
0010
,
0200
0001
0000
0001
0000
1300
0000
0010
,
0001
1000
0000
1100
0000
1010
0000
0100
,
0001
0010
0000
1010
0000
0110
0000
0001
,
0100
1000
0000
0101
0000
0011
0000
1000
,
0010
0001
0000
0110
0000
1001
0000
0100
,
1001
0000
0010
0001
0000
1000
0100
0010
,
1100
0000
0001
0010
0000
0010
1000
0100
,
0011
0000
0100
1000
0000
0001
0100
0010
,
1010
0000
1000
0001
0000
0010
0100
1000
,
0110
0000
0001
0100
0000
0010
0001
0100
,
1001
0000
0100
0010
0000
0001
0001
0100
,
1001
0000
1000
0001
0000
1000
0001
0100
,
0010
0000
0010
0000
0100
0100
0100
0100
,
0200
0000
0001
0000
0310
0000
1000
0100
,
0010
0000
1000
0100
0010
0001
0100
0000
,
0001
0001
1000
0100
0010
0100
0010
0010
,
0001
0000
0100
0000
0010
0000
1000
0000
0001
0000
0001
0000
0001
0000
1000
0100
,
2000
0000
0100
0000
3010
0000
0001
0100
,
1000
0000
0001
0100
1000
0100
0001
0000
,
1000
0100
0010
0100
1000
0001
0100
0010
,
0100
0001
1000
0001
0100
0010
0001
0000
,
0001
0100
0010
0001
0010
0000
1000
0010
,
0100
0000
1000
0100
0010
1000
0010
0001
,
0100
0010
0001
0010
0100
0001
1000
0100
,
0010
0001
0010
1000
0010
0100
1000
0000
,
0010
0100
0010
1000
0100
0000
0010
0001
,
0100
0000
1000
0001
0100
0010
0100
0010
,
1000
0001
0010
0100
1000
0100
0010
0001
,
0100
0010
0001
0010
1000
0010
0001
0000
,
1000
0010
1001
0100
0010
1000
0110
0000
,
0001
0010
0001
0000
1000
0010
1000
0000
0010
0100
0010
0100
0010
0000
0000
0000
,
1000
0001
0100
0001
0200
0000
0301
1000
,
0100
1000
0010
0100
0002
0000
0013
0000
,
1000
0100
0010
0100
0002
0000
0103
1000
,
0001
0000
0010
0000
0100
0000
1000
0000
0020
0000
0000
0000
0130
0000
0001
1000
,
0001
0010
0100
0001
0200
0000
1300
0010
,
1000
0100
0001
0100
2000
0000
3001
0000
,
1000
0000
0100
0010
0100
1000
0002
0000
0000
0000
0000
0000
0013
0000
0000
0000
,
0100
0000
1000
0000
0100
0010
0000
0000
0001
0000
0100
0000
0001
1000
0000
0000
,
2001
0001
0000
3002
,
1000
1000
0000
1003
,
1001
0000
0100
1000
0000
0100
0001
0000
,
0010
0000
0001
0000
0000
1000
0000
0000
,
0010
0000
1000
0000
0000
0100
0000
0000
,
2000
3001
0010
0100
,
0000
0000
0000
0000
,
0000
0000
0000
0000
0000
0000
0000
0000
0000
0000
0000
0000
0000
0000
0000
0000
0000
0000
0000
0000
0000
0000
0000
0000
0000
0000
0000
0200
0000
0000
0000
0000
,
0000
0000
0000
0000
0000
0310
0000
0000
;
