#TITLE:MVP;
#SUBTITLE:Beastiality Violation;
#ARTIST:Despised Icon;
#TITLETRANSLIT:;
#SUBTITLETRANSLIT:;
#ARTISTTRANSLIT:;
#CREDIT:;
#BANNER:../BV - ban.png;
#BACKGROUND:../BV - bg.png;
#LYRICSPATH:;
#CDTITLE:;
#MUSIC:MVP.ogg;
#OFFSET:0.009;
#SAMPLESTART:97.360;
#SAMPLELENGTH:11.760;
#SELECTABLE:YES;
#DISPLAYBPM:280.000;
#BPMS:0.000=280.000,583.500=275.000,585.000=270.000,586.000=215.000;
#STOPS:;
#BGCHANGES:;
// cache tags:
#FIRSTBEAT:0.000;
#LASTBEAT:616.000;
#SONGFILENAME:Songs/Beastiality Violation/MVP - [Chubaka & Aoreo]/MVP.sm;
#HASMUSIC:1;
#HASBANNER:1;
#MUSICLENGTH:134.256;
// end cache tags

//---------------dance-single - Chubaka & Aoreo----------------
#NOTES:
     dance-single:
     Chubaka & Aoreo:
     Challenge:
     19:
     1.000,1.000,0.179,1.000,1.000,1289.000,24.000,659.000,0.000,1.000:
0002
0003
0000
0000
0200
0300
0000
0000
0002
0003
0000
0000
2000
3000
0000
0000
0020
0030
0000
0000
0200
0300
0000
0000
0002
0003
0000
0000
2000
3000
0000
0000
0002
0003
0000
0000
0200
0300
0000
0000
0020
0030
0000
0000
2000
3000
0000
0000
0002
0003
0000
0000
2000
3000
0000
0000
0200
0300
0000
0000
2000
3000
0000
0000
,
0004
0043
0430
4300
,
3004
0403
0340
0430
,
0304
0043
0430
4300
,
3002
0003
0000
0000
0020
0030
0000
0000
0002
0003
0000
0000
2000
3000
0000
0000
0200
0300
0000
0000
2000
3000
0000
0000
0002
0003
0000
0000
0020
0030
0000
0000
0200
0300
0000
0000
2000
3000
0000
0000
0002
0003
0000
0000
2000
3000
0000
0000
0200
0300
0000
0000
0020
0030
0000
0000
0002
0003
0000
0000
2000
3000
0000
0000
,
0002
0003
0000
0000
0000
0000
0000
0000
0000
0000
0000
0000
0000
0000
0000
0000
0000
0000
0000
0000
0000
0000
0000
0000
0000
0000
0000
0000
0000
0000
0000
0000
2000
0000
0000
0000
0000
0000
0000
0000
0000
0000
0000
0000
0000
0000
0000
0000
3000
0000
0000
0000
0000
0000
0000
0000
0000
0000
0000
0000
0000
0000
0000
0000
,
0002
0000
0000
0000
0003
0000
0000
0000
0100
0001
0100
0001
1000
0010
0100
0001
,
1000
0010
0100
0001
1000
0001
1000
0001
1000
0000
0001
0000
0010
0000
0100
0000
,
2000
0000
0000
0000
3020
0030
0000
0000
,
0200
0300
0000
0000
0002
0003
0000
0000
,
2000
0000
0000
0000
0000
0000
0000
0000
3000
0000
0000
0000
0000
0000
0000
0000
0000
0000
0000
0000
0000
0000
0000
0000
0000
0000
0000
0000
0000
0000
0000
0000
0002
0003
0000
0000
0200
0300
0000
0000
0002
0003
0000
0000
2000
3000
0000
0000
0020
0030
0000
0000
0200
0300
0000
0000
0002
0003
0000
0000
2000
3000
0000
0000
,
0002
0003
0000
0000
0200
0300
0000
0000
0020
0030
0000
0000
2000
3000
0000
0000
0002
0003
0000
0000
2000
3000
0000
0000
0002
0003
0000
0000
0200
0300
0000
0000
0002
0003
0000
0000
0000
0000
0000
0000
1000
0000
0000
0000
0000
0000
0000
0000
0100
0000
0000
0000
0000
0000
0000
0000
0010
0000
0000
0000
0000
0000
0000
0000
,
0001
0010
0001
1000
0100
0010
0001
1000
0001
0000
1000
0000
0010
0000
0100
0000
,
0002
0003
0000
0000
0200
0300
0000
0000
0002
0003
0000
0000
2000
3000
0000
0000
0020
0030
0000
0000
0200
0300
0000
0000
0020
0030
0000
0000
2000
3000
0000
0000
0002
0003
0000
0000
2000
3000
0000
0000
0002
0003
0000
0000
0200
0300
0000
0000
0020
0030
0000
0000
2000
3000
0000
0000
0002
0003
0000
0000
2000
3000
0000
0000
,
0002
0000
0000
0000
0000
0000
0000
0000
0000
0000
0000
0000
0000
0000
0000
0000
0000
0000
0000
0000
0000
0000
0000
0000
0000
0000
0000
0000
0003
0000
0000
0000
2000
3000
0000
0000
0200
0300
0000
0000
2000
3000
0000
0000
0002
0003
0000
0000
0020
0030
0000
0000
0002
0003
0000
0000
2000
3000
0000
0000
0200
0300
0000
0000
,
0020
0030
0000
0000
0002
0003
0000
0000
2000
3000
0000
0000
0200
0300
0000
0000
2000
3000
0000
0000
0002
0003
0000
0000
0020
0030
0000
0000
0200
0300
0000
0000
2000
3000
0000
0000
0000
0000
0000
0000
0001
0000
0000
0000
0000
0000
0000
0000
0100
0000
0000
0000
0000
0000
0000
0000
0010
0000
0000
0000
0000
0000
0000
0000
,
1000
0010
1000
0010
0100
0001
1000
0001
1000
0000
0000
0000
0002
0003
0000
0000
,
2000
3000
0000
0000
0200
0300
0000
0000
2000
3000
0000
0000
0002
0003
0000
0000
0020
0030
0000
0000
0200
0300
0000
0000
2000
3000
0000
0000
0002
0003
0000
0000
0020
0030
0000
0000
0002
0003
0000
0000
2000
3000
0000
0000
0200
0300
0000
0000
0020
0030
0000
0000
0002
0003
0000
0000
2000
3000
0000
0000
0200
0300
0000
0000
,
2000
0000
0000
0000
0000
0000
0000
0000
0000
0000
0000
0000
0000
0000
0000
0000
0000
0000
0000
0000
0000
0000
0000
0000
0000
0000
0000
0000
0000
0000
0000
0000
3002
0003
0000
0000
0200
0300
0000
0000
0020
0030
0000
0000
0200
0300
0000
0000
0002
0003
0000
0000
2000
3000
0000
0000
0020
0030
0000
0000
2000
3000
0000
0000
,
0002
0003
0000
0000
0200
0300
0000
0000
0002
0003
0000
0000
0200
0300
0000
0000
0020
0030
0000
0000
2000
3000
0000
0000
0020
0030
0000
0000
0200
0300
0000
0000
0002
0003
0000
0000
0000
0000
0000
0000
1000
0000
0000
0000
0000
0000
0000
0000
0100
0000
0000
0000
0000
0000
0000
0000
0010
0000
0000
0000
0000
0000
0000
0000
,
0001
0000
0000
0000
1000
0000
0000
0000
0100
0000
0000
0000
1000
0000
0000
0000
0001
0000
0000
0000
0010
0000
0000
0000
0100
0000
0000
0000
1000
0000
0000
0000
0001
0000
0000
0000
0000
0000
0000
0000
0000
0000
0000
0000
0000
0000
0000
0000
2000
3000
0000
0000
0020
0030
0000
0000
2000
3000
0000
0000
0002
0003
0000
0000
,
0200
0300
0000
0000
0002
0003
0000
0000
2000
3000
0000
0000
0020
0030
0000
0000
0200
0300
0000
0000
0002
0003
0000
0000
2000
3000
0000
0000
0020
0030
0000
0000
0200
0300
0000
0000
0002
0003
0000
0000
0200
0300
0000
0000
0020
0030
0000
0000
2000
3000
0000
0000
0002
0003
0000
0000
2000
3000
0000
0000
0002
0003
0000
0000
,
0200
0300
0000
0000
0020
0030
0000
0000
2000
3000
0000
0000
0002
0003
0000
0000
2000
3000
0000
0000
0000
0000
0000
0000
0001
0000
0000
0000
0000
0000
0000
0000
0100
0000
0000
0000
0000
0000
0000
0000
0000
0000
0000
0000
0000
0000
0000
0000
0002
0000
0000
0000
0000
0000
0000
0000
0000
0000
0000
0000
0000
0000
0000
0000
,
0023
0000
0000
0000
0000
0000
0000
0000
0000
0000
0000
0000
0000
0000
0000
0000
0230
0000
0000
0000
0000
0000
0000
0000
0000
0000
0000
0000
0000
0000
0000
0000
1300
0000
0000
0000
0000
0000
0000
0000
0000
0000
0000
0000
0000
0000
0000
0000
0002
0003
0000
0000
0020
0030
0000
0000
0002
0003
0000
0000
2000
3000
0000
0000
,
0200
0300
0000
0000
0020
0030
0000
0000
0002
0003
0000
0000
2000
3000
0000
0000
0200
0300
0000
0000
2000
3000
0000
0000
0002
0003
0000
0000
2000
3000
0000
0000
0002
0000
0000
0000
0000
0000
0000
0000
0003
0000
0000
0000
0000
0000
0000
0000
2000
3000
0000
0000
0002
0003
0000
0000
2000
3000
0000
0000
0002
0003
0000
0000
,
0200
0300
0000
0000
0020
0030
0000
0000
0200
0300
0000
0000
0002
0003
0000
0000
2000
3000
0000
0000
0020
0030
0000
0000
0200
0300
0000
0000
0020
0030
0000
0000
2000
3000
0000
0000
0002
0003
0000
0000
0200
0300
0000
0000
0002
0003
0000
0000
2000
3000
0000
0000
0000
0000
0000
0000
0000
0000
0000
0000
0000
0000
0000
0000
,
0001
0100
0001
0100
0010
0000
0000
0000
1000
0100
1000
0000
0001
0000
0100
0001
,
0100
0000
0010
0000
1000
0100
1000
0000
0001
0000
0100
0001
0100
0000
0010
0000
,
1000
0000
0000
0000
0010
0000
0000
0000
0100
0000
0000
0000
0001
0000
0000
0000
0100
0000
0000
0000
0010
0000
0000
0000
1000
0000
0000
0000
0001
0000
0000
0000
1000
0000
0000
0000
0000
0000
0000
0000
0000
0000
0000
0000
0000
0000
0000
0000
0002
0003
0000
0000
0200
0300
0000
0000
0002
0003
0000
0000
2000
3000
0000
0000
,
0020
0030
0000
0000
2000
3000
0000
0000
0002
0003
0000
0000
0200
0300
0000
0000
0002
0003
0000
0000
2000
3000
0000
0000
0020
0030
0000
0000
2000
3000
0000
0000
0002
0003
0000
0000
0200
0300
0000
0000
0020
0030
0000
0000
2000
3000
0000
0000
0020
0030
0000
0000
0200
0300
0000
0000
0002
0003
0000
0000
2000
3000
0000
0000
,
0020
0030
0000
0000
0200
0300
0000
0000
0002
0003
0000
0000
2000
3000
0000
0000
0002
0003
0000
0000
0000
0000
0000
0000
0000
0000
0000
0000
0000
0000
0000
0000
2002
0000
0000
0000
0000
0000
0000
0000
3003
0000
0000
0000
0000
0000
0000
0000
1000
0000
0000
0000
0000
0000
0000
0000
0100
0000
0000
0000
0000
0000
0000
0000
,
1000
0000
0000
0000
0000
0000
0000
0000
0000
0000
0000
0000
0000
0000
0000
0000
0001
0000
0000
0000
0000
0000
0000
0000
0100
0000
0000
0000
0000
0000
0000
0000
0001
0000
0000
0000
0000
0000
0000
0000
0000
0000
0000
0000
0000
0000
0000
0000
2000
3000
0000
0000
0200
0300
0000
0000
2000
3000
0000
0000
0002
0003
0000
0000
,
0020
0030
0000
0000
0200
0300
0000
0000
2000
3000
0000
0000
0002
0003
0000
0000
0020
0030
0000
0000
0002
0003
0000
0000
2000
3000
0000
0000
0002
0003
0000
0000
2000
3000
0000
0000
0000
0000
0000
0000
0000
0000
0000
0000
0000
0000
0000
0000
0002
0003
0000
0000
2000
3000
0000
0000
0002
0003
0000
0000
0200
0300
0000
0000
,
0020
0030
0000
0000
2000
3000
0000
0000
0020
0030
0000
0000
2000
3000
0000
0000
0002
0003
0000
0000
0200
0300
0000
0000
0020
0030
0000
0000
2000
3000
0000
0000
0020
0030
0000
0000
0200
0300
0000
0000
0002
0003
0000
0000
2000
3000
0000
0000
0002
0003
0000
0000
0000
0000
0000
0000
0000
0000
0000
0000
0000
0000
0000
0000
,
1000
0001
0010
0100
1000
0000
0000
0000
0001
0100
0001
0000
0100
0000
0010
1000
,
0010
0000
1000
0000
0001
0100
0001
0000
0010
0000
0100
1000
0100
0000
1000
0000
,
0001
0000
0000
0000
0010
0000
0000
0000
0001
0000
0000
0000
1000
0000
0000
0000
0100
0000
0000
0000
0010
0000
0000
0000
0001
0000
0000
0000
1000
0000
0000
0000
0001
0000
0000
0000
0000
0000
0000
0000
0000
0000
0000
0000
0000
0000
0000
0000
2000
3000
0000
0000
0020
0030
0000
0000
2000
3000
0000
0000
0020
0030
0000
0000
,
0200
0300
0000
0000
0002
0003
0000
0000
0200
0300
0000
0000
0020
0030
0000
0000
2000
3000
0000
0000
0002
0003
0000
0000
0200
0300
0000
0000
0002
0003
0000
0000
2000
3000
0000
0000
0020
0030
0000
0000
0200
0300
0000
0000
0002
0003
0000
0000
0200
0300
0000
0000
0020
0030
0000
0000
2000
3000
0000
0000
0002
0003
0000
0000
,
0200
0300
0000
0000
0002
0003
0000
0000
2000
3000
0000
0000
0002
0003
0000
0000
2000
3000
0000
0000
0000
0000
0000
0000
0000
0000
0000
0000
0000
0000
0000
0000
2002
0000
0000
0000
0000
0000
0000
0000
3003
0000
0000
0000
0000
0000
0000
0000
0001
0000
0000
0000
0000
0000
0000
0000
0100
0000
0000
0000
0000
0000
0000
0000
,
0010
0000
0000
0000
0000
0000
1000
0000
0000
0100
0000
0000
0010
0000
0000
0000
0000
0000
0001
0000
0010
0000
0100
0000
,
1000
0010
0100
0001
1000
0100
0010
0001
1000
0001
0100
0010
,
1000
0001
0010
0100
1000
0001
0100
0001
1000
0100
0010
0100
,
1000
0001
0010
0100
1000
0001
1000
0010
0100
0010
1000
0001
,
0100
0001
1000
0100
0010
0100
1000
0001
0100
0001
1000
0010
,
0100
0001
1000
0001
0010
0100
2000
0000
0000
0000
0000
0000
,
3001
0000
0200
0320
,
2030
0000
0000
0000
3002
0000
0000
0000
1003
0100
1000
0000
0001
0000
0100
0001
,
0100
0000
0010
0000
1000
0010
1000
0000
0000
0000
0001
0100
0001
1000
0010
1000
,
0001
0000
0000
0100
0000
0000
0010
0000
0000
1000
0000
0000
0001
0000
0000
0000
0000
0000
1000
0000
0000
0000
0000
0000
0001
0000
0000
0000
0010
0000
0000
0000
0100
0000
0000
0000
1000
0000
0000
0000
0001
0000
0000
0000
1000
0000
0000
0000
,
0100
0010
0001
1000
0100
1000
0001
0100
0010
0100
0001
1000
,
0010
0100
0001
1000
0100
0010
0100
1000
0100
0010
0001
1000
,
0001
0100
0010
1000
0010
0100
0001
1000
0001
0010
0100
1000
,
0010
0100
0001
1000
0100
0010
0002
0000
0000
0000
0000
0000
,
1003
1000
0002
0023
,
0230
0000
2300
0000
3002
0003
0002
0003
,
0002
0003
0000
0000
0200
0300
0200
0300
,
0200
0300
0000
0000
0202
0303
0000
2002
,
3003
0000
2200
3300
0440
0330
0000
0044
,
0033
0000
0000
0000
0000
0000
4004
0000
0000
3003
0000
0000
0001
0000
0010
0000
0100
0000
1000
0000
0001
0000
1000
0000
,
0001
0000
0000
0000
1000
0000
0000
0000
0001
0100
0001
0000
0000
0000
1000
0100
,
1000
0000
0000
0000
0001
0100
0001
0000
0000
0000
0100
0010
0100
0000
0000
0000
,
0010
1000
0010
0000
0000
0000
0100
0001
0100
0000
0000
0000
0001
1000
0001
0000
,
0000
0000
1000
0100
1000
0000
0000
0000
0001
0010
0001
0000
0000
0000
1000
0100
,
1000
0000
0000
0000
0001
1000
0001
0000
0000
0000
1000
0010
1000
0000
0000
0000
,
0010
0100
0010
0000
0000
0000
0000
0000
0200
0300
0000
0000
0000
0000
0000
0000
,
0002
0000
0000
0000
0003
0000
0000
0000
0000
0000
0000
0000
0000
0000
0000
0000
0000
0000
0000
0000
0000
0000
0000
0000
0000
0000
0000
0000
0000
0000
0000
0000
0200
0300
0000
0000
0002
0003
0000
0000
0200
0300
0000
0000
0020
0030
0000
0000
2000
3000
0000
0000
0002
0003
0000
0000
2000
3000
0000
0000
0020
0030
0000
0000
,
0200
0300
0000
0000
0002
0003
0000
0000
2000
3000
0000
0000
0002
0003
0000
0000
0200
0300
0000
0000
0020
0030
0000
0000
2000
3000
0000
0000
0002
0003
0000
0000
2000
3000
0000
0000
0000
0000
0000
0000
0000
0000
0000
0000
0000
0000
0000
0000
0000
0000
0000
0000
0000
0000
0000
0000
0000
0000
0000
0000
0000
0000
0000
0000
,
0001
0000
0000
0000
0000
0000
0000
0000
1000
0100
1000
0000
0000
0000
0001
0100
,
0001
0000
0000
0000
1000
0010
1000
0000
0000
0000
0001
0010
0001
0000
0000
0000
,
1000
0100
1000
0000
0000
0000
0001
1000
0001
0000
0000
0000
0100
0010
0100
0000
,
0000
0000
0010
1000
0010
0000
0000
0000
0100
0001
0100
0000
0000
0000
0010
1000
,
0010
0000
0000
0000
1000
0001
1000
0000
0000
0000
0001
0010
0001
0000
0000
0000
,
1000
0100
1000
0000
0000
0000
0000
0000
0002
0003
0000
0000
0000
0000
0000
0000
,
0200
0300
0000
0000
0000
0000
0000
0000
0101
0000
0000
0000
0001
0000
0010
0000
,
0000
0000
0000
0010
0000
0000
0100
0000
0000
0000
0000
0000
1000
0000
0100
0000
0010
0000
0001
0000
1000
0000
0010
0000
,
0100
0000
0010
0000
0100
0000
0001
0000
1000
0000
0001
0000
1000
0000
0000
0000
0000
0000
0100
0000
0000
1000
0000
0000
,
0000
1000
0001
0000
0100
0010
0000
0010
,
0000
0100
0000
0001
1000
0100
0000
0100
,
1000
0000
0001
0000
0000
0000
0100
0000
0010
0000
0000
0000
0100
0001
0100
0001
,
1000
0000
0001
0100
0010
0000
1000
0100
,
0000
0000
0100
0000
1000
0000
0000
0000
0001
0000
0200
0300
0000
0000
0000
0000
,
0200
0000
0000
0300
0000
0000
0000
0000
0000
0000
0000
0000
0000
0000
0000
0000
0000
0000
0000
0000
0000
0000
0000
0000
0001
0000
0000
0000
0010
0000
0000
0000
0100
0000
0000
0000
1000
0000
0000
0000
0001
0000
0000
0000
0100
0000
0000
0000
,
0010
0000
0100
0000
0001
0000
1000
0000
0100
0000
0010
0000
0001
0000
0000
1000
0000
0000
0010
0000
0000
0100
0000
0000
,
0001
0000
1000
0000
0100
0000
0010
0000
0100
0000
1000
0000
0001
0000
0000
0000
0000
0000
0100
0000
0000
0001
0000
0000
,
0000
0001
0010
0000
0100
1000
0000
0100
,
0000
0100
0000
0010
0001
1000
0000
1000
,
0010
0000
0100
0000
0000
0000
0100
0000
0001
0000
0000
0000
0100
0001
1000
0001
,
1000
0000
0001
0100
0010
0000
0100
0010
,
0000
0000
0000
0010
0000
0000
1000
0000
0000
0000
0000
0000
0001
0000
0010
0000
0001
0000
1000
0000
0010
0000
0100
0000
,
0001
0100
0010
1000
0001
0010
0004
0000
0000
0043
0000
0000
,
0430
4300
3004
0403
,
0340
4030
3004
0043
,
0430
0000
0000
0000
0000
0000
0000
0000
0000
0000
0000
0000
0000
0000
0000
0000
4300
0000
0000
0000
0000
0000
0000
0000
0000
0000
0000
0000
0000
0000
0000
0000
3002
0003
0000
0000
0020
0030
0000
0000
0002
0003
0000
0000
2000
3000
0000
0000
0200
0300
0000
0000
0020
0030
0000
0000
0200
0300
0000
0000
2000
3000
0000
0000
,
0002
0003
0000
0000
0020
0030
0000
0000
0002
0003
0000
0000
2000
3000
0000
0000
0200
0300
0000
0000
0020
0030
0000
0000
0002
0003
0000
0000
2000
3000
0000
0000
0004
0000
0000
0000
0000
0000
0000
0000
0000
0000
0000
0000
0000
0000
0000
0000
0043
0000
0000
0000
0000
0000
0000
0000
0000
0000
0000
0000
0000
0000
0000
0000
,
0430
0000
0000
0000
0000
0000
0000
0000
0000
0000
0000
0000
0000
0000
0000
0000
4300
0000
0000
0000
0000
0000
0000
0000
0000
0000
0000
0000
0000
0000
0000
0000
3040
0000
0000
0000
0000
0000
0000
0000
0000
0000
0000
0000
0000
0000
0000
0000
2030
3000
0000
0000
0002
0003
0000
0000
2000
3000
0000
0000
0020
0030
0000
0000
,
0200
0300
0000
0000
0002
0003
0000
0000
0200
0300
0000
0000
0020
0030
0000
0000
2000
3000
0000
0000
0002
0003
0000
0000
0200
0300
0000
0000
0020
0030
0000
0000
2000
3000
0000
0000
0002
0003
0000
0000
2000
3000
0000
0000
0020
0030
0000
0000
0200
0300
0000
0000
0000
0000
0000
0000
0000
0000
0000
0000
0000
0000
0000
0000
,
0002
0000
0023
0000
0230
0000
2300
0000
3002
0000
0000
0000
1003
0100
1000
0100
,
1000
0000
0000
0000
0100
0000
0000
0000
1000
0000
0000
0000
0100
0000
0000
0000
1000
0000
0000
0000
0000
0000
0000
0000
0000
0000
0000
0000
0000
0000
0000
0000
0002
0003
0000
0000
2000
3000
0000
0000
0002
0003
0000
0000
2000
3000
0000
0000
0020
0030
0000
0000
0200
0300
0000
0000
0020
0030
0000
0000
2000
3000
0000
0000
,
0002
0003
0000
0000
2000
3000
0000
0000
0020
0030
0000
0000
0200
0300
0000
0000
0020
0030
0000
0000
2000
3000
0000
0000
0002
0003
0000
0000
0200
0300
0000
0000
0002
0003
0000
0000
2000
3000
0000
0000
0020
0030
0000
0000
2000
3000
0000
0000
0002
0003
0000
0000
0200
0300
0000
0000
0002
0003
0000
0000
2000
3000
0000
0000
,
0020
0030
0000
0000
0200
0300
0000
0000
0020
0030
0000
0000
2000
3000
0000
0000
0002
0003
0000
0000
0200
0300
0000
0000
0002
0003
0000
0000
2000
3000
0000
0000
0020
0030
0000
0000
0200
0300
0000
0000
0020
0030
0000
0000
2000
3000
0000
0000
0002
0003
0000
0000
2000
3000
0000
0000
0002
0003
0000
0000
2000
3000
0000
0000
,
0002
0003
0000
0000
0000
0000
0000
0000
0000
0000
0000
0000
0000
0000
0000
0000
2000
3000
0000
0000
0200
0300
0000
0000
2000
3000
0000
0000
0002
0003
0000
0000
0020
0030
0000
0000
0200
0300
0000
0000
2000
3000
0000
0000
0002
0003
0000
0000
0020
0030
0000
0000
0002
0003
0000
0000
2000
3000
0000
0000
0200
0300
0000
0000
,
2000
3000
0000
0000
0002
0003
0000
0000
0020
0030
0000
0000
0200
0300
0000
0000
2000
3000
0000
0000
0000
0000
0000
0000
0000
0000
0000
0000
0000
0000
0000
0000
0002
0003
0000
0000
2000
3000
0000
0000
0002
0003
0000
0000
0200
0300
0000
0000
0020
0030
0000
0000
2000
3000
0000
0000
0002
0003
0000
0000
0200
0300
0000
0000
,
0002
0003
0000
0000
2000
3000
0000
0000
0020
0030
0000
0000
2000
3000
0000
0000
0002
0003
0000
0000
2000
3000
0000
0000
0020
0030
0000
0000
0200
0300
0000
0000
0020
0030
0000
0000
2000
3000
0000
0000
0002
0003
0000
0000
0200
0300
0000
0000
0002
0003
0000
0000
2000
3000
0000
0000
0002
0003
0000
0000
2000
3000
0000
0000
,
0020
0030
0000
0000
0200
0300
0000
0000
0020
0030
0000
0000
2000
3000
0000
0000
0002
0003
0000
0000
0200
0300
0000
0000
0002
0003
0000
0000
0200
0300
0000
0000
0020
0030
0000
0000
2000
3000
0000
0000
0002
0003
0000
0000
2000
3000
0000
0000
0020
0030
0000
0000
0200
0300
0000
0000
0002
0003
0000
0000
0200
0300
0000
0000
,
0002
0003
0000
0000
0000
0000
0000
0000
0000
0000
0000
0000
0000
0000
0000
0000
2000
3000
0000
0000
0200
0300
0000
0000
2000
3000
0000
0000
0002
0003
0000
0000
0020
0030
0000
0000
0200
0300
0000
0000
2000
3000
0000
0000
0002
0003
0000
0000
2000
3000
0000
0000
0200
0300
0000
0000
0020
0030
0000
0000
0002
0003
0000
0000
,
2000
3000
0000
0000
0200
0300
0000
0000
2000
3000
0000
0000
0002
0003
0000
0000
2000
3000
0000
0000
0000
0000
0000
0000
0000
0000
0000
0000
0000
0000
0000
0000
0002
0003
0000
0000
2000
3000
0000
0000
0002
0003
0000
0000
0200
0300
0000
0000
0020
0030
0000
0000
2000
3000
0000
0000
0020
0030
0000
0000
0200
0300
0000
0000
,
0002
0003
0000
0000
0200
0300
0000
0000
0002
0003
0000
0000
2000
3000
0000
0000
0020
0030
0000
0000
2000
3000
0000
0000
0020
0030
0000
0000
0200
0300
0000
0000
0002
0003
0000
0000
2000
3000
0000
0000
0002
0003
0000
0000
2000
3000
0000
0000
0020
0030
0000
0000
0200
0300
0000
0000
0002
0003
0000
0000
2000
3000
0000
0000
,
0002
0003
0000
0000
0200
0300
0000
0000
0020
0030
0000
0000
2000
3000
0000
0000
0020
0030
0000
0000
0200
0300
0000
0000
0002
0003
0000
0000
2000
3000
0000
0000
0002
0003
0000
0000
0200
0300
0000
0000
0020
0030
0000
0000
0200
0300
0000
0000
0020
0030
0000
0000
2000
3000
0000
0000
0002
0003
0000
0000
2000
3000
0000
0000
,
0002
0003
0000
0000
0000
0000
0000
0000
0000
0000
0000
0000
0000
0000
0000
0000
2000
3000
0000
0000
0200
0300
0000
0000
2000
3000
0000
0000
0002
0003
0000
0000
0020
0030
0000
0000
0200
0300
0000
0000
2000
3000
0000
0000
0002
0003
0000
0000
0020
0030
0000
0000
0002
0003
0000
0000
2000
3000
0000
0000
0200
0300
0000
0000
,
0020
0030
0000
0000
0002
0003
0000
0000
2000
3000
0000
0000
0200
0300
0000
0000
2000
3000
0000
0000
0000
0000
0000
0000
0000
0000
0000
0000
0000
0000
0000
0000
0002
0003
0000
0000
2000
3000
0000
0000
0002
0003
0000
0000
2000
3000
0000
0000
0020
0030
0000
0000
0200
0300
0000
0000
0002
0003
0000
0000
2000
3000
0000
0000
,
0002
0003
0000
0000
0200
0300
0000
0000
0020
0030
0000
0000
2000
3000
0000
0000
0020
0030
0000
0000
2000
3000
0000
0000
0002
0003
0000
0000
0200
0300
0000
0000
0002
0003
0000
0000
2000
3000
0000
0000
0020
0030
0000
0000
2000
3000
0000
0000
0002
0003
0000
0000
0200
0300
0000
0000
0002
0003
0000
0000
2000
3000
0000
0000
,
0020
0030
0000
0000
0200
0300
0000
0000
0020
0030
0000
0000
0200
0300
0000
0000
0002
0003
0000
0000
2000
3000
0000
0000
0020
0030
0000
0000
2000
3000
0000
0000
0002
0003
0000
0000
0200
0300
0000
0000
0002
0003
0000
0000
0200
0300
0000
0000
0002
0003
0000
0000
2000
3000
0000
0000
0020
0030
0000
0000
2000
3000
0000
0000
,
0002
0003
0000
0000
0000
0000
0000
0000
0010
0000
0000
0000
0000
0000
0000
0000
0100
0000
0000
0000
0000
0000
0000
0000
1000
0000
0000
0000
0000
0000
0000
0000
0001
0000
0000
0000
0000
0000
0000
0000
1000
0000
0000
0000
0000
0000
0000
0000
0010
0000
0000
0000
0000
0000
0000
0000
0100
0000
0000
0000
0000
0000
0000
0000
,
0001
0010
0100
1000
0001
0100
0010
1000
,
0002
0003
0000
0000
0020
0030
0000
0000
0002
0003
0000
0000
2000
3000
0000
0000
0200
0300
0000
0000
2000
3000
0000
0000
0002
0003
0000
0000
0020
0030
0000
0000
0200
0300
0000
0000
2000
3000
0000
0000
0002
0003
0000
0000
0020
0030
0000
0000
0002
0003
0000
0000
2000
3000
0000
0000
0200
0300
0000
0000
0020
0030
0000
0000
,
0002
0003
0000
0000
0000
0000
0000
0000
0000
0000
0000
0000
0000
0000
0000
0000
0000
0000
0000
0000
0000
0000
0000
0000
0000
0000
0000
0000
0000
0000
0000
0000
1000
0000
0000
0000
0010
0000
0000
0000
1000
0000
0000
0000
0001
0000
0000
0000
0100
0000
0000
0000
0001
0000
0000
0000
1000
0000
0000
0000
0010
0000
0000
0000
,
1000
0000
0000
0000
0000
0000
0000
0000
0000
0000
0000
0000
0000
0000
0000
0000
0000
0000
0000
0000
0000
0000
0000
0000
0000
0000
0000
0000
0000
0000
0000
0000
0002
0003
0000
0000
0020
0030
0000
0000
0002
0003
0000
0000
2000
3000
0000
0000
0200
0300
0000
0000
0020
0030
0000
0000
0002
0003
0000
0000
2000
3000
0000
0000
,
0200
0300
0000
0000
0020
0030
0000
0000
0200
0300
0000
0000
2000
3000
0000
0000
0002
0003
0000
0000
0020
0030
0000
0000
0200
0300
0000
0000
2000
3000
0000
0000
0002
0000
0000
0000
0000
0000
0000
0000
0000
0000
0000
0000
0000
0000
0000
0000
0000
0000
0000
0000
0000
0000
0000
0000
0003
0000
0000
0000
0000
0000
0000
0000
,
2000
3000
0000
0000
0020
0030
0000
0000
2000
3000
0000
0000
0020
0030
0000
0000
0200
0300
0000
0000
0002
0003
0000
0000
2000
3000
0000
0000
0020
0030
0000
0000
0200
0300
0000
0000
0002
0003
0000
0000
2000
3000
0000
0000
0020
0030
0000
0000
0200
0300
0000
0000
0002
0003
0000
0000
2000
3000
0000
0000
0002
0003
0000
0000
,
2000
3000
0000
0000
0000
0000
0000
0000
0000
0000
0000
0000
0000
0000
0000
0000
0000
0000
0000
0000
0000
0000
0000
0000
0000
0000
0000
0000
0000
0000
0000
0000
0001
0000
0000
0000
0010
0000
0000
0000
0001
0000
0000
0000
1000
0000
0000
0000
0100
0000
0000
0000
0010
0000
0000
0000
0001
0000
0000
0000
1000
0000
0000
0000
,
0001
0000
0000
0000
0000
0000
0000
0000
0000
0000
0000
0000
0000
0000
0000
0000
0000
0000
0000
0000
0000
0000
0000
0000
0000
0000
0000
0000
0000
0000
0000
0000
2000
3000
0000
0000
0020
0030
0000
0000
2000
3000
0000
0000
0002
0003
0000
0000
0200
0300
0000
0000
0020
0030
0000
0000
0200
0300
0000
0000
0002
0003
0000
0000
,
2000
3000
0000
0000
0020
0030
0000
0000
0200
0300
0000
0000
0002
0003
0000
0000
2000
3000
0000
0000
0002
0003
0000
0000
0200
0300
0000
0000
0020
0030
0000
0000
2000
0000
0000
0000
0000
0000
0000
0000
0000
0000
0000
0000
0000
0000
0000
0000
0000
0000
0000
0000
0000
0000
0000
0000
3000
0000
0000
0000
0000
0000
0000
0000
,
0001
0000
0100
0000
0001
0000
0010
0000
0100
0000
1000
0000
0001
0100
0001
0100
,
0020
0000
0000
0000
0030
0000
0000
0000
1000
0100
1000
0001
0010
0100
1000
0001
,
1000
0000
0000
0000
0000
0000
0000
0000
0000
0000
0000
0000
0000
0000
0000
0000
0000
0000
0000
0000
0000
0000
0000
0000
0000
0000
0000
0000
0000
0000
0000
0000
0002
0003
0000
0000
0200
0300
0000
0000
0002
0003
0000
0000
2000
3000
0000
0000
0020
0030
0000
0000
2000
3000
0000
0000
0002
0003
0000
0000
0200
0300
0000
0000
,
0020
0030
0000
0000
0200
0300
0000
0000
0002
0003
0000
0000
2000
3000
0000
0000
0002
0003
0000
0000
0200
0300
0000
0000
0002
0003
0000
0000
2000
3000
0000
0000
0002
0000
0000
0000
0000
0000
0000
0000
0000
0000
0000
0000
0000
0000
0000
0000
0000
0000
0000
0000
0000
0000
0000
0000
0003
0000
0000
0000
0000
0000
0000
0000
,
1000
0100
0010
0100
1000
0001
0010
0100
1000
0010
0100
0001
,
1000
0000
0000
0000
0001
0010
0100
1000
,
0002
0000
0000
0003
0000
0000
0000
0000
0000
0000
0000
0000
0000
0000
0000
0000
0000
0000
0000
0000
0000
0000
0000
0000
1000
0000
0000
0000
0100
0000
0000
0000
1000
0000
0000
0000
0001
0000
0000
0000
0010
0000
0000
0000
0100
0000
0000
0000
,
1000
0010
0100
0001
0100
0001
2000
0000
0000
0000
0000
0000
,
3001
0100
0010
0100
0001
0010
0100
1000
,
0001
0100
0010
0100
0001
0010
0100
1000
,
0001
0100
0010
1000
0100
0010
0100
1000
,
0001
0000
0000
0100
0000
0000
0010
0000
0000
1000
0000
0000
0001
0000
0010
0000
0100
0000
1000
0000
0010
0000
0100
0000
,
0001
0100
0010
1000
0100
0010
0001
0100
,
0001
1000
0100
1000
0001
0010
0100
1000
,
0001
0100
0010
0100
0001
1000
0100
0010
,
0001
1000
0001
0100
0002
0003
0000
0000
,
1001
0000
1000
1000
,
0000
0000
0000
0000
0001
0000
0000
0000
0002
0003
0000
0000
0000
0000
0000
0000
,
0100
0100
0000
0001
,
0001
0000
0020
0000
,
1130
0000
0000
0000
,
1001
0000
0000
0000
,
0101
0000
0000
0000
0000
1001
0000
0000
,
0000
0000
1100
0000
0000
0000
0000
0110
,
0000
0010
0011
0001
,
1001
1000
1010
0010
,
0110
0000
0000
0000
,
2002
0000
0000
0000
,
0000
0000
0000
0000
,
0000
0000
0000
0000
,
0000
0000
0000
0000
,
0000
0000
0000
0000
,
3003
0000
0000
0000
;
