#TITLE:MAXIMIZER;
#SUBTITLE:;
#ARTIST:Cli-Max S.;
#TITLETRANSLIT:;
#SUBTITLETRANSLIT:;
#ARTISTTRANSLIT:;
#CREDIT:;
#BANNER:MAXIMIZER.png;
#BACKGROUND:MAXIMIZER-bg.png;
#LYRICSPATH:;
#CDTITLE:!aptitle.png;
#MUSIC:MAXIMIZER.mp3;
#OFFSET:-3.834;
#SAMPLESTART:6.899;
#SAMPLELENGTH:12.000;
#SELECTABLE:YES;
#DISPLAYBPM:190.000;
#BPMS:0.000=190.000,285.750=189.980;
#STOPS:;
#BGCHANGES:;
// cache tags:
#FIRSTBEAT:10.000;
#LASTBEAT:288.250;
#SONGFILENAME:Songs/Community Keyboard Megapack - Volume 2/(aperson) Maximizer/MAXIMIZER.sm;
#HASMUSIC:1;
#HASBANNER:1;
#MUSICLENGTH:97.941;
// end cache tags

//---------------dance-single - ----------------
#NOTES:
     dance-single:
     :
     Hard:
     12:
     0.814,1.000,0.847,0.031,0.306,472.000,83.000,3.000,0.000,0.000:
0000
0000
0000
0000
,
0000
0000
0000
0000
,
0000
0000
0000
0000
1000
0100
0010
0100
,
0000
0001
0000
0100
0000
1000
0000
0010
,
0100
0001
0100
0010
1000
0010
0100
0010
,
0000
0001
0000
0010
0000
1000
0000
0001
,
0100
0100
0010
1000
0001
0010
1000
0010
,
0000
0100
0000
0010
0000
0001
0000
1000
,
0010
0100
0010
1000
0001
0100
1000
0100
,
0000
0101
0000
0011
0000
0110
0000
0100
,
1000
0100
0010
0001
1000
0001
0010
0100
,
1000
0010
1000
0010
0000
0000
0100
0000
0001
0000
0000
0000
0001
0000
0000
0000
,
0100
0001
0100
0001
0200
0000
0000
0000
0310
0000
1000
0000
0100
0000
0001
0000
,
0100
1000
0010
0100
0001
0100
0010
0100
,
0001
1000
0100
0010
0001
0100
1000
0100
,
0001
0010
0001
0100
0010
1000
0010
0100
,
0001
1000
0100
0010
0001
0100
0010
0001
,
0010
1010
0000
1100
0000
0110
0000
0010
,
0001
0010
0100
1000
0000
0000
1000
0100
,
1000
0100
0010
0001
0100
0010
0000
0010
,
0000
0010
0100
1000
0100
0001
0000
0001
,
0000
0001
0000
0001
1000
0100
0000
0100
,
1000
0010
0100
0001
0101
0000
0001
0100
,
0001
0010
0001
1000
0000
0010
0000
0010
,
0000
0000
0010
0100
0010
0000
1000
0000
0000
0000
0001
0000
0000
0000
0001
0000
,
0000
0100
0010
1000
0000
0100
0000
0100
,
0000
1000
0200
0000
0301
0100
1000
0100
,
0010
0001
0100
0010
0000
1000
0100
1000
,
0010
0000
0100
0001
0100
0000
0010
0000
0000
0000
1000
0000
0000
0000
1000
0000
,
0000
0000
1000
0001
0010
0000
0001
0000
0000
0000
0100
0000
0000
0000
0100
0000
,
0000
0000
0010
1000
0100
0000
0000
0000
1000
0000
1001
0000
0000
0000
0001
0000
,
0100
0000
0010
0000
1010
0000
0000
0000
1000
0000
1100
0000
0000
0000
1000
0001
,
0010
0001
0101
0000
0100
0110
0010
1000
,
0010
0001
0000
0001
0000
0001
0010
1000
,
0200
0310
0000
0000
,
0000
0000
0000
0000
1000
0000
0100
0000
1000
0000
0100
0000
1000
0000
0000
0100
,
1000
0000
0000
0001
0010
0000
0100
0000
0010
0000
0001
0000
0100
0010
0000
0010
,
1000
0000
0000
1000
0100
0000
1000
0000
0010
0000
1000
0000
0010
0100
0000
0100
,
0001
0000
0010
0001
0010
0000
0000
0000
0001
0000
0100
0000
0010
1000
0000
1000
,
0001
0000
0010
0001
0010
0000
0000
0000
0100
0000
1000
0000
0100
0010
0000
0010
,
0001
0000
1000
0001
1000
0000
0000
0000
0001
0000
0010
0000
0001
0100
0000
0100
,
0010
0000
1000
0100
1000
0000
0000
0000
0010
0000
0100
0000
0001
0010
0000
0010
,
0100
1000
1001
0000
0101
0000
0110
0000
,
1010
0000
1001
0000
1000
0100
0010
0100
,
0001
0100
0000
0100
0000
0100
0000
0100
,
0010
0001
1000
0000
1000
0000
0000
0011
,
0000
1100
0000
1010
0000
0110
0000
0100
,
0101
0000
0001
0010
0100
0010
1000
0010
,
0000
0010
0000
0010
0000
0010
0100
1000
,
0001
0000
0001
0000
0000
1100
0000
0011
,
0000
0101
0000
0110
0000
0001
1001
0000
,
1000
0010
0100
0010
0001
0010
0000
0010
,
0000
0010
0000
0010
0100
0001
0011
0000
,
0010
0000
0000
1100
0000
0011
0000
1001
,
0000
0000
0000
0110
0000
0000
0000
0000
0000
0010
0000
0000
0010
0000
0000
1010
0000
0000
1000
0000
0100
0000
1000
0000
,
0010
0000
0100
0000
0001
0000
0010
0000
0100
0000
0010
0000
0001
0000
0100
0000
0010
0000
1000
0000
0000
0100
0000
0000
,
0000
0110
0000
1001
0000
1100
0000
0011
,
0000
0101
0000
0110
0110
0110
0000
1001
,
0000
1100
0000
0110
0000
0011
0000
0101
,
0000
0110
0000
1010
1001
1010
0000
1100
,
0000
0110
0000
0011
0000
0101
0000
0110
,
0000
1010
0000
1100
1100
1100
0000
0110
,
0000
0011
0000
0101
0000
1010
0110
0000
,
0100
0101
0000
0001
1001
1000
0011
0001
,
0100
0010
0100
0000
0100
0010
0100
0000
0001
0000
1001
0000
1001
0000
1001
0000
,
1000
0010
0100
1000
0001
0010
1100
1000
,
0010
0100
0010
0000
0010
0100
0010
0000
1000
0000
1001
0000
1001
0000
1001
0000
,
0001
0100
0010
0001
1000
0010
1100
1100
,
0011
0000
0011
0000
0101
0000
0101
0000
0110
0000
0110
0000
0010
1000
0010
0000
,
0010
0100
0010
0000
0010
0001
0010
0000
0010
0100
0010
0000
1000
0100
1000
0010
,
0100
0001
0100
0010
1000
0100
0010
0001
0010
0100
1000
0010
0100
0001
1000
0010
,
1000
0100
1000
0010
0100
0001
0100
0010
1000
0100
0001
1000
0010
0000
0000
0000
,
0011
0000
0000
0000
;

//---------------dance-single - Copied from----------------
#NOTES:
     dance-single:
     Copied from:
     Challenge:
     11:
     1.000,1.000,1.000,0.082,0.592,590.000,225.000,8.000,0.000,0.000:
0000
0000
0000
0000
,
0000
0000
0000
0000
,
0000
0000
0000
0000
1001
0001
0101
1100
,
0000
0110
0000
0101
0000
0001
1001
1000
,
1010
1000
0101
0010
0011
0001
1100
0101
,
0000
0110
0000
1100
0000
0011
0000
0100
,
0110
0010
1010
1000
1001
0001
0101
1100
,
0000
0110
0000
0101
0000
0110
0000
1001
,
0100
0101
0001
1001
0101
0001
1010
1100
,
1000
2002
3003
0220
0330
2200
3300
1000
,
0101
0110
0001
0010
1100
0010
1100
0001
,
1000
0001
1000
0010
0000
0000
1000
0000
0011
0000
0100
0000
1010
0000
0100
0000
,
0001
1000
0001
1000
0001
0000
0000
0000
1001
0000
1010
0000
0100
0000
0011
0000
,
0001
0000
1001
0000
1010
0000
0101
0000
1001
0000
0110
0000
1000
0000
1000
0100
,
1000
0010
1000
0000
0101
0000
0011
0000
1000
0000
0101
0000
0011
0000
1000
0000
,
1000
0010
0100
0001
0010
0000
1100
0000
0001
0000
1010
0000
1100
0000
0001
0000
,
0010
0100
1000
0100
0010
0000
1001
0000
1010
0000
1000
0000
0110
0000
1001
0000
,
0001
0100
0010
1000
0010
0000
0000
0010
0100
0000
0000
0100
0010
1000
0010
0100
,
0002
0000
0000
0000
0003
0000
1001
1000
,
0110
1000
0101
1010
1001
1010
0110
1010
,
1001
0001
0101
0100
0110
0010
1010
1000
,
1001
0001
0101
0011
1100
1010
1000
1100
,
0011
0101
1010
1100
0011
1001
1000
1100
,
0011
0000
1010
0000
0101
0000
0011
0000
0110
0000
1100
0000
0001
0000
1000
0010
,
1000
0011
0110
1100
0001
1100
0110
1100
,
0101
1010
0011
1100
0001
1100
0001
0110
,
1000
0000
0110
0000
0001
0010
0001
0010
1001
0000
0001
0010
1001
0000
1000
0100
,
1001
0000
1000
0000
0110
0000
0001
0000
1000
0010
0100
0001
1000
0100
0010
0001
,
1000
0010
0100
0001
0010
0100
1000
0100
0010
0000
0011
0000
0001
0000
1001
0000
,
1000
0000
0110
0000
1000
0000
0011
0000
0001
0000
1000
0010
0100
0000
0001
0100
,
0010
0001
0100
0010
1001
0000
0000
0000
1000
0000
1100
0000
0001
0000
0011
0000
,
0100
0110
1001
0000
1000
1100
0001
0011
,
0100
0110
1001
0000
1000
1100
0001
0011
,
1000
1100
0001
0011
1000
1000
0001
0001
,
1000
0001
1000
0001
2010
0000
0000
0000
0000
0000
0000
0000
3100
0000
0000
0000
,
0000
0000
0000
0000
1001
0000
1000
0000
0110
0000
1000
0000
0011
0000
0001
0010
,
0001
0000
1000
0000
0011
0000
0001
0000
0110
0000
0001
0000
1100
0000
0001
0010
,
0001
0100
0010
1000
0100
0000
0010
0000
0101
0000
1000
0000
0100
1000
0001
0010
,
0001
0100
0010
0000
0110
0000
1000
0000
0110
0000
0001
0000
1010
0000
0101
0000
,
1010
0000
0101
0000
1001
0000
0010
0000
1001
0000
0100
0000
1000
0010
0001
0010
,
1000
0010
0100
0001
0100
0000
0001
0000
1100
0000
0010
0000
0001
0010
0001
1000
,
0010
0100
0001
0100
1000
0000
0100
0000
1001
0000
0010
0000
1000
0010
0001
0010
,
1000
0100
0010
0100
1001
0000
0000
0000
1010
0000
0000
0000
0101
0000
0000
0000
,
0110
0000
1010
0000
1001
0000
0110
0010
,
1010
1001
0000
0011
0000
1001
0000
1100
,
1000
1000
0011
0000
1100
0000
1000
0010
,
0000
0101
0000
1010
0000
1100
0000
0011
,
1001
0000
1001
0000
0110
0100
0101
1001
,
0000
1100
0000
1001
0000
0011
0001
0001
,
1100
0000
0011
0000
0001
0100
0000
1010
,
0000
0101
0000
0011
0000
1100
1001
0000
,
1001
0000
0110
0000
1010
1001
0000
0011
,
0000
1001
0000
1100
0000
1100
0011
0000
,
1100
0000
0000
1010
0000
0101
0000
1010
,
0000
0000
0000
1100
0000
0000
0000
0000
0000
0011
0000
0000
0011
0000
0000
1001
0000
0000
0100
0000
0010
0000
0001
0000
,
0100
0010
1000
0100
0010
0001
0100
0010
1000
1100
0000
0000
,
1001
0000
0000
0000
1010
0000
0010
0000
0110
0000
0101
0000
0000
0000
0001
0010
,
0001
0011
1100
0101
1010
1001
1000
1000
,
0011
0000
1000
0100
1000
0000
0011
0000
0011
0000
1100
0000
0001
0000
0001
0000
,
0110
0000
1000
0001
1000
0000
1010
0000
0101
0000
0011
0000
0100
0000
0100
0000
,
1001
0000
0100
0010
0100
0000
1001
0000
1010
0000
0110
0000
0010
0000
0010
0000
,
1100
0000
0001
1000
0001
0000
1010
0000
1010
0000
0110
0000
0001
0000
0001
0000
,
1100
0000
0010
1000
0010
0000
1100
0000
0011
0000
1001
0000
0101
0000
0001
0000
,
1100
0000
0011
0000
0001
0000
1000
0000
1001
0000
0011
0000
1000
0100
1000
0010
,
0100
0001
0010
0001
0100
0000
0000
0000
0100
0001
0100
0010
0100
0000
0000
0000
,
0010
1000
0001
0100
0010
0000
0010
1000
0000
1000
0001
0100
0001
1000
0010
0100
,
0001
0000
0001
0100
0001
1000
0010
0000
0010
0100
0001
1000
0100
1000
0010
0100
,
0001
0000
0001
0100
1000
0100
0001
0000
1000
0100
1000
0000
0100
0010
0001
1000
,
0001
0000
0001
1000
0100
1000
0010
0000
0010
0100
0001
0100
0010
1000
0100
1000
,
0010
0000
0010
0100
1000
0100
0001
0000
0001
0100
0010
1000
0001
1000
0010
0100
,
0010
0000
0010
0100
0001
0100
0010
1000
0100
0000
0010
0001
0010
0100
1000
0001
,
0100
0010
1000
0100
0010
0001
0100
0010
1000
0100
0001
1000
0010
0000
0000
0000
,
1001
0000
0000
0000
;

//---------------dance-single - ----------------
#NOTES:
     dance-single:
     :
     Medium:
     9:
     0.674,0.845,0.500,0.041,0.061,409.000,49.000,4.000,0.000,0.000:
0000
0000
0000
0000
,
0000
0000
0000
0000
,
0000
0000
0000
0000
1000
0100
1000
0010
,
0000
0100
0000
0001
0000
0100
0010
1000
,
0100
0010
0001
0100
0010
1000
0010
0100
,
0000
0001
0000
0010
0000
0100
1000
0100
,
0010
0001
0100
0010
1000
0001
0010
0100
,
0000
0010
0000
0001
0000
0100
0010
1000
,
0010
0100
0001
0010
0100
0100
1000
0010
,
0000
0110
0000
0101
0000
1001
0000
1000
,
0001
0010
0001
0100
0010
1000
0001
0010
,
0002
0000
0000
1003
0010
0100
0010
1000
,
0001
0100
0001
0000
1000
0010
1000
0010
,
1000
0100
1000
0100
0010
0001
0010
0100
,
0010
1000
0010
0001
0100
0001
0100
0001
,
0100
0010
0100
0010
1000
0100
0010
0100
,
1000
0100
0001
0100
1000
0001
1000
0001
,
0100
0010
0000
1000
0000
0001
0000
0010
,
0001
0010
0100
1000
0000
0000
0001
0100
,
0001
0010
0001
0100
0010
1000
0000
0100
,
0000
0010
0000
0001
1000
0010
0000
0100
,
0000
0001
0000
0010
0100
1000
0000
0001
,
0000
0100
0000
0010
1000
1000
0001
0100
,
0000
0010
1000
0100
0000
0010
0000
0001
,
0100
0010
1000
0001
0000
0001
0010
0100
,
1000
0001
0100
0010
0000
0100
0000
0100
,
0000
0010
2000
0000
3001
0010
0001
0100
,
0001
0100
0010
1000
0000
0100
0010
0100
,
0010
0001
1000
0010
0000
0100
0001
0100
,
0001
0010
0100
1000
0000
0001
0000
0001
,
0000
0100
0010
0000
0000
1010
0000
1000
,
0100
0010
0001
0000
0000
0101
0000
0100
,
0010
1000
0010
0000
0000
0110
0000
0100
,
0001
1000
0000
0010
0000
0010
0000
0100
,
0001
0010
1100
0000
0000
0000
0000
0000
,
0000
0000
0000
0000
1100
0000
0000
0000
0011
0000
0000
0000
1001
0000
0000
1000
,
0010
0000
0000
0000
0110
0000
0000
0000
0101
0000
0000
0000
0011
0000
0000
0010
,
0100
0000
0000
0000
1100
0000
0000
0000
1001
0000
0000
0000
0101
0000
0000
0100
,
0010
0000
1010
0000
1100
0000
0010
0001
,
0010
0000
0001
0000
1000
0000
0000
0000
1010
0000
0000
0000
0101
0000
0000
0001
,
1000
0000
0000
0000
1100
0000
0000
0000
1001
0000
0000
0000
0110
0000
0000
0010
,
1000
0000
1000
0100
1000
0010
1000
0100
,
1000
0010
0110
0000
0101
0000
0011
0000
,
0110
0000
0100
0000
0100
1000
0010
0100
,
0001
0010
0000
0001
0000
0100
0000
0010
,
1000
0010
0100
0000
0110
0000
0000
0101
,
0000
0011
0000
0110
0000
1100
0000
1000
,
0001
0000
0001
0100
0010
1000
0001
0010
,
0000
0001
0000
0100
0000
0010
1000
0100
,
0010
0000
0110
0000
0000
1100
0000
1010
,
0000
0110
0000
0101
0000
0001
1000
0000
,
0010
0000
0100
0000
0001
0010
0000
0100
,
0000
1000
0000
0010
0100
0001
0010
0000
,
1100
0000
0000
1001
0000
0110
0000
1010
,
0000
0101
0000
0001
0010
0002
2000
0000
,
0000
0000
0000
0000
0000
0000
3003
1000
,
0000
0010
0000
0100
0000
0001
0000
0100
,
0000
0010
0000
0110
0010
1000
0000
0100
,
0000
0010
0000
0001
0000
0100
0000
0010
,
0000
1000
0000
1001
0001
0100
0000
0010
,
0000
1000
0000
0010
0000
0100
0000
0001
,
0000
0010
0000
0110
0100
1000
0000
0001
,
0000
0100
0000
0010
1000
0010
0110
0000
,
0000
0101
0000
0000
0110
0000
1000
0100
,
1000
0010
0100
0010
1000
0100
0001
1000
,
0010
0001
0100
0010
1000
0010
0100
0001
,
0010
0100
0010
1000
0010
0100
1000
0001
,
0010
1000
0010
0001
0100
0010
1000
0100
,
0001
0010
0001
0100
1000
0010
0100
1000
,
0100
0000
0001
0000
0010
0000
0001
0000
0100
0000
0010
0000
1000
0100
1000
0000
,
0010
0000
0100
0000
0001
0010
0001
0000
1000
0000
0010
0000
0100
0001
0100
0000
,
0010
0000
1000
0000
0010
0100
0010
0100
0010
0100
0010
0100
0010
0000
0000
0000
,
0101
0000
0000
0000
;

//---------------dance-single - ----------------
#NOTES:
     dance-single:
     :
     Easy:
     8:
     0.550,0.625,0.276,0.031,0.015,347.000,27.000,3.000,0.000,0.000:
0000
0000
0000
0000
,
0000
0000
0000
0000
,
0000
0000
0000
0000
1000
0000
0001
0010
,
0000
0001
0000
0100
0000
0010
0000
1000
,
0000
0010
0100
0001
1000
0000
0100
0010
,
0000
0001
0000
0100
0000
0010
0000
1000
,
0000
0010
0100
0001
0010
0000
0100
1000
,
0000
0010
0000
0100
0000
0001
0000
0100
,
0000
0010
1000
0100
0010
0000
0001
0100
,
0000
1000
0000
0100
0000
0001
0000
0010
,
0000
0001
0100
0010
1000
0000
0010
0100
,
0001
0000
0000
0000
1000
0000
0010
0100
,
0010
0000
0000
0000
1000
0000
0000
0001
,
0000
0000
0100
0010
1000
0001
0000
0001
,
0010
0100
1000
0001
0100
0000
0000
0010
,
0000
1000
0010
0010
,
0100
0000
0100
0000
0001
0000
0000
0010
,
0000
0000
0100
1000
0010
0100
0001
0000
,
0100
0010
1000
0110
,
0110
1001
1001
0001
,
0010
0000
0001
0100
0010
1000
0000
0011
,
0000
0011
0000
1100
0000
1100
0000
1000
,
0000
0010
0100
0001
0100
0000
0101
0000
,
0101
1010
1010
1000
,
0010
0100
0001
0010
0000
1100
0000
1100
,
0000
0011
0000
0011
0000
0001
0000
1000
,
0010
0100
0002
0000
1003
0100
1000
0100
,
0010
0000
0010
0000
0001
0100
0001
0100
,
0010
0000
0010
0000
1000
0001
1000
0001
,
0100
0000
0100
0000
0010
1000
0010
1000
,
0100
0000
0011
0000
0000
1100
0000
0000
,
1000
0000
1001
0000
0000
0011
0000
0000
,
0100
0110
0010
1000
,
0010
0000
0000
0100
0000
0001
0000
0010
,
0002
1003
0000
0000
,
0000
0000
0000
0000
1000
0000
0000
0000
0100
0000
0000
0000
1000
0000
0000
0010
,
0100
0000
0000
0000
0001
0000
0000
0000
0010
0000
0000
0000
0001
0000
0000
0100
,
0010
0000
0000
0000
1000
0000
0000
0000
0010
0000
0000
0000
1000
0000
0000
0010
,
0100
0000
0001
0000
0100
0000
0010
1000
,
0010
1000
0001
0000
0100
0000
0010
1000
,
0010
0000
0100
0000
0001
0000
1000
0100
,
1000
0000
0010
0100
0010
0100
0001
0100
,
0001
1000
0100
0000
1000
0000
0010
0000
,
0100
0000
0101
0000
0001
0100
0000
0100
,
0000
0010
0000
1000
0000
0001
0000
0010
,
0100
1000
0001
0000
0100
0000
0000
0010
,
0000
1000
0000
0100
0000
1000
0000
0001
,
0100
0000
0010
0100
0000
0100
0000
0001
,
0000
0010
0000
0100
0000
1000
0010
0100
,
0001
0000
1000
0000
0000
0100
0000
0010
,
0000
0001
0000
1000
0000
0010
0100
0000
,
0001
0010
0001
1000
0000
0010
0000
0010
,
0000
0010
0000
0100
0001
1000
0100
0000
,
0100
0000
0000
1001
0000
1100
0000
0011
,
0000
1001
0000
1000
0010
0100
0002
0000
,
0000
0000
0000
0000
0000
0000
1003
0100
,
0000
1000
0000
0010
0000
0100
0000
0001
,
0000
0100
0000
0010
1000
0100
0000
0010
,
0000
0001
0000
1000
0000
0001
0000
0100
,
0000
0010
0000
1000
0001
0010
0000
0001
,
0000
0100
0000
0010
0000
1000
0000
0001
,
0000
0010
0000
0100
1000
0010
0000
0100
,
0000
0001
0000
0100
0000
0010
1000
0000
,
0010
0001
0000
0010
0100
0001
1000
0000
,
1000
0010
0100
0001
0010
0001
0100
0000
,
0100
0010
1000
0010
0100
0001
0100
0000
,
0010
1000
0010
0100
0001
0010
0100
0000
,
1000
0010
0100
0001
0010
0001
1000
0000
,
1000
0001
0010
0100
1000
0001
0100
0000
,
0010
1000
0010
0100
0001
1000
0100
0010
,
0100
0010
0001
1000
0001
1000
0010
0100
,
1000
0100
0010
1000
0100
0010
0001
0000
,
1001
0000
0000
0000
;

//---------------dance-single - ----------------
#NOTES:
     dance-single:
     :
     Edit:
     13:
     1.000,1.000,1.000,0.010,0.914,616.000,258.000,1.000,299.000,0.000:
0000
0000
0000
0000
,
0000
0000
0000
0000
,
0000
0000
0000
0000
1001
1100
0011
0101
,
0000
M11M
0000
1MM1
0000
11MM
0000
0011
,
0101
0110
1010
1100
0011
0101
0110
1010
,
0000
1MM1
0000
11MM
0000
MM11
0000
0101
,
0110
1010
1100
0011
1001
1100
0110
0011
,
0000
M11M
0000
11MM
0000
1MM1
0000
0101
,
0110
1001
0101
0110
1010
1100
1010
0110
,
0000
0000
1MM1
M00M
0000
0000
M1M1
0M0M
0000
0000
M11M
0MM0
0000
0000
1001
0000
,
0101
0101
0110
1010
1001
1100
0110
1010
,
1000
0001
0100
0001
MMMM
0000
0001
0000
0110
0000
0000
0000
0110
0000
0000
0000
,
1000
0001
1000
0001
1000
0000
MMMM
0000
1001
0000
0101
0000
0110
0000
1010
0000
,
0000
0000
11MM
0000
0000
0000
M11M
0000
0000
0000
0010
0001
1100
0000
0001
0010
,
0001
0100
0000
0100
0010
0000
1000
0000
1001
0000
0101
0000
0110
0000
1010
0000
,
0000
0000
11MM
0000
0000
0000
MM11
0000
0000
0000
0100
0010
1100
0000
1000
0010
,
0100
0010
1000
0100
0010
0000
0001
0000
1001
0000
1001
0000
0101
0000
0110
0000
,
0000
0000
1MM1
M00M
0000
0000
M1M1
0M0M
0000
0000
M11M
0MM0
0000
0000
1000
0010
,
0100
0000
0010
0100
0001
0000
1001
0000
MMMM
0000
MMMM
0000
1MM1
0000
M11M
0000
,
1MM1
M11M
1MM1
M11M
1100
MM11
0000
M11M
,
0000
0000
11MM
0000
0000
0000
1000
0100
0011
0000
110M
0000
0000
0000
1MM1
0000
,
0000
0000
M1M1
0000
0000
0000
0100
0010
1001
0000
0110
0000
0000
0000
1001
0000
,
11MM
MM11
11MM
MM11
1001
1M1M
0000
M1M1
,
0000
0000
0001
0010
1100
0000
M011
0000
0000
0000
1M1M
0000
0000
0000
M1M1
0000
,
0000
0000
0001
0100
1010
0000
01M1
0000
0000
0000
1M1M
0000
0000
0000
M1M1
0000
,
0000
0000
1000
0010
0101
0000
1M10
0000
0000
0000
1001
0000
0001
0000
0101
0000
,
0110
0000
1010
0000
1000
0100
0010
0001
11MM
0000
MM11
0000
11MM
0000
MM11
0000
,
11MM
0000
MM11
0000
1001
0000
0110
0000
1000
0100
10MM
0000
0001
0010
MM01
0000
,
1000
0100
10MM
0000
0110
0000
1001
0000
M1M1
0000
1M1M
0000
M1M1
0000
1M1M
0000
,
M1M1
0000
1M1M
0000
1100
0000
0011
0000
1000
0100
0001
0100
1000
0100
0001
0100
,
1000
0010
0100
0001
0110
0000
0000
0000
0001
0010
110M
0000
1MM1
0000
0001
0000
,
0101
0000
0100
0000
M11M
0000
0000
0000
0001
0010
110M
0000
MM11
0000
0001
0000
,
1001
0000
1000
0000
1MM1
0000
0000
0000
0001
0010
110M
0000
MM11
0000
1100
0000
,
1001
0110
0000
0110
0000
1100
0110
0011
,
1000
0100
0010
0001
2100
0000
0000
0000
0000
0000
0000
000M
3001
000M
0000
0000
,
0000
0000
0000
0000
1000
0100
1000
0000
0001
0010
0001
0000
0100
0010
0000
1000
,
0001
0000
0000
0001
0010
0100
0010
0000
0001
1000
0001
0000
0100
0010
0000
0010
,
1000
0000
0000
1000
0100
0010
0100
0000
1000
0001
1000
0000
0010
0100
0000
0100
,
0001
0000
0010
0001
0010
0000
0001
0000
1000
0100
1000
0000
0010
1000
0000
1000
,
0001
0000
0010
0001
0010
0000
0100
0000
1000
0100
1000
0000
0100
0010
0000
0010
,
0001
0000
1000
0001
1000
0000
0001
0000
0100
0010
0100
0000
0001
0100
0000
0100
,
0010
0000
1000
0100
1000
0000
0000
0000
0010
0000
0100
0000
0001
0010
0000
0010
,
0100
0001
0100
0010
11MM
0000
0000
0000
MM11
0000
0000
0000
1MM1
0000
0000
0000
,
M11M
0000
0000
0000
11MM
0000
1000
0100
M011
0000
11MM
0000
0000
0000
1MM1
0000
,
0000
0000
MM11
0000
0000
0000
0001
0010
110M
0000
1000
0100
M011
0000
0001
0100
,
0001
0010
0100
0000
11MM
0000
0000
0000
M11M
0000
0000
0000
0000
0000
11MM
0000
,
0000
0000
11MM
0000
0000
0000
MM11
0000
0000
0000
0001
0010
110M
0000
1000
0100
,
M011
0000
0001
0010
110M
0000
MM11
0000
0000
0000
1MM1
0000
0000
0000
11MM
0000
,
0000
0000
1000
0100
M011
0000
0001
0010
110M
0000
1000
0010
1000
0100
0010
0000
,
MM11
0000
M11M
0000
0000
MM11
0000
MM11
,
0000
0000
11MM
0000
0000
0000
1000
0100
M011
0000
0001
0100
101M
0000
0000
0000
,
1001
0000
1100
0000
0011
0000
1100
0000
0000
0000
1MM1
0000
0000
0000
0001
0100
,
101M
0000
1000
0010
M101
0000
0001
0100
0001
0010
0100
0000
1MM1
0000
0000
0000
,
11MM
0000
0000
MM11
0000
M11M
0000
11MM
,
0000
0000
0000
0000
0000
0000
1000
0000
0000
0100
0000
0000
M011
0000
0000
0000
0000
0000
0001
0000
0000
0010
0000
0000
110M
0000
0000
0000
0000
0000
1001
0000
0000
0000
0000
0000
0011
0000
0000
0000
0011
0000
0000
0000
0011
0000
0000
0000
,
1100
0000
1100
0000
1100
0000
1001
0000
1001
0000
1001
0000
0110
0000
0110
0000
0110
0000
1010
0000
0000
1000
0000
0000
,
11MM
0000
MM11
0000
0000
0000
0001
0100
MM11
0000
11MM
0000
0000
0000
1000
0010
,
11MM
0000
MM11
0000
0101
0000
0110
0000
1010
0000
1100
0000
0001
0100
MM11
0000
,
1MM1
0000
1100
0000
1000
0010
M1M1
0000
MM11
0000
0110
0000
1000
0001
M11M
0000
,
11MM
0000
0011
0000
1001
0000
0110
0000
1001
0000
0110
0000
1000
0100
MM11
0000
,
11MM
0000
1001
0000
0001
0010
11MM
0000
MM11
0000
1001
0000
1000
0001
M11M
0000
,
1MM1
0000
1100
0000
0011
0000
1100
0000
1001
0000
0101
0000
0100
0010
1MM1
0000
,
11MM
0011
0110
1100
0110
0011
1MM1
1MMM
,
MMM1
0000
1MM1
0000
0000
0000
0001
0010
110M
0000
1MM1
0000
1000
0100
1000
0001
,
0010
0001
1000
0010
1000
0100
0010
0001
0100
0010
0100
1000
0100
0001
0010
0100
,
1000
0001
0010
0001
0100
0010
0100
0010
1000
0100
0001
0100
1000
0001
0010
0001
,
0100
0010
0100
1000
0100
0001
0010
0100
1000
0010
0100
0001
0100
0010
1000
0100
,
1000
0010
1000
0001
0010
0001
0100
0010
1000
0100
0001
0100
1000
0001
0010
0100
,
1000
0010
0100
0001
1000
0100
0010
0001
0100
0010
1000
0010
0100
0010
1000
0100
,
1000
0001
0100
0010
1000
0001
0010
0100
1000
0010
0001
0010
1000
0100
1000
0010
,
0100
0001
0100
0010
1000
0100
0001
0100
1000
0010
0001
1000
0100
0001
1000
0100
,
0001
0010
1000
0100
0001
0010
0100
1000
0100
0001
0100
1000
MMM1
MMMM
MMMM
MMMM
,
1MM1
MMMM
0000
0000
0000
0000
0000
0000
0000
0000
0000
0000
0000
0000
0000
0000
;
