#TITLE:Tori no Uta;
#SUBTITLE:- AIR Opening;
#ARTIST:Lia;
#TITLETRANSLIT:;
#SUBTITLETRANSLIT:;
#ARTISTTRANSLIT:;
#CREDIT:;
#BANNER:Tori no Uta banner.png;
#BACKGROUND:Tori no Uta-bg.png;
#LYRICSPATH:;
#CDTITLE:KOA_cdtitle.png;
#MUSIC:Tori no Uta (TV Size).mp3;
#OFFSET:-0.220;
#SAMPLESTART:24.272;
#SAMPLELENGTH:21.200;
#SELECTABLE:YES;
#BPMS:0.000=122.030;
#STOPS:;
#BGCHANGES:0.000=Tori no Uta.avi=1.000=1=0=0,
184.000=Tori no Uta-bg.png=1.000=1=0=0,
99999=-nosongbg-=1.000=0=0=0 // don't automatically add -songbackground-
;
// cache tags:
#FIRSTBEAT:5.500;
#LASTBEAT:184.000;
#SONGFILENAME:Songs/Otaku's Dream 1st Anime Mix/koa5001 - Tori no Uta (Air)/Tori no Uta.sm;
#HASMUSIC:1;
#HASBANNER:1;
#MUSICLENGTH:93.051;
// end cache tags

//---------------dance-single - ----------------
#NOTES:
     dance-single:
     :
     Hard:
     9:
     0.590,0.618,0.140,0.086,0.258,363.000,13.000,8.000,0.000,0.000:
0000
0000
0000
0000
,
0000
0000
0000
1000
0100
0001
0100
1000
,
0002
0000
0003
0000
1000
0000
0010
2000
0000
0000
0000
0000
0000
0000
0000
0000
,
3001
0000
1000
0010
0001
0010
1000
0100
,
0020
0000
0030
0000
0100
0000
0010
0002
0000
0000
0000
0000
0003
0000
1000
0100
,
1000
0001
0100
0010
0100
0010
1000
0001
,
0020
0000
0030
0000
0100
0000
1000
0002
0000
0000
0000
0000
0000
0000
0000
0000
,
2003
3000
0001
0100
1000
0100
0001
0010
,
0200
0300
1000
1000
0000
0010
0000
0100
,
0000
0000
0001
0000
0000
1000
0000
0001
0000
0000
1000
0000
0100
0000
0000
0000
,
1000
0010
0000
1000
0100
0000
0010
0001
0000
0010
0100
0000
1000
0001
0000
0100
,
0010
1000
0010
0000
1000
0001
0000
0001
1000
0100
1000
0001
0000
0010
0001
0000
,
1000
0010
1010
1000
0100
0010
0100
1000
,
0010
0100
0001
1000
0100
0001
0100
1000
,
0001
0010
0001
1000
0010
1000
0001
0100
,
0001
0000
1000
0000
0100
0000
1000
0000
0001
0000
0000
1000
0010
0000
1000
0000
,
0001
0010
0011
0010
0100
0010
0001
0100
,
0010
1000
0001
0010
0100
1000
0001
1000
,
0001
0010
1000
0010
0001
0100
1000
0100
,
0010
1000
0100
1000
0010
0100
0001
0010
0001
0100
0010
1000
0100
1000
0010
0100
,
0001
0000
0010
0000
0001
0000
0100
0010
0000
0000
1000
0000
0001
0000
1000
0000
,
0001
0100
0101
0001
1001
1000
1100
1000
,
0010
0100
0010
1000
0100
0010
0100
0001
,
0100
0000
1000
0000
0010
0000
0100
0000
0001
0000
0000
0010
0001
0000
1000
0000
,
0010
0000
1000
0000
0100
0000
0010
0001
0000
0000
0100
0000
0010
0000
0100
0000
,
0001
0010
0100
1000
0001
0100
1000
0100
,
0001
1000
0100
0010
0100
1000
0010
0100
,
0001
1000
1001
0001
0010
0100
0010
0100
,
1000
0000
0100
0000
0001
0000
0100
0010
0000
0000
0100
0000
1000
0000
0001
0000
,
1000
0010
0001
0010
0100
0001
1000
0010
,
1000
0000
0100
0000
0010
0000
0001
0100
0000
0000
0001
0000
0010
0000
0100
0000
,
1000
0010
0100
0010
1000
0001
0010
0100
,
0010
0000
0001
0000
0100
0000
0010
1000
0000
0000
0001
0000
0100
0000
0001
0000
,
1000
0010
1000
0100
1000
0001
0010
0001
,
0011
0000
0000
0110
0000
0000
1100
0000
0000
0000
0001
0000
1000
0000
0010
0000
,
1010
1000
1001
0001
0011
0001
1001
1000
,
0010
0000
0100
0000
0001
0000
1000
0100
0000
0000
0010
0000
0100
0000
0010
0000
,
0001
0100
1000
0100
0010
1000
0001
1000
,
0100
0000
0010
0000
0100
0000
1000
0001
0000
0000
1000
0000
0010
0000
1000
0000
,
0001
0010
1000
0010
0100
0010
0001
1000
,
0100
0000
0010
0000
0001
0000
0100
0010
0000
0000
1000
0000
0001
0000
1000
0000
,
0001
0010
0100
1000
0010
0100
0010
1000
,
0001
0000
0010
0000
0001
0010
0000
0001
1000
0000
0100
0000
1000
0100
1000
0000
,
0010
0100
0100
0010
1000
0001
0001
1000
,
0001
0001
0010
0010
0100
0100
1000
1000
,
0001
0010
0001
0100
0010
0100
0001
1000
0010
1000
0100
0010
0100
1000
0010
0100
,
0001
0000
0000
0000
;

//---------------dance-single - ----------------
#NOTES:
     dance-single:
     :
     Medium:
     6:
     0.416,0.470,0.054,0.441,0.091,225.000,5.000,41.000,0.000,0.000:
0000
0000
0000
0000
,
0000
0000
0000
1000
0100
0010
0001
0100
,
0020
0000
0030
0000
0100
0000
0001
2000
0000
0000
0000
0000
0000
0000
0000
0000
,
3001
0000
0010
0100
1000
0010
0100
0001
,
2000
0000
3000
0000
0001
0000
0010
0200
0000
0000
0000
0000
0000
0000
0300
0000
,
0010
0001
1000
0001
0100
1000
0100
0001
,
0020
0000
0030
0000
0100
0000
1000
0002
0000
0000
0000
0000
0000
0000
0000
0000
,
2003
3000
0010
0100
0010
1000
0001
1000
,
0002
0000
0000
0000
,
2000
0000
3003
0110
,
0200
0000
0000
0010
0010
0000
0000
0310
,
0020
0100
0100
0130
,
0010
0000
0000
0000
1000
0000
0100
0000
1000
0000
0000
0001
0000
0000
1000
0000
,
0010
0000
0000
0100
0000
0000
0010
0000
0000
0000
1000
0000
0000
0000
0100
0000
,
0010
0000
0000
0100
0000
0000
1000
0000
0000
0000
0001
0000
2000
0000
0000
0000
,
0000
0000
0001
3001
,
1000
0000
0000
0000
0001
0000
0100
0000
0001
0000
0000
1000
0000
0000
0001
0000
,
0010
0000
0000
0100
0000
0000
0010
0000
0000
0000
0001
0000
0000
0000
1000
0000
,
0020
0000
0100
0130
,
0010
1000
0100
1000
0001
0010
0001
1000
,
0010
0000
0100
0000
0010
0000
1000
0002
0000
0000
0000
0000
0000
0000
0000
0000
,
0000
1000
1000
1003
,
0002
0000
0003
0010
0200
0000
0000
0000
,
0010
0000
0310
0001
1000
0001
0000
0000
,
1000
0000
0000
0000
0010
0000
1000
0200
0000
0000
0000
0000
0001
0000
0000
0000
,
1000
0000
1000
0000
0301
0000
1000
0010
,
0100
0000
0010
1000
0001
0010
0000
0200
,
0000
0300
1000
0100
0001
0100
1000
0001
,
2000
0000
3000
0000
0010
0000
0100
0002
0000
0000
0000
0000
1000
0000
0000
0000
,
1003
0000
0001
0010
1000
0010
0001
0100
,
0020
0000
0030
0000
0100
0000
0001
2000
0000
0000
0000
0000
0001
0000
0000
0000
,
0010
0000
3001
0100
0010
0100
0001
1000
,
0200
0000
0300
0000
0010
0000
0001
0020
0000
0000
0000
0000
0001
0000
0000
0000
,
0100
0000
0031
1000
0010
0100
0001
1000
,
1001
0000
0000
0110
0000
0000
2002
0000
0000
0000
3003
0000
1000
0000
0001
0000
,
2000
3000
0200
0300
0002
0003
0020
0030
,
2000
0000
3000
0000
0001
0000
0100
0020
0000
0000
0000
0000
1000
0000
0000
0000
,
0001
0000
1030
0100
0010
0001
0100
0010
,
0200
0000
0300
0000
0001
0000
0010
0002
0000
0000
0000
0000
0010
0000
0000
0000
,
1000
0000
0013
0100
0010
0100
1000
0001
,
2000
0000
3000
0000
0001
0000
0010
0200
0000
0000
0000
0000
1000
0000
0000
0000
,
0001
0000
1300
0010
0100
0001
1000
0001
,
0020
0000
0000
0000
0000
0000
0030
0100
,
2000
0000
0001
0000
0010
0000
3002
0003
,
0200
0000
1000
0000
0001
0000
0310
1000
,
0002
1000
0010
1003
,
1001
0000
0000
0000
;

//---------------dance-single - ----------------
#NOTES:
     dance-single:
     :
     Easy:
     3:
     0.244,0.247,0.021,0.129,0.000,145.000,2.000,12.000,0.000,0.000:
0000
0000
0000
0000
,
0000
0000
0000
0000
,
0002
0000
0000
0003
,
0020
0000
0000
0030
,
0200
0000
0000
0300
,
2000
0000
0000
3000
,
0020
0000
0000
0000
,
0200
0000
0000
0330
,
0002
0000
0000
0000
,
2000
0000
0000
3003
,
2000
0000
0000
0000
,
0002
0000
0000
3003
,
1000
0010
1000
0010
,
1000
0100
1000
0100
,
0010
0001
0010
0001
,
0100
0001
0100
0001
,
0010
0100
0010
0100
,
1000
0001
1000
0001
,
1000
0100
0001
0100
,
1000
0100
0001
0100
,
1000
0010
0010
0010
,
0100
0001
0001
0001
,
0010
0100
0100
0100
,
1000
0001
0001
0001
,
1000
0010
0001
0010
,
1000
0010
0001
0010
,
1000
0100
0010
0001
,
1000
2002
0000
3003
,
1000
0010
0010
1000
,
0001
0100
0100
0001
,
1000
0100
0100
1000
,
0001
0010
0010
0001
,
0100
0010
0010
0100
,
0001
1000
1000
0001
,
1000
0100
0010
0001
,
0100
0010
1000
0001
,
1000
0100
0001
0010
,
1000
0100
0001
0010
,
0001
0100
1000
0010
,
0001
0100
1000
0010
,
1000
0100
0001
0100
,
1000
0100
0001
0100
,
1000
0010
1000
1000
,
0001
0010
0001
0001
,
0100
0010
0100
0100
,
0010
0100
0010
0010
,
1001
0000
0000
0000
;
