#TITLE:Scars of Yesterday;
#SUBTITLE:;
#ARTIST:Dragonforce;
#TITLETRANSLIT:;
#SUBTITLETRANSLIT:;
#ARTISTTRANSLIT:;
#CREDIT:B. Abear;
#BANNER:Bn-Scars.png;
#BACKGROUND:Bg-Scars.png;
#LYRICSPATH:;
#CDTITLE:;
#MUSIC:Scars of Yesterday.ogg;
#OFFSET:-0.636;
#SAMPLESTART:48.540;
#SAMPLELENGTH:23.000;
#SELECTABLE:YES;
#DISPLAYBPM:200.000;
#BPMS:0.000=130.000,104.000=200.000,1393.000=100.000,1401.000=50.000,1403.000=200.000;
#STOPS:273.000=0.300
,275.500=0.600
,286.000=0.300
,288.500=0.600
,330.000=0.900
,363.000=0.900
,422.000=1.500
,489.000=0.300
,555.000=0.300
,557.500=0.600
,568.000=0.300
,570.500=0.600
,612.000=0.900
;
#BGCHANGES:;
// cache tags:
#FIRSTBEAT:0.000;
#LASTBEAT:1454.500;
#SONGFILENAME:Songs/Dragonforce/Scars of Yesterday/Scars of Yesterday.sm;
#HASMUSIC:1;
#HASBANNER:1;
#MUSICLENGTH:469.812;
// end cache tags

//---------------dance-single - B. Abear----------------
#NOTES:
     dance-single:
     B. Abear:
     Challenge:
     15:
     1.000,1.000,0.688,0.728,1.000,3451.000,323.000,342.000,180.000,54.000:

1000
0000
0001
0000
0100
0001
0000
1000
0000
0100
0000
0010
0000
0001
0010
0000
,
0100
0000
1000
0000
0001
0100
0000
0010
0000
1000
0000
0001
0000
1000
0100
0000
,
0010
0000
0100
0000
1000
0001
0000
0100
0000
0010
0000
1000
0000
0001
1000
0000
,
1M1M
0000
0001
0100
M000
0010
100M
0000
0M01
0010
M000
0100
1000
0000
00M1
0000
,
11MM
0000
1000
0000
0001
0010
0000
0100
0000
1000
0000
0001
0000
0100
0010
0000
,
0100
0000
0001
0000
1000
0010
0000
0100
0000
0001
0000
0010
0000
0100
1000
0000
,
0001
0000
1000
0000
0001
0010
0000
0100
0000
1000
0000
0001
0000
0100
0010
0000
,
0101
0000
0100
0010
1000
0001
1000
0100
0010
0100
0010
0000
1001
0000
0100
0000
,
0101
0000
0001
0000
1000
0100
0000
0110
0000
0011
0000
1001
0000
1000
0010
0000
,
0110
0000
0100
0000
0001
1000
0000
1001
0000
0011
0000
1010
0000
0010
0100
0000
,
0101
0000
0001
0000
1000
0100
0000
0110
0000
0011
0000
1001
0000
1000
0010
0000
,
0100
0001
0100
0010
0100
1000
0100
0001
0010
0001
0010
0100
0010
1000
0010
0001
,
1001
0000
1000
0000
0001
0010
0000
0110
0000
1100
0000
1001
0000
0001
0100
0000
,
0110
0000
0010
0000
1000
0001
0000
1001
0000
1100
0000
0110
0000
0010
0001
0000
,
1001
0000
1000
0000
0001
0100
0000
0110
0000
1010
0000
1001
0000
0001
1000
0000
,
0100
0000
0000
0010
0000
0000
0001
0000
0000
1000
0000
0000
0000
0000
0000
0001
0000
0000
0000
0000
0000
1000
0000
0000
0010
0000
0000
0000
0000
0000
0100
0000
0000
0000
0000
0000
0001
0000
0100
0000
0001
0000
0100
0000
0000
0000
0000
0000
,
0101
0000
0000
0000
0001
0000
0000
0000
1000
0000
0000
0000
0100
0000
0000
0000
0000
0000
0020
0000
0000
0000
0000
0000
0001
0000
0000
0000
0000
0000
0000
0000
0000
0000
0000
0000
0130
0000
0000
0000
0000
0000
1000
0000
0000
0001
0000
0000
,
0200
0000
0320
0000
1000
0130
0101
0001
,
2001
0000
0000
3200
0000
0000
0320
0000
0000
0031
1000
0001
0100
0010
0100
0001
,
1000
0100
0010
0100
1000
0010
0100
0010
1010
0100
0000
0001
1001
0000
1000
0000
,
1200
0000
0000
2300
0000
0000
3002
0000
0203
0000
0000
0320
0000
0000
2030
0000
,
3002
0000
0000
0010
0000
0000
0020
0000
0000
0000
0000
0000
0000
0000
0033
0000
,
1002
0000
0000
0203
0000
0000
0320
0000
0000
1030
0001
0100
0010
1000
0001
0010
,
0021
0000
0000
0230
0000
0000
2300
0000
3102
0000
0000
0203
0000
0000
0302
0000
,
2023
0000
0000
0000
0001
0100
0001
0100
0001
0100
0001
0100
0001
0100
3031
0000
,
4000
0004
0000
0000
0000
0000
0000
0000
0000
0000
0000
0000
0000
0000
0000
0000
0000
0000
0000
0000
0000
0000
0000
0000
0000
0000
0000
0000
3003
0000
0000
0000
,
1111
0000
0000
0000
,
2020
0000
0002
0000
,
3133
0000
0000
0000
,
0022
0000
0000
0000
0100
0100
0133
0000
,
0100
1000
0100
1000
0001
1000
0001
1000
0001
0100
0001
0100
0010
0100
0010
0100
,
0001
1000
0001
1000
0010
1000
0010
1000
0001
1000
0001
1000
0100
1000
0100
1000
,
0001
0010
0001
0010
0100
0010
0100
0010
0100
1000
0100
1000
0001
1000
0001
1000
,
0010
0100
0010
0100
0001
0100
0001
0100
0010
0100
0010
0100
0010
1000
0010
1000
,
0011
0100
0001
0100
0011
0100
0001
0100
0011
0100
0001
0100
0011
0100
0001
0100
,
0011
1000
0001
1000
0011
1000
0001
1000
0011
1000
0001
1000
0011
1000
0001
1000
,
0011
0100
0001
0100
0011
0100
0001
0100
0011
0100
0001
0100
0011
0100
0001
0100
,
0010
1000
0010
1000
0001
1000
0001
1000
0001
0010
0001
0010
0100
0010
0100
0010
,
0001
1000
0001
0100
0010
1000
0001
0010
0100
1000
0010
1000
0001
0010
0100
1000
,
0002
0203
0320
2030
,
3001
0100
0001
1000
0100
0010
0001
1000
0020
0000
0230
0000
0302
0000
0000
0000
,
1003
0100
1000
0100
0010
0100
0010
0100
0010
0001
0010
0001
1000
0001
1000
0000
,
1MM1
0M0M
M1M1
0M0M
,
M11M
0000
0000
0000
0010
1000
0010
1000
0010
0100
0010
0100
0001
1000
0001
0000
,
1MM1
0M0M
MM11
M0M0
,
1001
1010
0M0M
0110
0101
1001
1100
00MM
,
0100
0010
0001
1000
0001
1000
0010
0100
0001
1000
0001
0010
0100
1000
0001
0100
,
0001
1000
0100
1000
0001
0010
0100
1000
0001
0100
0010
1000
0001
1000
0100
0010
,
0002
1003
0001
0100
0020
0130
0002
2003
,
3004
0040
0000
0000
0000
0000
0000
0000
0000
0000
0000
0000
0000
0000
0033
0000
,
0101
0010
1001
0100
0011
1000
0101
0010
,
1000
0010
1000
0010
0100
0010
0100
0010
0100
0001
0100
0001
1000
0001
1000
0001
,
0010
0020
0000
0130
1000
0001
0100
0010
,
0100
0200
0000
0301
2000
0000
0001
3001
,
0101
0000
0110
0000
1010
1001
0000
0011
,
0000
1001
1000
1010
0010
0110
0100
0101
,
0001
0100
0001
0100
0001
0100
0001
0100
0011
0100
0011
0100
0011
0100
0011
0100
,
0011
1100
0011
1100
0011
1100
0011
1100
0022
2233
3322
2233
3322
2233
3321
2230
,
3301
0001
1000
0200
0000
0320
0000
0031
,
1000
0001
1000
0001
0100
0001
0100
0001
10M0
0000
010M
0000
M010
0000
0M01
0000
,
1000
2000
0000
3001
0010
0100
1000
0001
,
0100
0200
0000
0310
2000
0000
0010
3010
,
1010
0000
1001
0000
0011
0110
0000
1200
,
0000
0000
1300
0001
0100
0010
1000
0001
0010
0100
1000
0001
0100
0010
0100
0001
,
1000
0001
1000
0001
1000
0001
1000
0001
1100
0001
1100
0001
1100
0001
1100
0001
,
1100
0011
1100
0011
1100
0011
1100
0011
2200
3322
2233
3322
2233
3322
1233
0322
,
1033
1000
0001
0020
0000
0230
0000
1300
,
1001
0010
1001
0010
M10M
M0M1
1MM0
01MM
,
11MM
0000
2MM2
3003
0000
M1M1
0000
2M2M
,
3030
0000
0000
0000
1000
0100
1000
0100
0010
0100
0010
0100
0010
0001
0010
0001
,
1000
0000
0002
0000
0000
0000
0103
0000
0001
0100
0010
1000
0001
0100
0010
1000
,
0001
0100
0010
0000
M11M
0000
0000
0000
2M2M
0000
3030
0000
0000
0000
1MM1
0000
,
0000
0000
22MM
0000
3300
0000
0000
0000
0100
0010
0001
1000
0100
0010
0001
1000
,
0001
0100
0010
1000
0001
1000
0002
0000
0000
0000
1003
0000
0010
1000
0001
1000
,
0001
0010
0100
1000
0001
0010
0001
1000
0010
0000
0100
0000
0001
0100
0001
0000
,
1000
0000
0001
0000
0010
0100
0010
0000
0100
0000
1000
0000
0001
0100
0001
0000
,
1000
0000
0010
0000
0100
0010
0100
0000
0001
1000
0001
0010
0100
1000
0001
0100
,
0010
1000
0010
0100
0001
1000
0100
0010
0001
0000
1000
0000
0001
0010
0100
0000
,
1000
0000
0001
0000
0100
0010
1000
0000
0001
0000
1000
0000
0001
0010
0001
0000
,
1000
0000
0010
0000
0100
0001
0100
0000
0001
0000
1000
0000
0100
0010
0100
0000
,
0010
0000
0001
0000
1000
0001
1000
0000
0010
0100
0001
1000
0001
0010
0100
1000
,
0001
0100
0001
1000
0100
0010
0001
0000
0011
0000
2002
0000
3003
0000
1010
0000
,
0110
0000
0100
0000
0202
0000
0303
0000
2MM2
3003
0000
0000
0001
0100
0010
1000
,
0001
1000
0100
0010
0001
0010
0100
1000
0001
0010
0001
1000
0010
0100
0001
1000
,
0001
1000
0100
0010
0001
1000
0010
1000
0001
0010
0100
1000
0001
0100
0001
0100
,
0010
0100
0010
0100
0010
1000
0010
1000
0001
1000
0001
1000
0100
0010
0001
1000
,
0001
0100
0010
1000
0001
0010
0100
1000
0100
0010
0001
1000
0002
0000
1003
0010
,
0100
0001
2000
0000
3001
0010
0100
1000
0001
0100
0010
1000
0002
0000
0013
0100
,
1000
0001
2000
0000
3010
0100
0001
1000
0100
0010
0001
1000
0001
0010
0001
0010
,
0100
0010
0100
0010
0100
1000
0100
1000
0001
1000
0001
1000
0001
0100
0001
0100
,
0011
0100
0011
0100
0011
0100
0011
0100
0011
0100
0011
0100
M022
0033
0000
0000
,
0200
0000
0000
0301
2000
0000
3001
0001
,
1000
0100
0200
0000
0311
0000
0200
0000
,
2300
0000
0000
3001
0200
0000
0310
0010
,
1000
0000
0001
0000
0001
0000
0000
0000
1000
0100
0010
0001
1000
0100
0010
0001
,
2000
0000
0000
3010
0200
0000
0301
0001
,
1000
0000
0100
0000
0100
0000
0000
0000
1000
0010
0100
0001
1000
0010
0100
0001
,
0020
0000
0000
0130
2000
0000
3001
0001
,
0010
0100
1000
0001
0100
0010
1000
0001
0010
0100
1000
0001
,
0100
0001
0100
0000
0010
1000
0010
0000
1000
0001
1000
0000
0001
0010
0001
0000
,
1000
0100
1000
0000
0001
0100
0001
0000
0100
0010
0100
0000
0010
1000
0010
0000
,
1000
0001
1000
0000
0001
0010
0001
0000
1000
0100
1000
0000
0001
0010
0001
0000
,
1000
0001
1000
0001
1000
0100
1000
0100
0010
0100
0010
0100
0010
0001
0010
0001
,
1000
0010
0100
0001
1000
0001
0010
0001
1000
0100
0010
0001
1000
0010
0100
0001
,
0100
0001
1000
0100
0010
0001
0010
0001
1000
0001
0100
0010
1000
0001
0010
0000
,
0011
0000
0000
0000
0000
0000
0001
0010
M10M
0000
0000
0000
1100
0000
0000
0000
,
0110
0000
0011
0000
1001
1000
1010
0000
,
0110
0000
0101
0000
1001
0000
1001
0001
,
0020
0000
0030
0000
0200
0000
0300
0000
2000
0000
3000
0000
0001
0100
0010
1000
,
0001
1000
0100
0010
0100
1000
0001
1000
0010
0100
0001
1000
0002
0000
0100
0000
,
1003
0002
0100
1003
0002
0100
2003
0100
,
3001
2000
0100
3001
2000
0100
3020
1000
,
0130
0000
0020
0000
1000
0000
0130
0000
0020
0000
1000
0000
0130
0001
1000
0100
,
0010
0001
0010
0100
1000
0000
0001
0000
1100
0000
0001
0000
0100
0000
0010
0000
,
1000
0001
1000
0000
0001
0000
0010
0000
0100
1000
0100
0000
1000
0000
0001
0000
,
0100
0010
0100
0000
0001
0000
1000
0000
0001
0010
0001
0000
1000
0000
0100
0000
,
0110
0000
0010
0000
0011
0000
0001
0000
1001
0000
1000
0000
0001
0100
0010
1000
,
0001
0100
0010
1000
0001
0100
0010
1000
0001
0100
0010
1000
0001
0000
1000
0000
,
0001
0010
0001
0000
1000
0000
0010
0000
0100
0001
0100
0000
0001
0000
0010
0000
,
0100
1000
0100
0000
0010
0000
0001
0000
1000
0001
1000
0000
0002
0000
0010
0000
,
1003
0000
0002
0000
0010
0000
1003
0000
0002
0000
1003
0000
0010
0100
0001
1000
,
0100
0010
0001
0010
0100
1000
0001
0100
0010
1000
0001
0000
0101
0000
0110
0000
,
0000
0000
1010
0000
2MM2
3003
0000
0000
0001
0000
0002
0000
0000
0000
0013
0000
,
0001
1000
0010
0100
0010
0020
0000
1030
,
0002
0000
1000
1003
1010
0000
0110
0000
,
0101
1001
0000
1100
0000
1001
0001
0101
,
0100
0000
0101
0000
0001
0000
1001
0000
0001
0100
0001
0100
0001
0100
0001
0100
,
0011
0100
0011
0100
0011
0100
0011
0100
0011
1100
0011
1100
0011
1100
0011
1100
,
0022
2233
3322
2233
3322
2233
3321
2230
3301
0000
0001
0000
1000
0000
0020
0000
,
0000
0000
0230
0000
0000
0000
0301
0000
1000
0001
1000
0001
0100
0001
0100
0001
,
10M0
010M
M010
0M01
1000
2000
0000
3001
,
0010
0100
1000
0001
0100
0200
0000
0310
,
2000
0000
0010
3010
1010
0000
1001
0000
,
0011
0000
0110
0000
0000
0000
1200
0000
0000
0000
1300
0001
0100
0010
1000
0001
,
0010
0100
1000
0001
0100
0010
1000
0001
0100
0010
0100
0010
0100
0010
0100
0010
,
1100
0010
1100
0010
1100
0010
1100
0010
1100
0011
1100
0011
1100
0011
1100
0011
,
2200
3322
2233
3322
2233
3322
1233
0322
1033
0000
1000
0000
0001
0000
0020
0000
,
0000
0230
0000
1300
1001
0010
1001
0010
,
M10M
M0M1
1MM0
01MM
11MM
0000
M22M
0330
,
0000
0000
MM11
0000
0000
0000
2MM2
0000
3003
0000
0000
0000
0001
1000
0100
0010
,
0001
1000
0010
1000
0001
0010
0001
1000
0100
0010
0001
1000
0010
0100
0001
1000
,
0001
0010
0001
1000
0100
0010
0001
1000
0010
0100
0001
0000
M1M1
0000
0000
0000
,
M22M
0330
0000
1M1M
0000
2MM2
3003
0000
,
0001
0010
0001
0010
0100
0010
0100
0010
0100
1000
0100
1000
0001
1000
0002
0000
,
0000
0000
0103
0000
1010
0000
0100
0000
1001
0000
0010
0000
1000
0001
1000
0001
,
0010
0000
0100
0000
1000
0001
1000
0000
0001
0000
0010
0000
0100
1000
0100
0000
,
1000
0000
0010
0000
0100
0001
0100
0000
0010
0000
1000
0000
0001
1000
0001
0000
,
0100
0010
1000
0001
1000
0010
1000
0100
0010
0001
1000
0001
0010
0100
1000
0001
,
0100
0000
0010
0000
0100
0001
1000
0000
0001
0000
0010
0000
0100
1000
0010
0000
,
0100
0000
0001
0000
1000
0010
1000
0000
0001
0000
0010
0000
0100
1000
0100
0000
,
0010
0000
0001
0000
1000
0010
1000
0000
0001
0000
0100
0000
0010
0100
0010
0000
,
0100
0001
1000
0001
1000
0100
0010
0001
0010
0100
0010
0001
1000
0010
0100
0000
,
0110
0202
0303
1001
1100
0100
0220
0330
,
1MM1
0000
0000
0000
1000
0010
0100
0001
1000
0001
0010
0100
0010
0001
1000
0010
,
0100
0001
0100
0001
1000
0100
1000
0001
0010
0001
1000
0010
0100
0001
1000
0100
,
1000
0001
0010
0100
1000
0100
1000
0000
0001
0100
0001
0000
1000
0010
1000
0000
,
0001
0010
0001
0000
0010
0100
1000
0001
0100
0001
1000
0010
0100
0001
0010
0100
,
1000
0001
0010
0001
1000
0010
0100
0001
1000
0100
1000
0001
0010
0100
1000
0001
,
1000
0001
0100
0010
1000
0001
0010
0100
1000
0100
0010
0001
1000
0010
0100
0001
,
0100
0001
1000
0001
0010
0100
0010
0100
1000
0100
1000
0100
1000
0001
1000
0001
,
0100
0001
0100
0001
1000
0010
0100
0001
1000
0100
0010
0001
0010
0100
1000
0001
,
1000
0001
0100
0000
0404
0000
0000
0000
0000
0000
0000
0000
0000
0000
0000
0000
,
0003
0000
0302
0000
0000
1003
0200
0000
,
0310
0000
0010
0000
0001
0000
1000
0000
1000
0000
0000
0000
0001
0010
0100
1000
,
0001
0010
0100
1000
0002
0000
0000
0000
0000
0000
0013
0000
0200
0000
0000
0000
,
1300
0000
1000
0000
0001
0100
0010
1000
0001
0100
0010
1000
0001
0010
0001
0010
,
0100
1000
0100
1000
0002
0000
0000
0000
0000
0000
1003
0000
0020
0000
0000
0000
,
0130
0000
0100
0000
0001
0000
0010
0000
0010
0000
0000
0000
0100
1000
0001
0010
,
0100
1000
0001
0010
0200
0000
0000
0000
0000
0000
1300
0000
0002
0000
0000
0000
,
1003
0000
1000
0000
0001
0000
0000
0000
0000
0000
0000
0000
1000
0100
0010
0001
,
1000
0100
0010
0001
1000
0010
1000
0000
0001
0100
0001
0000
1000
0100
1000
0000
,
0001
0010
0001
0000
1000
0100
1000
0000
0100
0010
0100
0000
0010
0001
0010
0000
,
0001
1000
0001
0000
1000
0010
1000
0000
0010
0100
0010
0000
0100
0001
0100
0000
,
0001
1000
0001
0000
1001
0000
1000
0100
0010
0001
1000
0010
0100
0001
0100
0001
,
1000
0100
1000
0100
0010
0001
1000
0001
0010
0100
1000
0001
0100
0010
1000
0010
,
0100
0010
1000
0001
0010
0100
1000
0001
0010
0001
1000
0100
1000
0001
0010
0100
,
1000
0010
0100
0010
1000
0001
0100
0001
1000
0001
0100
0001
1000
0001
0100
0001
,
1000
0001
0100
0001
1000
0001
1000
0001
0010
0001
0010
0001
1000
0010
1000
0010
,
0100
0010
0100
0010
1000
0000
0001
0000
1000
0100
1000
0000
0001
0000
0010
0000
,
0100
1000
0100
0000
1000
0000
0010
0000
0100
0001
0100
0000
0010
0000
1000
0000
,
0001
0010
0001
0000
0011
0000
0010
0000
0100
1000
0100
0000
1000
0000
0001
0000
,
0100
0010
0100
0000
0001
0000
1000
0000
0001
0010
0001
0000
1000
0000
0100
0000
,
1000
0010
1000
0000
1001
0000
0001
0000
0100
0001
0100
0000
0001
0000
1000
0000
,
0100
1000
0100
0000
0010
0000
0001
0000
1000
0010
1000
0000
0001
0000
0100
0000
,
0010
0100
0010
0000
0110
0000
0100
0000
0001
1000
0001
0000
0010
0000
0100
0000
,
1000
0100
1000
0000
0001
0100
0001
0100
0010
0100
0010
0100
0010
1000
0010
1000
,
0001
1000
0001
1000
0100
0010
0001
1000
0001
0100
0010
1000
0100
0010
0100
1000
,
0001
0010
0100
1000
0001
0100
0001
1000
0010
1000
0001
0010
0001
1000
0100
0010
,
0001
1000
0010
0100
0001
0100
0001
1000
0100
0010
0001
1000
0010
1000
0001
0100
,
0001
1000
0100
0010
0001
0010
0100
1000
0001
0100
0001
1000
0010
0100
0001
0010
,
0001
1000
0100
1000
0001
0010
0001
1000
0010
0100
0001
0010
0001
1000
0100
1000
,
0001
0010
0100
1000
0001
0010
0100
1000
0001
0100
0010
0100
0001
1000
0001
0010
,
0100
1000
0001
1000
0001
0100
0001
0100
0010
0100
0010
0100
0010
1000
0010
1000
,
0001
1000
0001
1000
0001
0010
0100
1000
0001
0010
0100
1000
0001
0010
0100
0010
,
0002
0000
0000
0000
0000
0000
1M13
0000
0000
0000
00M0
0000
0000
M000
0000
000M
0000
0000
0000
00M0
0000
0000
0000
0000
,
1MM1
0000
0000
0000
M000
0000
0000
00M0
0000
0000
0000
0000
MM11
0000
0000
0000
0M00
0000
0000
000M
0000
0000
M000
0000
,
0000
00M0
0000
0000
0000
0000
11MM
0000
0000
0000
0000
0000
0000
0000
0000
0000
0000
0000
0000
0000
0000
0000
0000
0000
,
0000
0000
0000
0000
,
0000
0000
0200
0000
0000
2300
0000
0000
,
3002
0000
0000
0000
,
0103
0010
0100
1000
0200
0000
0000
0000
,
0000
0000
0000
0000
0000
0000
0001
1000
,
0001
1000
0302
0000
0000
0023
0000
0000
,
0230
0000
0320
0000
,
0000
0000
0000
0000
,
0000
0000
0000
0000
0000
0000
0000
0031
,
0000
1000
0000
0000
0002
0000
0000
0000
0103
0000
0010
0000
2000
0000
0000
0000
,
3001
0010
0200
0000
0000
0000
0000
0000
,
0000
0000
0000
0000
,
0000
0000
0000
2300
0000
0000
3000
0002
0000
0000
0000
1003
,
0000
0100
0000
0000
0000
2000
0000
0000
0000
0000
0000
0000
0000
0000
0000
0000
0000
0000
0000
0000
0000
0000
0000
0000
,
3002
0000
0000
0000
,
0000
0203
0000
0000
,
0320
0000
0000
0230
,
0000
0300
0101
0001
1000
0100
0020
0230
,
2300
3002
0203
0320
2030
3002
0023
0230
,
1300
0001
2000
3200
0320
0032
2003
3002
,
0203
0320
2030
3002
0023
0230
0000
0000
,
0000
0000
2300
3002
0203
0320
0000
0230
,
0302
2003
3200
0320
0032
0023
0230
2300
,
3002
0203
0320
2030
3002
0203
0000
0320
,
2030
3002
0000
2003
0000
3200
0000
0000
,
0000
0000
0320
0000
0000
0032
0000
0000
,
2003
0000
0000
0000
,
0000
0000
0000
0000
,
0000
0000
0000
0000
,
0000
0000
3002
0000
0000
0023
0000
0000
,
0032
0000
0203
0320
2030
3002
0023
0230
,
2300
3002
2003
3200
0320
0032
2003
3020
,
0230
0302
2003
3200
0310
0001
0010
0100
,
1000
0001
1001
0000
0000
0101
0000
0000
,
0110
0000
1010
0000
0000
1001
0000
0000
,
0011
0000
0110
0100
1000
0001
0100
0100
,
0101
0001
1000
0001
0010
0100
1200
0000
,
2000
3300
1001
0001
0100
0010
0100
0100
,
0101
0001
0010
0100
1000
1000
1200
0000
,
0000
0300
0110
0010
0001
1000
0001
0001
,
0011
0010
0100
1000
0001
0001
0201
0000
,
0020
0330
1010
1000
0001
0010
0100
0100
,
1100
0000
0000
1000
0000
0000
0001
0000
0000
0000
0010
0000
0100
0000
1000
0000
0001
0000
1000
0000
0001
0000
0100
0000
,
0010
0000
0000
0000
1000
0000
0000
0000
0001
0000
0000
0000
0010
0000
0000
0100
0000
0000
0010
0000
0000
0000
0000
0000
0100
0000
0000
1000
0000
0000
0100
0000
0000
0000
0000
0000
1000
0000
0000
0001
0000
0000
1000
0000
0000
0000
0000
0000
,
0001
0100
0001
0000
0100
0010
0100
0000
0010
1000
0010
0000
0100
0000
0100
0000
,
0001
0000
0001
0000
1000
0100
1000
0000
0001
0010
0001
0000
1000
0001
1000
0000
,
0010
0100
0010
0000
0100
0001
0100
0000
0001
1000
0001
0000
1001
0000
0000
0000
,
0000
0000
0000
0000
1000
0010
1000
0000
0010
0100
0010
0000
0100
0001
0100
0000
,
0001
1000
0001
0000
1000
0100
1000
0000
0001
0010
0001
0000
1000
0010
1000
0001
,
1000
0100
1000
0001
0100
0010
0100
0000
0010
1000
0010
0000
0100
0001
0100
0000
,
0001
1000
0001
0000
1000
0100
1000
0000
1100
0000
0000
0000
0110
0000
0011
0000
,
0000
0000
0000
0101
0001
0100
0010
1000
0001
1001
1000
0100
,
0010
0001
0010
0110
0100
1000
0001
1000
0001
0101
0100
0010
,
1000
0000
0010
0000
0100
0000
0101
0000
0000
1001
0000
0000
0000
0000
0000
1100
0000
0000
1001
0000
0000
1001
0000
0000
,
0101
0000
0110
0101
0101
1000
0011
0011
,
0000
0000
0000
0000
0001
0010
0001
0010
0001
0010
0001
1000
0001
1000
0001
1000
,
0010
1000
0010
1000
0010
0100
0010
0100
0010
0100
0001
0100
0001
0100
0001
0100
,
0001
1000
0001
1000
0100
0000
1000
0100
1000
0001
0010
0001
1000
0010
0100
0001
,
1000
0000
0000
0100
0000
0000
0010
0000
0000
0001
0000
0000
1000
0000
0010
0000
0000
0000
0000
0000
0000
0000
0100
0000
0001
0000
0000
0000
0000
0000
4000
0000
0000
0000
0000
0000
0000
0000
0000
0000
0000
0000
0000
0000
0000
0000
0000
0000
,
0000
0000
0000
0000
3001
1000
0100
0010
0100
0010
0001
1000
0100
0010
0100
0010
,
0001
1000
0010
0100
0002
0003
200M
3000
M020
0030
02M0
0300
0M02
0000
0000
0000
,
0000
0000
1003
1000
0100
1000
1000
0100
,
0020
0000
0000
0000
0031
1000
0001
1000
0010
1000
0010
1000
0010
0100
0010
0100
,
0001
0100
0001
0100
0010
1000
0001
0010
0100
1000
0001
0100
0001
1000
0010
0100
,
0001
1000
0001
1000
0100
0010
0001
0010
0100
1000
0001
0010
0001
1000
0010
1000
,
0001
0100
0001
1000
0100
0010
0001
0010
0100
1000
0001
0010
0100
1000
0010
0100
,
0001
0100
0010
1000
0001
0000
1000
0000
0100
0000
0020
0000
0000
0000
0130
0000
,
4000
0000
3001
0002
0000
0103
0010
1000
,
0001
0000
1000
0000
0100
0010
0001
1000
0001
0100
0010
1000
0001
0010
0100
1000
,
0001
1000
0100
0010
0001
0100
0001
0100
0010
1000
0010
1000
0001
1000
0001
1000
,
0001
0010
0001
0000
0011
0000
0010
0000
0110
0000
0100
0000
1100
0000
1000
0000
,
1001
0000
0001
0000
1000
0100
0010
0001
1000
0001
0100
0010
1000
0001
1000
0100
,
0010
0001
1000
0100
2000
0000
3002
0000
0203
0000
0320
0000
2030
0000
3002
0000
,
2003
0000
3200
0000
0340
0004
0000
0000
0033
0000
2000
0000
3001
0100
0010
0000
,
1000
0100
0010
0001
1000
0001
0100
0010
1000
0001
0010
0100
1000
0000
0001
0000
,
0100
0000
0010
1000
0001
0010
0100
1000
0001
1000
0002
0000
0103
0000
0010
0000
,
0200
0000
0302
0000
,
1003
0MMM
0100
0010
0001
0010
0100
1000
,
0001
0000
0100
0000
0001
1000
0010
0100
0001
1000
0010
0100
0002
0000
0000
0000
,
2000
3003
1000
0100
0001
0100
1000
0010
,
1000
0100
0001
0100
1000
0010
0100
0001
,
0100
0000
0010
0000
1000
0001
1000
0100
0010
0001
1000
0001
1000
0100
0010
0100
,
1000
0001
0100
0010
0100
0001
1000
0001
1000
0100
1000
0001
0100
0010
1000
0001
,
2000
0000
0000
0000
3001
0000
0100
0000
0010
0000
1000
0000
0001
0010
0001
0010
,
0100
1000
0010
0100
0001
1000
0100
0010
,
0001
0000
1000
0000
0001
0100
0001
0100
0010
0100
0010
0100
0010
1000
0010
1000
,
0001
1000
0001
1000
0100
0010
0001
1000
0100
0010
0001
1000
0100
0010
0001
1000
,
0100
0010
0001
1000
0010
0100
0010
0100
0010
0000
0000
0000
0000
0000
0000
0000
,
0000
0000
0000
0000
1000
0010
1000
0010
1000
0000
0000
0000
0000
0000
0000
0000
,
0000
0000
0000
0000
0001
1000
0001
1000
0001
0000
0000
0000
0000
0000
0000
0000
,
0000
0000
0000
0000
1000
0100
1000
0100
0020
0000
0000
0000
0031
0100
0001
0100
,
0020
0000
0000
0000
1030
0001
1000
0001
1000
0000
0000
0000
0000
0000
0000
0000
,
0000
0000
0000
0000
0001
0010
0001
0010
0001
0000
0000
0000
0000
0000
0000
0000
,
0000
0000
0000
0000
1000
0010
1000
0010
1000
0000
0000
0000
0000
0000
0000
0000
,
0000
0000
0000
0000
0001
0010
0001
0010
0001
0010
0001
0010
0100
1000
0100
1000
,
0100
1000
0100
1000
0001
0100
0010
1000
0002
0000
0000
0000
1003
0100
0010
0001
,
1000
0100
0010
0001
1000
0010
0100
0001
2000
0000
0000
0000
3001
0100
0010
1000
,
0001
0100
0010
1000
0001
0010
0100
0010
0002
0000
0000
0000
1003
0010
0100
0001
,
1000
0010
0100
0001
1000
0100
0010
0100
0020
0000
0000
0000
0031
1000
0001
0010
,
0200
0000
0000
0000
1300
0010
1000
0001
0200
0000
0000
0000
0310
1000
0001
0100
,
0010
1000
0001
0100
0001
0010
0001
1000
0200
0000
0000
0000
0310
0001
1000
0100
,
0010
0001
1000
0100
0010
0100
1000
0001
0200
0000
0000
0000
0301
0100
0010
1000
,
0001
0100
0010
1000
0001
1000
0100
0010
0002
0000
0000
0000
1003
0010
0100
0001
,
2000
0000
0000
0000
3001
0010
0100
1000
0001
0100
0001
1000
0100
0010
0001
1000
,
0010
1000
0001
0100
0001
1000
0100
0010
0001
1000
0100
1000
0001
1000
0100
0010
,
0001
1000
0010
0100
0001
1000
0001
0100
0001
1000
0010
0100
0001
1000
0100
0010
,
0001
0000
0000
1000
0000
0000
0100
0000
0000
1000
0000
0000
0001
0000
0000
0000
0000
0000
0000
0000
0100
0000
0000
0000
0000
0000
0000
0000
0010
0000
0000
0000
0000
0000
0000
0000
1000
0000
0000
0000
0000
0000
0000
0000
0001
0000
0000
0000
,
0000
0000
0000
0000
0010
0000
0000
0000
0000
0000
0000
0000
0100
0000
0000
1000
0000
0000
0001
0000
0000
0100
0000
0000
0001
0000
0000
1000
0000
0000
0010
0000
0000
0100
0000
0000
0001
0000
0000
0100
0000
0000
0001
0000
0000
1000
0000
0000
,
0100
0010
0001
0010
0100
1000
0001
0100
0001
1000
0100
1000
0001
0010
0100
1000
,
0001
0100
0010
0100
0001
0010
0100
1000
0001
0010
0100
1000
0001
0010
0100
1000
,
0001
0010
0100
1000
0001
0010
0001
0010
0100
0010
0100
0010
0100
1000
0100
1000
,
0001
1000
0001
1000
0001
0000
0000
0000
0200
0000
0000
0000
0000
0000
0000
0000
,
0302
0000
2003
0000
0000
3200
0000
0000
,
0320
0000
0032
0000
0003
0002
0000
0000
,
2003
0000
3010
0100
0000
0004
0000
0000
,
0000
0000
1003
1000
0001
0100
1000
0100
,
0001
0000
1000
0000
0001
1000
0001
1000
0100
0000
0010
0000
0001
0000
1000
0000
,
0001
0100
0101
0001
1000
0100
0010
0100
,
1000
0000
0001
0000
1000
0010
0100
0001
0100
0001
1000
0010
0100
0001
0100
0001
,
1000
0100
1000
0100
0010
0001
1000
0001
0100
0010
1000
0001
0100
0001
1000
0100
,
0010
0001
0010
0001
1000
0010
0100
0001
1000
0001
1000
0100
0010
0001
1000
0010
,
0200
0000
0000
0000
0000
0000
0301
0000
0000
1000
0000
0000
0100
0000
0000
0020
0000
0000
0000
0000
0000
0130
1000
0000
,
0000
0001
0100
0010
1000
0002
0000
0000
,
4003
0000
0000
0000
3001
0000
1000
0100
0010
0001
1000
0001
1000
0100
1000
0001
,
0100
0010
1000
0001
0010
0001
1000
0100
0010
0001
1000
0001
0400
0000
0000
0000
,
0310
0010
1000
1000
0001
0010
0100
0100
,
1000
0000
0001
0000
0100
0001
0100
0001
0100
0001
0100
0001
1000
0100
1000
0100
,
1000
0100
1000
0100
0010
0000
0001
0000
1000
0000
0001
0000
0000
0000
0100
0000
,
0000
0010
0000
1000
0000
0001
0020
0000
,
0230
0000
0000
0000
1300
0001
0100
0001
0100
0010
1000
0001
1000
0100
1000
0100
,
0010
0001
1000
0001
1000
0010
1000
0010
0100
0010
0100
0010
1000
0010
1000
0010
,
0100
0001
0100
0001
1000
0000
00M1
0000
00M1
0000
0100
0000
001M
0000
001M
0000
,
1000
0100
1000
0M01
0M01
0010
M100
M100
,
0010
0001
1000
010M
010M
1000
00M1
00M1
,
0100
0010
1000
0M01
0M01
1000
01M1
1000
,
0M11
1000
0002
0000
0000
0103
0110
0000
,
0010
1000
1010
0010
0200
0000
0301
1000
,
1100
0100
0120
0000
0000
0031
1001
0000
,
1000
0000
0000
0000
0001
0000
0000
0000
0000
0000
1000
0000
0001
0100
0010
1000
,
0001
0100
0010
1000
0002
0000
0000
0000
0000
0000
1003
0000
1100
0000
0000
0000
,
0100
0010
0110
0010
0001
0000
1010
0000
,
0001
1000
1002
0000
0000
0013
0011
0000
,
0001
0000
1000
0000
0001
0010
0100
1000
0001
0010
0100
1000
0001
0100
0001
0100
,
0010
1000
0010
1000
0001
0010
0100
1000
0001
0100
0001
1000
0100
0010
0001
0010
,
0100
1000
0001
0100
0001
1000
0100
1000
0001
0010
0001
1000
0010
0100
0001
0100
,
0001
1000
0100
0010
0001
0010
0100
0010
0001
1000
0001
0100
0010
0100
0001
1000
,
0001
1000
0001
0010
0100
1000
0100
1000
0001
1000
0001
1000
0001
0100
0001
0100
,
0010
0100
0010
0000
1010
0000
0000
0000
1001
0000
0011
0000
0000
0000
0110
0000
,
0000
0000
1100
0000
1000
0001
0100
0010
1000
0001
1000
0100
0010
0001
0010
0001
,
1000
0010
1000
0010
0100
0000
0001
0000
1000
0000
0100
0000
0010
0000
0001
0000
,
1000
0000
0001
0000
1000
0001
1000
0001
1000
0100
1000
0100
0010
0100
0010
0100
,
0010
0000
0000
0001
0000
0000
0010
0000
0000
0001
0000
0000
1000
0000
0000
0000
0000
0000
0000
0000
000M
0000
0000
0000
0000
0000
M000
0000
0000
0000
0000
0000
0M00
0000
0000
0000
0000
0000
0000
0000
00M0
0000
0000
0000
0000
0000
0000
0000
,
000M
M000
0000
0000
0000
00M0
0000
0000
0000
0M0M
0000
0000
0000
M000
0000
0000
0000
00M0
0000
0000
0000
000M
0000
0000
,
0000
0000
0M00
0000
000M
0000
0000
0000
0000
0000
0000
0000
1111
0000
0000
0000
0000
0000
0000
0000
0000
0000
0000
0000
0000
0000
0000
0000
0000
0000
0000
0000
0000
0000
0000
0000
0001
0000
0000
0100
0000
0000
0010
0000
0000
1000
0000
0000
,
0001
1000
0100
0010
0001
1000
0001
1000
0010
0100
0001
1000
0100
0010
0001
0010
,
0100
1000
0001
0100
0001
1000
0100
1000
0001
0010
0001
1000
0001
0100
0010
1000
,
0001
1000
0100
0010
0001
1000
0001
0100
0010
1000
0001
0010
0100
1000
0100
1000
,
0100
1000
0100
1000
0001
0100
0001
0100
0001
0100
0001
0000
M1M1
0000
0000
0000
,
0M0M
1MM1
M00M
11MM
,
MM00
M11M
0MM0
MM11
,
00MM
1M1M
M0M0
4MM4
,
0000
0000
0000
0000
,
0000
0000
0000
0000
,
0000
0000
0000
0000
,
0000
0000
0000
0000
,
0000
0000
0000
0000
3003
0000
1001
0110
,
2002
0000
0000
0000
3MM3
M00M
0000
0000
;
