#TITLE:Half Way Around The World;
#SUBTITLE:;
#ARTIST:A*TEENS;
#TITLETRANSLIT:;
#SUBTITLETRANSLIT:;
#ARTISTTRANSLIT:;
#CREDIT:;
#BANNER:HWATW-BN.png;
#BACKGROUND:HALF-WAY-AROUND-THE-WORLD-B.png;
#LYRICSPATH:;
#CDTITLE:;
#MUSIC:Half Way Around The World.mp3;
#OFFSET:0.000;
#SAMPLESTART:100.000;
#SAMPLELENGTH:12.000;
#SELECTABLE:YES;
#BPMS:0.000=155.000;
#STOPS:;
#BGCHANGES:;
// cache tags:
#FIRSTBEAT:0.000;
#LASTBEAT:303.500;
#SONGFILENAME:Songs/Tales of Genji/Half Way Around The World/Half Way Around The World.sm;
#HASMUSIC:1;
#HASBANNER:1;
#MUSICLENGTH:117.551;
// end cache tags

//---------------dance-single - ----------------
#NOTES:
     dance-single:
     :
     Easy:
     3:
     0.333,0.354,0.187,0.094,0.000,241.000,22.000,11.000,0.000,1.000:
1000
0000
0100
0010
,
0100
0010
0000
0000
,
1001
0100
0010
0100
,
1001
0000
0000
0000
,
0000
0000
0000
1001
,
0010
0100
0010
0100
,
0000
0000
0000
1001
,
1001
0000
0000
1000
,
0100
0010
0000
0010
,
0001
1000
0000
1000
,
0010
0100
0000
0001
,
0100
1000
0000
0100
,
0010
0001
0000
0000
,
0100
0010
0001
0000
,
0000
1001
0000
1001
0000
0000
0100
0000
,
0000
1000
0100
1000
,
0010
0001
0010
0001
,
1000
0000
1000
0100
,
1000
0010
0001
0010
,
0100
0010
1000
0010
,
0100
0000
0000
0000
,
2002
3003
0000
0000
0100
0000
0010
0000
,
0100
1000
0001
1000
,
0001
1001
0000
0100
,
0010
0100
1000
0001
,
1000
0001
2000
0000
,
3000
0000
0100
0010
,
0100
1000
0001
0010
,
0000
1001
0000
0100
,
0010
0100
0010
1000
,
0001
1000
0001
1000
,
0100
1001
1001
0100
,
0010
0100
0010
0100
,
2002
0000
3103
0010
,
0100
0000
1000
0100
,
1000
0010
0001
0010
,
2000
0000
3000
0000
,
1000
0001
1000
0001
,
0110
1000
0001
1000
,
0001
0100
0010
0100
,
0010
1000
1000
1000
,
1000
0100
0010
0001
,
0001
0001
0001
1000
,
0001
0100
0010
1000
,
0001
0100
0010
0000
,
0100
1000
0000
0000
,
1001
0000
0100
0000
,
0010
0000
0100
1000
,
1000
1000
1000
1000
,
1001
0000
1000
0100
,
1000
0010
0001
0010
,
1000
0001
1000
0000
,
1000
1000
0100
0100
,
0000
0010
0010
0001
,
0001
0000
1000
0010
,
0100
0001
0000
1000
,
0010
0100
0001
0000
,
1000
0100
0010
0001
,
0010
0100
1000
1001
,
0000
1000
0100
0010
,
0001
1000
0100
0010
,
0001
1001
0000
0000
,
0000
0000
1001
1000
,
0100
0010
0001
0010
,
0100
1000
0100
0010
,
1000
1000
0100
0100
,
0010
0010
0001
0001
,
2002
0000
3003
0000
,
1000
1000
0100
0010
,
0100
0001
0001
2002
,
3003
0100
0010
0100
,
0010
1000
0001
1000
,
0100
0010
0100
1000
,
1001
0000
1000
0010
,
0100
0001
1000
0010
,
0100
0002
0000
0003
;

//---------------dance-single - Copied from----------------
#NOTES:
     dance-single:
     Copied from:
     Hard:
     6:
     0.410,0.484,0.332,0.570,0.000,231.000,39.000,67.000,0.000,10.000:
1001
0100
0010
1000
,
0001
0100
0010
1000
,
2002
0000
3113
0100
,
0010
1000
0001
0100
,
2002
0000
0000
0000
,
3223
0000
0000
0000
,
0000
0000
0330
0110
,
1001
0000
1000
0100
,
1000
0100
1000
2002
,
0000
0000
0000
3003
0000
0000
0000
0000
,
0100
0010
0100
0010
,
0100
0220
0000
0000
,
0000
2330
0000
0000
,
0000
0000
0000
3000
,
0000
0110
0000
0110
0000
0000
0100
0000
,
0001
1000
0001
0010
,
0100
1000
2002
0000
,
3003
2000
3200
0320
,
0032
0003
1000
0010
,
0100
0001
2002
0000
,
3223
0000
0000
0000
,
0330
2020
0000
0000
,
0000
0000
3232
0000
,
0000
0000
0000
0303
,
2000
0100
0010
0001
,
3010
0000
0000
2002
,
0000
3003
0000
2000
,
0000
3100
0200
0000
,
0310
0020
0000
0031
,
1000
0001
1000
0001
,
2002
0000
0000
3003
0100
0000
0010
0000
,
0100
0000
2002
0000
0000
3003
1001
0000
,
1000
0100
0010
0001
,
2002
0000
0010
0100
3013
0100
0010
0100
,
0010
0100
0000
0000
1000
0000
0100
0000
,
0010
0001
0010
0100
,
1000
0000
0000
1000
,
1000
0100
0100
0022
,
0000
0000
0133
0010
0100
0010
0100
0010
,
0100
1000
0100
1000
,
0010
0001
2002
0000
,
3223
0330
0000
1000
0000
0000
0100
0000
0000
0010
0000
0000
,
0001
0010
0100
1000
,
1000
1000
0100
0100
,
1001
1000
0001
0200
,
0310
1000
0001
0100
,
0010
2002
3003
1000
,
0100
0010
0001
0010
,
0100
1000
1001
1001
,
2002
0000
3003
0000
1000
0100
1000
0010
,
0001
0010
0100
1000
0100
0010
0001
0010
,
0000
0000
1000
0100
,
0010
0001
1000
0100
,
0010
0001
2002
0000
,
3003
2000
0010
0010
,
0010
0010
0010
3010
,
0000
0000
1000
0100
,
1000
0010
0001
0010
,
0100
1000
0100
0010
,
0001
0010
0100
1000
,
0100
0010
0001
0010
,
0220
0000
0000
0000
,
0000
0330
0000
0000
,
1001
0100
0010
0100
,
1000
0001
0100
0010
,
2002
3003
1000
0100
,
1000
0010
0001
0010
,
2002
0000
3003
1000
,
0010
1000
0100
0001
,
2200
0000
3300
0022
,
0000
0033
1000
0100
,
0010
0001
0010
1001
,
0000
1000
0100
0010
,
1001
0000
2000
0000
,
3200
0320
0032
0000
,
0003
0000
2002
0000
0000
0000
0000
3003
;
