#TITLE:Steel Gods of the Last Apocalypse;
#SUBTITLE:;
#ARTIST:Rhapsody;
#TITLETRANSLIT:;
#SUBTITLETRANSLIT:;
#ARTISTTRANSLIT:;
#CREDIT:Arvin;
#BANNER:../bn-Rhapsody.png;
#BACKGROUND:../Rhapsody-bg.png;
#LYRICSPATH:;
#CDTITLE:;
#MUSIC:08 - Rhapsody - Steelgods Of The Last Apocalypse.ogg;
#OFFSET:0.162;
#SAMPLESTART:37.500;
#SAMPLELENGTH:10.000;
#SELECTABLE:YES;
#BPMS:0.000=174.000;
#STOPS:;
#BGCHANGES:;
// cache tags:
#FIRSTBEAT:1.000;
#LASTBEAT:995.000;
#SONGFILENAME:Songs/Rhapsody of Fire/Steelgods of the Last Apocalypse - [Arvin]/steelgod.sm;
#HASMUSIC:1;
#HASBANNER:1;
#MUSICLENGTH:348.760;
// end cache tags

//---------------dance-single - ----------------
#NOTES:
     dance-single:
     :
     Challenge:
     14:
     1.000,1.000,0.181,0.241,1.000,2593.000,63.000,84.000,84.000,0.000:

0000
0000
0000
1000
0000
0000
0001
1000
0001
1000
0000
0000
,
0001
0010
0001
0010
0000
0000
0100
1000
0100
1000
0001
1000
,
0001
0100
0001
0100
0000
0000
0010
1000
0010
1000
0000
0000
,
0001
0100
0001
0100
0000
0000
0010
1000
0010
1000
0001
1000
,
0001
0100
0001
0100
0000
0000
0010
1000
0010
1000
0000
0000
,
0001
1000
0001
1000
0000
0000
0001
0010
0001
0010
0100
1000
,
0100
1000
0001
1000
0000
0000
0001
0100
0001
0100
0000
0000
,
0010
1000
0010
1000
0000
0000
0001
0100
0001
0100
0010
1000
,
0010
1000
0001
1000
0000
0000
0000
0000
0000
0000
0000
0000
,
0000
0000
1001
1000
0001
1000
0100
0010
,
0100
0010
0001
1000
0001
1000
0001
0010
,
0100
1000
0001
0100
0001
0100
0010
1000
,
0100
1000
0001
1000
0010
1000
0001
0010
,
0100
1000
1001
0001
1000
0001
0010
0100
,
0010
0100
1000
0001
1000
0001
1000
0100
,
0010
0001
1000
0010
1000
0010
0100
0001
,
0010
0001
1000
0001
0100
0001
1000
1100
,
1010
0000
1001
0000
0001
1000
0001
1000
0010
0100
0001
1000
0100
0010
0100
0010
,
0001
1000
0010
0100
0001
0010
0001
0010
0100
1000
0001
0100
0010
1000
0010
1000
,
0001
0100
0010
1000
0100
0010
0100
0010
0001
1000
0100
0010
0001
1000
0001
1000
,
0010
0100
0001
1000
0001
0100
0001
0100
0010
1000
0100
0010
0100
1000
0100
1000
,
0001
0100
0010
1000
0001
0100
0001
0100
0010
1000
0001
0100
0010
1000
0010
1000
,
0001
0010
0100
1000
0001
0100
0001
0100
0010
1000
0100
0010
0001
1000
0001
1000
,
0100
0010
0001
1000
0010
0100
0010
0100
0001
1000
0010
0100
0001
1000
0001
1000
,
0010
0100
0001
0010
0100
1000
0100
1000
0001
0100
0010
1000
0100
0010
0100
0010
,
0001
1000
0010
0100
0001
1000
0001
1000
0010
0100
0001
1000
0100
0010
0100
0010
,
0001
1000
0010
0100
0001
0010
0001
0010
0100
1000
0001
0100
0010
1000
0010
1000
,
0001
0100
0010
1000
0100
0010
0100
0010
0001
1000
0100
0010
0001
1000
0001
1000
,
0010
0100
0001
1000
0001
0100
0001
0100
0010
1000
0100
0010
0100
1000
0100
1000
,
0001
0100
0010
1000
0001
0100
0001
0100
0010
1000
0001
0100
0010
1000
0010
1000
,
0001
0010
0100
1000
0001
0100
0001
0100
0010
1000
0100
0010
0001
1000
0001
1000
,
0100
0010
0001
1000
0010
0100
0010
0100
0001
1000
0010
0100
0001
1000
0001
1000
,
0010
0100
0001
0010
0100
1000
0100
1000
0001
0100
0010
1000
0001
0000
0011
0000
,
1001
1010
1001
0001
1000
0001
0010
0100
,
0010
0100
1000
0001
1000
0001
1000
0100
,
0010
0001
1M00
0010
1000
0010
0100
0001
,
0010
0001
1000
0001
0100
0001
1000
0100
,
0010
0001
1001
1000
0001
1000
0100
0010
,
0100
0010
0001
1000
0001
1000
0001
0010
,
0100
1000
00M1
0100
0001
0100
0010
1000
,
0100
1000
0001
1000
0010
1000
0001
0100
,
0001
0010
0100
1000
1001
0000
0001
0000
0001
0000
0010
0000
0000
0000
0100
0000
,
0100
1000
0010
0100
0001
0100
0010
1000
,
0001
0010
0100
1000
0010
0100
0001
1000
,
0100
0010
0001
0010
0100
1000
0100
0010
,
0001
0100
0010
1000
0010
0100
0000
0001
,
1000
1000
1000
0010
0100
0001
1000
0100
,
0010
0001
0010
0100
1000
0001
1000
0010
,
0100
0001
1000
0100
0010
0001
1000
0000
,
0000
000M
0000
0000
2000
0000
3200
0000
,
0320
0000
0000
0000
0031
1000
0100
0010
0001
1000
0001
1000
0010
0100
0001
1000
,
0100
0010
0001
1000
0010
1000
0001
0100
0010
1000
0100
0010
0001
0100
0010
1000
,
0100
0010
0001
0010
0100
1000
0001
0100
0001
1000
0010
0100
0001
1000
0100
0010
,
0001
0010
0100
1000
0001
0010
0001
1000
0100
0010
0001
0010
0100
1000
0001
0100
,
0001
1000
0010
1000
0001
0000
0100
0000
0010
0000
1000
0000
0000
0000
0001
0010
,
0100
1000
1001
0001
0100
0110
0010
1000
,
0000
0000
0000
0000
MMMM
0000
0000
0000
0000
0000
0000
0000
0001
0000
0000
1000
0000
0000
0010
0000
0000
0100
0000
0000
0001
0000
0000
1000
0000
0000
0001
0000
0000
1000
0000
0000
0100
0000
0000
0010
0000
0000
0001
0000
0000
1000
0000
0000
,
0010
0100
0001
1000
0100
1000
0001
0010
0100
1000
0010
0100
0001
0010
0100
1000
,
0010
0100
0001
0100
0010
1000
0001
0010
0001
1000
0100
0010
0001
1000
0010
0100
,
0001
0100
0010
1000
0001
0100
0001
1000
0010
0100
0001
0100
0010
1000
0001
0010
,
0001
1000
0100
1000
0001
0000
0010
0000
0100
0000
1000
0000
0000
0000
0001
0100
,
0010
1000
1001
0001
0010
0110
0100
1000
,
0001
MMMM
1000
0000
1001
0000
1000
0010
,
1010
0000
0100
0001
0101
0000
1000
0100
,
1100
0000
1001
0000
1010
0000
0001
0100
,
0101
0000
0001
1000
1001
0000
1000
0100
,
1100
0000
1000
0000
1001
0000
1000
0100
,
1100
0000
0000
0000
1000
0000
0100
0000
0010
0000
0001
0000
0100
0000
0001
1000
,
0001
1000
0010
0100
0001
1000
0001
1000
0010
0100
0001
1000
0100
0010
0100
0010
,
0001
1000
0010
0100
0001
0010
0001
0010
0100
1000
0001
0100
0010
1000
0010
1000
,
0001
0100
0010
1000
0100
0010
0100
0010
0001
1000
0100
0010
0001
1000
0001
1000
,
0010
0100
0001
1000
0001
0100
0001
0100
0010
1000
0100
0010
0100
1000
0100
1000
,
0001
0100
0010
1000
0001
0100
0001
0100
0010
1000
0001
0100
0010
1000
0010
1000
,
0001
0010
0100
1000
0001
0100
0001
0100
0010
1000
0100
0010
0001
1000
0001
1000
,
0100
0010
0001
1000
0010
0100
0010
0100
0001
1000
0010
0100
0001
1000
0001
1000
,
0010
0100
0001
0010
0100
1000
0100
1000
0001
0100
0010
1000
0100
0010
0100
0010
,
0001
1000
0010
0100
0001
1000
0001
1000
0010
0100
0001
1000
0100
0010
0100
0010
,
0001
1000
0010
0100
0001
0010
0001
0010
0100
1000
0001
0100
0010
1000
0010
1000
,
0001
0100
0010
1000
0100
0010
0100
0010
0001
1000
0100
0010
0001
1000
0001
1000
,
0010
0100
0001
1000
0001
0100
0001
0100
0010
1000
0100
0010
0100
1000
0100
1000
,
0001
0100
0010
1000
0001
0100
0001
0100
0010
1000
0001
0100
0010
1000
0010
1000
,
0001
0010
0100
1000
0001
0100
0001
0100
0010
1000
0100
0010
0001
1000
0001
1000
,
0100
0010
0001
1000
0010
0100
0010
0100
0001
1000
0010
0100
0001
1000
0001
1000
,
0010
0100
0001
0010
0100
1000
0100
1000
0001
0100
0010
1000
0001
0100
0010
1000
,
0010
1000
0010
0000
1M1M
0000
0000
0000
1M1M
0000
0000
0000
0000
0000
0000
0000
,
2000
3MM2
0000
0203
,
0000
M32M
0000
0000
,
2030
32MM
0000
032M
,
0000
0000
0000
0M31
1000
0001
0010
0100
1000
0001
0100
0010
,
1000
0100
1000
0001
0100
0010
1000
0001
1000
0010
0100
0010
,
1000
0100
0010
0001
0010
0100
1000
0001
1000
0010
0100
0001
,
1000
0100
0010
0001
1000
0001
0100
0010
1000
0100
0010
0001
,
1000
0000
0000
0000
0100
0000
0000
0000
1000
0000
0000
0000
0001
0000
0000
0000
0000
0000
0100
0000
0000
0000
0000
0000
0010
0000
0000
0000
0000
0000
0000
0000
0000
0000
0000
0000
0000
0000
0000
0000
0000
0000
1000
0000
0000
0100
0000
0000
,
0010
0001
0100
0010
1000
0000
0000
0000
1001
0000
0000
0000
0000
0000
0000
0000
,
0002
2MM3
0000
3020
,
0000
M23M
0000
0000
,
0302
MM23
0000
M230
,
0000
0000
0000
13M0
0001
1000
0100
0010
0001
1000
0010
0100
,
0001
0010
0001
1000
0010
0100
0001
1000
0001
0100
0010
0100
,
0001
0010
0100
1000
0100
0010
0001
1000
0001
0100
0010
1000
,
0001
0010
0100
1000
0001
1000
0010
0100
0001
0010
0100
1000
,
0001
0000
0010
0000
0001
0000
1000
0000
0000
0010
0000
0000
0100
0000
0000
0000
0000
0000
0000
0000
0000
0000
0000
0000
,
0002
0000
0000
1003
0100
0010
0001
0010
0100
1000
0100
0010
,
0001
0010
0100
1000
0001
0100
0010
1000
0010
0100
0001
0100
,
0010
0000
0000
0000
1000
0000
0000
0000
0001
0000
0000
0000
1000
0000
0000
0100
0000
0000
1000
0000
0000
0001
0000
0000
1000
0000
0000
0100
0000
0000
1000
0000
0000
0001
0000
0000
1000
0000
0000
0100
0000
0000
1000
0000
0000
0001
0000
0000
,
1000
0100
1000
0100
1000
0001
0100
0001
1000
0001
0100
0001
1000
0010
0100
0010
,
1000
0010
0100
0010
1000
0100
0010
0100
1000
0100
0010
0100
1000
0001
0010
0001
,
1000
0000
0000
0001
0000
0000
0010
0000
0000
0001
0000
0000
1000
0000
0000
0000
0100
0000
0000
0000
0010
0000
0000
0000
0001
0000
0000
0000
0010
0000
0000
0000
0100
0000
0000
0000
2000
0000
0000
0000
0000
0000
0000
0000
0000
0000
0000
0000
,
0000
0000
0000
0000
0000
0000
0000
0000
0000
0000
0000
0000
3001
0000
1000
0000
0001
0000
1001
0000
0000
1000
0000
0000
,
0001
1000
0100
0010
0100
0010
0001
1000
,
0001
1000
0001
0010
0100
1000
00M1
0100
,
0001
0100
0010
1000
0100
1000
0001
1000
,
0010
1000
0001
0010
0100
1000
1001
0001
,
1000
0001
0010
0100
0010
0100
1000
0001
,
1000
0001
1000
0100
0010
0001
1M00
0010
,
1000
0010
0100
0001
0010
0001
1000
0001
,
0100
0000
0001
0000
1000
0000
0010
0000
1000
0100
0010
0001
1001
0000
1000
0000
,
1000
0100
0000
0010
0010
0001
0100
0010
,
1000
0010
0100
0001
1000
0100
0010
0001
,
0100
0010
1000
0001
0010
0100
1000
0100
,
0010
0001
0010
0100
1000
0010
0100
0001
,
0100
0010
0000
1000
0001
0001
0001
0100
,
0010
1000
0001
0010
0100
1000
0100
0010
,
0001
1000
0001
0100
0010
1000
0001
0010
,
0100
1000
0001
0000
0000
M000
0000
0000
,
0002
0000
0000
0000
0023
0000
0000
0000
0230
0000
0000
0000
1300
0001
0010
0100
,
1000
0001
1000
0001
0100
0010
1000
0001
0010
0100
1000
0001
0100
0001
1000
0010
,
0100
0001
0010
0100
1000
0010
0100
0001
0010
0100
1000
0100
0010
0001
1000
0010
,
1000
0001
0100
0010
1000
0001
0010
0100
1000
0100
0010
0001
1000
0100
1000
0001
,
0010
0100
1000
0100
0010
0001
1000
0010
1000
0001
0100
0001
1000
0000
0010
0000
,
0100
0000
0001
0000
0000
0000
1000
0100
0010
0000
0001
0000
1001
0000
1000
0000
,
0010
0000
0110
0000
0100
0000
0001
0000
0000
MMMM
0000
0000
1000
0001
0100
0010
,
1000
0001
1000
0001
0010
0100
1000
0001
0100
0010
1000
0001
0010
0001
1000
0100
,
0010
0001
0100
0010
1000
0100
0010
0001
0100
0010
1000
0010
0100
0001
1000
0100
,
1000
0001
0010
0100
1000
0001
0100
0010
1000
0010
0100
0001
1000
0010
1000
0001
,
0100
0010
1000
0010
0100
0001
1000
0100
1000
0001
0010
0001
1000
0000
0100
0000
,
0010
0000
0001
0000
0000
0000
1000
0010
0100
0000
0001
0000
1001
0000
1000
0000
,
0100
0110
0010
0001
1000
MMMM
0001
0000
,
1001
0000
0001
0100
0101
0000
0010
1000
,
1010
0000
0001
0010
0011
0000
1001
0000
,
0101
0000
1000
0010
1010
0000
1000
0001
,
1001
0000
0001
0010
0011
0000
0001
0000
,
1001
0000
0001
0010
0011
0000
0001
0010
,
0100
0000
1000
0000
0001
0000
1000
0001
1000
0001
0100
0010
1000
0001
1000
0001
,
0100
0010
1000
0001
0010
0100
0010
0100
1000
0001
0100
0010
1000
0100
1000
0100
,
0010
0001
1000
0010
0100
0001
0100
0001
1000
0010
0100
0001
0010
0100
0010
0100
,
1000
0001
0010
0100
1000
0001
1000
0001
0100
0010
1000
0001
1000
0010
1000
0010
,
0100
0001
0010
0100
0010
0001
0010
0001
1000
0010
0100
0001
1000
0010
1000
0010
,
0100
0001
1000
0010
0100
0001
0100
0001
1000
0100
0010
0001
1000
0010
1000
0010
,
0100
0001
0010
0100
1000
0001
1000
0001
0010
0100
1000
0001
0100
0010
0100
0010
,
1000
0001
0100
0010
1000
0001
1000
0001
0100
0010
1000
0100
0010
0001
0010
0001
,
1000
0010
0100
0001
0010
0100
0010
0100
1000
0001
0100
0010
1000
0001
1000
0001
,
0100
0010
1000
0001
0010
0100
0010
0100
1000
0001
0100
0010
1000
0100
1000
0100
,
0010
0001
1000
0010
0100
0001
0100
0001
1000
0010
0100
0001
0010
0100
0010
0100
,
1000
0001
0010
0100
1000
0001
1000
0001
0100
0010
1000
0001
1000
0010
1000
0010
,
0100
0001
0010
0100
0010
0001
0010
0001
1000
0010
0100
0001
1000
0010
1000
0010
,
0100
0001
1000
0010
0100
0001
0100
0001
1000
0100
0010
0001
1000
0010
1000
0010
,
0100
0001
0010
0100
1000
0001
1000
0001
0010
0100
1000
0001
0100
0010
0100
0010
,
1000
0001
0100
0010
1000
0001
1000
0001
0100
0010
1000
0100
0010
0001
0010
0001
,
1000
0010
0100
0001
1000
0010
0100
0001
0100
0001
0100
0000
M1M1
0000
0000
0000
,
M1M1
0000
0002
2MM3
,
0000
3020
0000
M23M
,
0000
0000
0302
MM23
,
0000
0000
0000
M230
0000
0000
0000
0000
0000
13M0
0001
1000
,
0100
0010
0001
1000
0010
0100
0001
0010
0001
1000
0010
0100
,
0001
1000
0001
0100
0010
0100
0001
0010
0100
1000
0100
0010
,
0001
1000
0001
0100
0010
1000
0001
0010
0100
1000
0001
1000
,
0010
0000
0100
0000
0001
0000
0010
0000
0100
0000
1000
0000
0001
0000
0010
0000
0001
0000
1000
0000
0000
0010
0000
0000
,
0100
0000
0000
0000
0000
0000
0001
0010
0100
1000
0010
0100
0001
0000
0000
0000
,
1001
0000
2000
3MM2
,
0000
0203
0000
M32M
,
0000
0000
2030
32MM
,
0000
0000
0000
032M
0000
0000
0000
0000
0000
0M31
1000
0001
,
0010
0100
1000
0001
0100
0010
1000
0100
1000
0001
0100
0010
,
1000
0001
1000
0010
0100
0010
1000
0100
0010
0001
0010
0100
,
1000
0001
1000
0010
0100
0001
1000
0100
0010
0001
1000
0001
,
0100
0000
0010
0000
1000
0000
0100
0000
0010
0000
0001
0000
1000
0000
0100
0000
1000
0000
0001
0000
0000
0100
0000
0000
,
0010
0000
0000
0000
0000
0000
2000
0000
0000
3001
0010
0100
,
1000
0100
0010
0001
0010
0100
1000
0100
0010
0001
1000
0010
,
0100
0000
0000
0000
0001
0000
0000
0000
0100
0000
0000
0000
0010
0000
0000
0000
1000
0000
0000
0000
0010
0000
0000
0000
0100
0000
0000
0000
0001
0000
0000
0000
1000
0000
0000
0000
0001
0000
0000
0010
0000
0000
0001
0000
0000
1000
0000
0000
,
0001
0010
0001
1000
0001
0010
0001
1000
0001
0010
0001
0010
0001
1000
0010
1000
,
0001
1000
0010
1000
0001
0100
0010
0100
0001
0100
0010
0100
0001
0010
0100
0010
,
0001
0000
0000
0010
0000
0000
0100
0000
0000
0010
0000
0000
0001
0000
0000
1000
0000
0000
0100
0000
0000
1000
0000
0000
0001
0000
0000
1000
0000
0000
0100
0000
0000
1000
0000
0000
0001
0000
0000
0000
0010
0000
0000
0000
0100
0000
0000
0000
,
1000
0000
0100
0000
0010
0000
0002
0000
0000
0000
0000
0000
0000
0000
0000
0003
0000
0000
1001
0000
0000
1000
0000
0000
,
1010
0000
1010
0000
1000
0100
0010
0001
0010
0100
1000
0001
0100
0000
0010
0000
,
1000
0000
0001
0000
1000
0100
0010
0001
1000
0010
1000
0001
0100
0010
1000
0001
,
0100
0010
1000
0001
1000
0100
0010
0001
0010
0100
1000
0001
0100
0000
0010
0000
,
1000
0000
0001
0000
1000
0100
0010
0001
1000
0010
1000
0001
0100
0010
1000
0001
,
0100
0010
1000
0001
1000
0100
0010
0001
0010
0100
0010
0100
1000
0001
0100
0001
,
1000
0010
1000
0010
0100
0001
1000
0100
0010
0001
0010
0001
1000
0010
0100
0001
,
1000
0010
1000
0010
0100
0001
1000
0100
0010
0001
0010
0001
1000
0010
0100
0001
,
4000
0000
0000
3001
0010
0100
1000
0100
0010
0004
0000
0000
,
0000
0000
0000
0000
1003
0100
4000
0000
0000
0000
0000
0000
3001
0010
0100
1000
,
0100
0010
0001
1000
0010
0000
0100
0000
0001
0000
1000
0000
0001
0010
0100
1000
,
0001
0100
0001
1000
0010
0100
0001
1000
0010
0100
0001
1000
0001
0010
0100
1000
,
0100
0010
0001
1000
0010
0000
0100
0000
0001
0000
1000
0000
0001
0010
0100
1000
,
0001
0100
0001
1000
0010
0100
0001
1000
0010
0100
0001
1000
0001
0010
0100
1000
,
0100
0010
0100
0010
0001
1000
0010
1000
0001
0100
0001
0100
0010
1000
0001
0010
,
0100
1000
0100
1000
0001
0100
0010
1000
0001
0100
0001
0100
0010
1000
0001
0010
,
0100
0000
0000
1000
0000
0000
0100
0000
0000
1000
0000
0000
0001
0000
0000
0100
0000
0000
0010
0000
0000
1000
0000
0000
0004
0000
0000
0000
0000
0000
0000
0000
0000
0000
0000
0000
1003
0000
0000
0000
0100
0000
0000
0000
0010
0000
0000
0000
,
0001
0000
0000
0000
0010
0000
0000
0000
0100
0000
0000
0000
4000
0000
0000
0000
0000
0000
0000
0000
0000
0000
0000
0000
0000
0000
0000
0000
0000
0000
0000
0000
0000
0000
0000
0000
3001
0000
0000
0010
0000
0000
0004
0000
0000
0000
0000
0000
,
0000
0000
0000
0000
1003
0100
0010
0100
1000
0001
0010
0100
1000
0001
1000
0010
,
0100
0001
1000
0100
0010
0001
0010
0100
1000
0001
1000
0010
0100
0001
1000
0010
,
0100
0001
0100
0010
1000
0010
0100
0010
1000
0001
0100
0010
1000
0001
1000
0100
,
0010
0001
1000
0010
0100
0001
0100
0010
1000
0001
1000
0100
0010
0001
1000
0100
,
0010
0001
0010
0100
2000
0000
0000
0000
3001
0000
0200
0000
0000
0000
0320
0000
,
0000
0000
0000
0000
1030
0000
0000
0000
0001
2000
0000
0000
0000
0000
0000
0000
0000
0000
0000
0000
0000
0000
0000
0000
3200
0000
0000
0000
0000
0000
0000
0000
,
0000
0000
0000
0000
0310
0000
0000
0001
0000
0000
0001
0000
1000
0000
0000
0010
,
0000
0000
0100
0000
0001
0000
0000
1000
0000
0000
1000
0000
0100
0000
0000
0010
,
0000
0001
1000
0020
0000
1030
0020
0000
,
1030
0020
0000
1030
0002
0000
0203
0000
,
0310
2000
0000
3010
2000
0000
3010
2000
,
0000
3010
0200
0000
0302
0000
2003
0000
,
0000
0000
0000
0000
0000
0000
0000
0000
0000
0000
0000
0000
0000
0000
0000
0000
3001
2000
0000
0000
0000
0000
0000
0000
3001
0000
0010
0000
0002
0000
0000
0000
,
0000
0000
0203
0000
0000
0300
0200
0000
,
0000
0000
0000
0000
0301
0010
0200
0000
,
0000
0000
0000
0000
1300
0000
0001
0100
0010
1000
0010
1000
0001
0000
0200
0000
,
0000
0301
0200
0000
0301
0200
0000
0301
,
2000
0000
3020
0000
0130
0002
0000
0103
,
0002
0000
0103
0002
0000
0103
0020
0000
,
2030
0000
0000
0000
0000
0000
3001
0010
0100
1000
0001
1000
0001
0010
0100
1000
0001
0010
0001
1000
0100
0010
0001
1000
,
0001
0000
1000
0000
0100
0000
0010
0000
0001
0000
1000
0000
0001
0000
0000
0010
0000
0000
0100
0000
0000
0010
0000
0000
0001
0000
0000
0010
0000
0000
0100
0000
0000
1000
0000
0000
0100
0000
0000
0010
0000
0000
0001
0000
0000
0010
0000
0000
,
0100
1000
0001
0100
0001
1000
0010
0100
0001
1000
0010
0100
0001
0010
0100
1000
,
0001
0100
0001
1000
0001
0010
0001
1000
,
0001
0100
M1M1
0000
M1M1
0000
0000
0000
,
0002
2MM3
0000
3020
,
0000
M23M
0000
0000
,
0302
MM23
0000
M230
,
0000
0000
0000
13M0
0001
1000
0100
0010
0001
1000
0010
0100
,
0001
0010
0001
1000
0010
0100
0001
1000
0001
0100
0010
0100
,
0001
0010
0100
1000
0100
0010
0001
1000
0001
0100
0010
1000
,
0001
0010
0100
1000
0001
1000
0010
0100
0001
0010
0100
1000
,
0001
0000
0000
0000
0010
0000
0000
0000
0001
0000
0000
0000
1000
0000
0000
0000
0000
0000
0010
0000
0000
0000
0000
0000
0100
0000
0000
0000
0000
0000
0000
0000
0000
0000
0000
0000
0000
0000
0000
0000
0000
0000
0001
0000
0000
0010
0000
0000
,
0100
1000
0010
0100
0001
0000
0000
0000
1MM1
0000
0000
0000
0000
0000
0000
0000
,
2000
3002
0000
M2M3
,
0000
M32M
0000
0000
,
2030
32MM
0000
032M
,
0000
0000
0000
0M31
1000
0001
0010
0100
1000
0001
0100
0010
,
1000
0100
1000
0001
0100
0010
1000
0001
1000
0010
0100
0010
,
1000
0100
0010
0001
0010
0100
1000
0001
1000
0010
0100
0001
,
1000
0100
0010
0001
1000
0001
0100
0010
1000
0100
0010
0001
,
1000
0000
0100
0000
1000
0000
0001
0000
0000
0100
0000
0000
0010
0000
0000
0000
0000
0000
0000
0000
0000
0000
0000
0000
,
1000
0100
0010
0001
0010
0100
1000
0100
0010
0001
0010
0100
,
1000
0100
0010
0001
1000
0010
0100
0001
0100
0010
1000
0010
,
0100
0000
0000
0000
0001
0000
0000
0000
1000
0000
0000
0000
0001
0000
0000
0010
0000
0000
0001
0000
0000
1000
0000
0000
0001
0000
0000
0010
0000
0000
0001
0000
0000
1000
0000
0000
0001
0000
0000
0010
0000
0000
0001
0000
0000
1000
0000
0000
,
0001
0010
0001
0010
0001
1000
0010
1000
0001
1000
0010
1000
0001
0100
0010
0100
,
0001
0100
0010
0100
0001
0010
0100
0010
0001
0010
0100
0010
0001
1000
0100
1000
,
0001
0000
0000
1000
0000
0000
0100
0000
0000
1000
0000
0000
0001
0000
0000
0000
0010
0000
0000
0000
0100
0000
0000
0000
1000
0000
0000
0000
0100
0000
0000
0000
0010
0000
0000
0000
0002
0000
0000
0000
0000
0000
0000
0000
0000
0000
0000
0000
,
0000
0000
0000
0000
0000
0000
0000
0000
1003
0001
1000
0001
1001
0000
0000
0000
;
