#TITLE:Jingle Bells;
#SUBTITLE:(Basshunter Remix);
#ARTIST:Basshunter;
#TITLETRANSLIT:;
#SUBTITLETRANSLIT:;
#ARTISTTRANSLIT:;
#CREDIT:;
#BANNER:jingle bells.png;
#BACKGROUND:jingle bells-bg.png;
#LYRICSPATH:;
#CDTITLE:;
#MUSIC:Jingle Bells [Basshunter Remix].ogg;
#OFFSET:-3.260;
#SAMPLESTART:56.403;
#SAMPLELENGTH:13.600;
#SELECTABLE:YES;
#BPMS:0.000=70.000,20.000=140.000,52.000=70.000,56.000=140.000;
#STOPS:;
#BGCHANGES:;
// cache tags:
#FIRSTBEAT:0.000;
#LASTBEAT:346.000;
#SONGFILENAME:Songs/Rodd's Rad Christmas Pack/Jingle Bells (Basshunter Remix) (Rodd Steps)/Jingle Bells (Basshunter Remix) (Rodd Steps).sm;
#HASMUSIC:1;
#HASBANNER:1;
#MUSICLENGTH:105.000;
// end cache tags

//---------------dance-single - R. Farias----------------
#NOTES:
     dance-single:
     R. Farias:
     Challenge:
     10:
     1.000,1.000,0.429,0.752,1.000,719.000,45.000,79.000,150.000,3.000:

0002
0000
0203
0000
0320
0000
0000
0000
2030
0000
3200
0320
0000
0000
0030
0000
,
0002
0000
2003
0000
3002
0000
0000
0103
0020
0000
0000
0000
0M30
0000
0000
0000
,
0200
0000
0320
0000
2030
0000
0000
3001
2000
0000
3100
0020
0000
0000
0130
1000
,
0002
0203
0320
2030
0002
0000
0000
0000
,
3003
0000
0000
0000
0000
0000
0000
0MM0
M00M
0MM0
0000
0000
0000
0000
0000
0000
,
1001
0000
0001
0000
0100
0000
0010
1000
0100
0000
0010
0000
0001
0000
0100
0010
,
1000
0000
0000
0000
0000
0000
0100
0000
0000
0000
0000
0000
1000
0000
0000
0000
0000
0000
0010
0000
0000
0100
0000
0000
0001
0000
0000
0000
0000
0000
1000
0000
0000
0000
0000
0000
0001
0000
0000
0100
0000
0000
0010
0000
1000
0000
0010
0000
,
1000
0000
0001
0000
1000
0000
0100
0010
0001
0000
0100
0000
0010
0000
0100
0001
,
1000
0000
0100
0000
1000
0000
0010
0100
0001
0000
1001
0000
1000
0100
0010
0001
,
1000
0000
0001
0000
0100
0000
0010
1000
0000
0000
0001
0000
1000
0000
0100
0010
,
0000
0000
0000
0000
0000
0000
0001
0000
0000
0000
0000
0000
0100
0000
0000
0000
0000
0000
0010
0000
0000
1000
0000
0000
0000
0000
0000
0000
0000
0000
0001
0000
0000
0000
0000
0000
1000
0000
0001
0000
1000
0000
0001
0000
0000
1000
0000
0000
,
0001
0000
0100
0000
0010
0000
0100
0001
0000
0000
1000
0000
0000
0000
0100
0010
,
0110
0000
0000
0000
0000
0000
0000
0000
0000
0000
0000
0000
0000
0000
0000
0000
0000
0000
0000
0000
0000
0000
0000
0000
1001
0000
0000
0000
0000
0000
0001
0000
0000
0000
0000
0000
0100
0000
0010
0000
1000
0000
0001
0000
0000
1000
0000
0000
,
0200
0000
0000
0000
0300
0000
0MM0
0000
MMMM
M00M
M00M
0MM0
0000
0000
0000
0000
,
0020
0000
0032
0000
0203
0000
0320
0000
2030
0000
3001
0000
1000
0000
0100
0010
,
0002
0203
0320
0230
0302
1003
0100
1000
,
0020
0032
0023
2030
3200
0310
0100
1000
,
0001
0000
0001
0000
0200
0000
0000
0310
2000
0000
0000
0000
3002
0000
0000
0000
,
1003
0100
0110
0010
0001
1000
1001
0001
,
0100
0010
1010
1000
0100
0010
0011
0001
,
0100
0010
0110
0010
1010
0100
0101
0001
,
1100
0000
0000
1000
0000
0000
1001
0000
0000
0001
0100
0010
1000
0000
0000
1000
0000
0000
1100
0000
0000
0100
0000
0000
,
0010
0001
0200
0000
0310
0M01
0200
0000
,
0310
0000
0M01
0000
2000
0000
0000
3100
0020
0000
0000
0000
1031
0000
0000
0000
,
0001
0000
0100
0000
0020
0000
0000
1030
0001
0000
1000
0000
0100
0000
1000
0010
,
0100
0001
1000
0100
0020
0000
0100
0000
,
0031
0100
0020
0000
0031
01M0
0020
0000
,
0031
0000
01M0
0000
0020
0000
0000
1030
0001
0000
0000
0000
1001
0000
0000
0000
,
1000
0000
0100
0000
0010
0000
0000
0001
0100
0000
0010
0000
0100
0000
0001
1000
,
0100
0100
0010
0010
0011
0010
1010
1000
,
1001
0000
0000
MMMM
M00M
MMM0
M00M
0000
MMMM
M00M
MMMM
0000
MMM0
M00M
M00M
MMM0
,
0000
MMM0
M00M
M00M
MMM0
0000
0110
0000
0110
0000
1010
0000
0102
0000
0000
0000
,
1003
0000
0100
0010
0000
0100
1000
0001
0100
0000
0001
0100
0000
0001
0100
0010
,
1000
0000
0001
1000
0000
0001
1000
0100
0010
0000
0100
0000
1000
0000
0100
0000
,
0010
0000
0001
0100
0000
0010
1000
0100
0010
0000
0100
1000
0000
0001
0100
0010
,
1000
0000
0100
0010
0000
0100
0010
0001
1000
0000
0001
0000
0100
0010
1000
0100
,
0010
0000
0100
1000
0000
0001
0100
0010
1000
0000
0001
1000
0000
0100
0010
0001
,
1000
0000
0001
0100
0000
0010
1000
0100
0010
0000
0001
0000
1000
0000
0001
0000
,
0100
0000
0010
1000
0000
0010
1000
0100
0010
0000
0100
0010
0000
0100
0010
0001
,
1000
0000
0001
0000
1000
0000
0001
0000
0000
0000
1000
0000
0100
0000
0010
0000
0001
0000
0000
0000
0100
0000
0000
0000
0040
0000
0000
0000
0000
0000
0000
0030
,
1010
0000
1000
0100
0010
0000
0001
0100
0010
0000
1000
0100
0010
0000
0001
0100
,
0010
0000
1000
0001
1000
0000
0100
0010
0100
0000
1000
0001
1000
0000
0001
0000
,
0101
0000
0100
0010
1000
0000
0010
0100
0001
0000
0100
0010
1000
0000
0010
0100
,
0001
0000
1000
0100
0010
0000
0100
1000
0001
0000
1000
0100
0010
0000
0001
0000
,
1001
0000
0001
0100
0010
0000
0100
0001
1000
0000
0001
0100
0010
0000
0100
0001
,
1000
0000
0100
0010
0001
0000
0010
0100
1000
0000
0100
0010
0001
0000
0100
0000
,
0110
0000
0010
1000
0000
0010
1000
0100
0010
0000
0100
0010
0000
0100
1000
0001
,
0100
0000
0000
0010
0000
0000
1000
0000
0000
0001
0000
0000
0000
0000
0000
1000
0000
0000
0100
0000
0000
0010
0000
0000
0001
0000
0000
0000
0000
0000
0100
0000
0001
0000
0100
0000
0001
0000
0000
0000
0000
0000
0100
0000
0000
0000
0000
0000
,
0101
0000
0000
M00M
0MM0
0MM0
M00M
0000
0000
M00M
MMMM
MMMM
M00M
0000
0MM0
M00M
,
MMMM
M00M
M00M
0000
0MM0
M00M
M000
0MM0
000M
000M
MMM0
0000
0000
0000
0000
0000
,
2000
0000
3002
0000
0203
0000
0320
0000
2030
0000
3100
0000
0010
0000
0002
0203
,
0320
2030
3200
2300
3020
0130
0001
1000
,
0200
0302
0203
0320
0032
0103
0010
1000
,
0001
0000
0001
0000
2000
0000
0000
3100
0020
0000
0030
0000
0110
0000
0000
0000
,
0010
0001
0101
0100
0010
1000
1010
1000
,
0100
0010
0110
0010
0001
1000
1001
0001
,
0100
0010
0110
0001
1001
1000
1100
0100
,
0110
0000
0000
0010
0000
0000
0011
0000
0000
0001
0100
0010
1000
0000
0000
0001
0000
0000
1000
0000
0000
1000
0000
0000
,
0100
0000
0010
0001
0000
0001
0100
0000
1000
0100
0000
0001
,
1000
0000
0100
0020
0000
0000
0031
0000
0100
0020
0000
0000
,
0230
0000
0301
2000
0000
3100
0010
0000
0100
0001
0000
0100
,
0010
0000
0001
0100
0000
0010
1000
0000
0001
1000
0100
0010
,
0001
0000
0100
0010
0000
0100
0002
0000
0003
2002
0000
0003
,
3001
0000
0100
0020
0000
0000
0130
0000
0001
2000
0000
0000
,
3100
0000
0010
0001
0000
0001
2000
0000
0000
3101
0000
0000
,
0100
0000
0010
1000
0000
0010
0001
0000
0010
0100
0001
1000
,
0100
0000
0010
0100
0000
0100
0001
0000
0100
0010
0001
0100
,
0010
0000
0100
0010
0000
1000
0001
0000
0000
0000
0000
0000
,
1001
0000
0000
0101
0000
0000
0110
0000
0010
2000
0000
0000
,
3001
0000
1000
0100
0000
1000
0010
0100
0001
1000
0100
0010
,
0001
0010
0100
1000
0001
0100
0010
0000
0100
0001
0000
0100
,
0010
0000
1000
0100
0000
0010
0001
0100
0010
0100
0000
0001
,
1000
0000
0100
0010
0000
0100
1000
0000
0001
0100
0000
0010
,
1000
0000
0100
0010
0000
0100
1000
0001
0100
0010
1000
0100
,
1000
0010
0100
0001
1000
0100
0010
0000
0001
0100
0000
0010
,
1000
0000
0100
0010
0000
0001
0100
0010
1000
0100
0010
0001
,
0100
0000
0010
1000
0000
0100
0010
0000
0100
1000
0001
0100
,
0101
0100
0010
1000
0100
1000
0010
0100
0001
1000
0100
0010
,
0001
0010
0100
1000
0001
0100
0010
1000
0100
1000
0010
0100
,
0001
0010
0001
1000
0010
0100
0001
1000
0010
0100
0010
1000
,
0100
0010
0001
1000
0100
0010
0001
0100
0001
0010
0001
0100
,
0010
1000
0100
1000
0100
0010
0001
0100
0010
1000
0100
0001
,
0100
1000
0010
0100
0001
1000
0010
0100
0001
1000
0100
0010
,
0001
0000
0100
0010
0000
0100
0001
1000
0100
0010
0000
0001
,
0100
0000
0000
0000
0000
0000
0000
0000
0010
0000
0000
0000
1000
0000
0000
0000
0000
0000
0000
0000
0001
0000
0000
0000
1000
0000
0000
0000
0000
0000
0000
0000
0000
0MM0
0000
0000
M00M
0000
0000
0MM0
0000
0000
0000
0000
0000
0000
0000
0000
,
1111
0000
0000
MMM0
M00M
M00M
MMM0
M0M0
M00M
0000
0MM0
M00M
000M
0MM0
M000
MMMM
,
0000
0000
00M0
0MM0
00M0
00M0
00M0
00M0
0MMM
0000
0000
0000
0000
0000
0000
0000
;
