#TITLE:AA;
#SUBTITLE:;
#ARTIST:Dj. Amuro;
#TITLETRANSLIT:;
#SUBTITLETRANSLIT:;
#ARTISTTRANSLIT:;
#CREDIT:;
#BANNER:AA bn.png;
#BACKGROUND:AA bg.png;
#LYRICSPATH:;
#CDTITLE:DJS CD.png;
#MUSIC:RENAISSANCE - AA.mp3;
#OFFSET:-0.300;
#SAMPLESTART:17.123;
#SAMPLELENGTH:12.000;
#SELECTABLE:YES;
#BPMS:0.000=154.000;
#STOPS:;
#BGCHANGES:;
// cache tags:
#FIRSTBEAT:0.000;
#LASTBEAT:296.000;
#SONGFILENAME:Songs/IzzySM Keyboard Mega Pack/AA/AA.sm;
#HASMUSIC:1;
#HASBANNER:1;
#MUSICLENGTH:118.393;
// end cache tags

//---------------dance-single - ----------------
#NOTES:
     dance-single:
     :
     Hard:
     11:
     1.000,1.000,0.346,0.203,1.000,986.000,41.000,24.000,0.000,0.000:
1000
0001
1000
0001
1000
0100
0010
0001
0100
0010
1000
0100
0010
0001
0100
0010
,
1000
0100
1000
0100
0001
0010
0100
1000
0010
0100
0001
0010
0100
1000
0010
0100
,
0001
0010
0001
0010
1000
0100
0010
0001
1000
0100
0010
0001
0010
0100
1000
0010
,
0100
0010
0100
0010
1000
0100
0010
0001
1000
0100
0010
0001
0010
0100
1000
0001
,
1000
0100
0010
0001
1000
0100
0010
0001
0100
0010
1000
0100
1000
0001
0010
0100
,
1000
0001
0010
0100
1000
0100
0010
0001
0010
0100
1000
0010
0100
0001
0010
0001
,
1000
0100
0010
0001
1000
0100
0010
0001
0100
0010
1000
0100
0010
0001
0100
0010
,
1000
0100
0010
0001
1000
0100
0010
0001
0010
0100
1000
0001
0010
0100
1000
0100
,
0022
0000
0000
0000
0000
0033
0000
0000
1100
0000
0010
0000
0001
0000
1000
0000
,
0110
0000
0000
0000
0011
0100
1000
0001
,
0110
0000
0000
0000
0011
1000
0110
0001
,
1010
0100
0011
1000
0101
0010
1100
0010
,
1001
0000
0000
0000
0101
0010
1100
0010
,
0011
0000
0000
0000
0011
1000
0110
0001
,
1100
0000
0000
0000
0000
0000
0000
0000
0000
0000
0000
0000
0001
0000
0000
1000
,
0100
0000
0000
0000
0000
0000
0000
0000
0010
0000
1000
0000
0100
0010
0001
0000
,
1000
0100
0000
1000
0000
0000
0100
0000
0010
0000
1000
0000
0100
0000
0010
0000
,
1000
0100
0000
0010
0000
0000
1000
0000
0010
0000
0001
0000
0100
0000
1000
0000
,
0001
0010
0000
0100
0000
0000
1000
0000
0010
0000
0001
0000
1000
0000
0100
0000
,
0010
0100
0000
0001
1000
0000
0001
0000
0010
0000
0100
0000
0001
0000
1000
0000
,
0001
0010
0000
0100
0000
1000
0100
0000
0022
0033
0000
0220
0330
0000
2200
3300
,
0001
0010
0000
0100
0000
1000
0100
0000
0022
0033
0000
0220
0330
0000
2002
3003
,
0100
0010
0000
1000
0000
0010
0100
0000
2002
3003
0000
0022
0000
0033
0220
0330
,
1000
0100
0000
0001
0010
0100
1000
0100
0010
0001
1000
0100
0010
0001
0010
0100
,
1000
0100
1000
0100
1000
0100
0010
0001
0010
0100
1000
0001
0010
0100
1000
0010
,
0100
1000
0100
1000
0100
0010
0001
1000
0100
0010
0001
0010
0100
1000
0001
0010
,
0100
1000
0001
0010
0100
0010
0001
0010
0100
1000
0001
0010
0100
1000
0010
0100
,
0001
0010
0100
1000
0100
0010
0001
1000
0100
0010
0001
0010
0100
1000
0100
0010
,
0001
0100
0010
1000
0100
0010
0001
0010
0100
1000
0001
0010
0100
1000
0010
0100
,
0001
0010
0100
1000
0001
0010
0100
0010
0001
1000
0100
0010
0100
1000
0001
0010
,
0100
0010
0001
1000
0100
0010
0001
1000
0100
0010
0001
0100
0010
0001
0010
0100
,
1000
0100
0010
0001
1000
0100
0010
0001
0100
0010
1000
0100
0010
0001
0010
0100
,
2002
0000
0000
0000
0000
0000
0000
3003
,
0001
0010
0100
1000
0001
0010
0100
0010
0001
1000
0100
0010
0001
1000
0100
0010
,
0100
1000
0100
0010
0001
1000
0100
0010
0001
0010
0100
1000
0010
0100
0001
0010
,
0100
1000
0100
0010
0001
0100
0010
1000
0100
0010
0001
1000
0100
0010
0100
1000
,
0001
0010
0001
1000
0100
0010
0001
0100
0010
1000
0100
0010
0001
0010
0100
0001
,
0010
0100
1000
0100
0010
1000
0100
0010
0001
0010
0100
1000
0001
0010
0100
1000
,
0100
0010
0001
1000
0100
0010
0001
1000
0100
0010
0100
1000
0100
0010
0001
0010
,
0100
0010
0001
0010
0100
1000
0100
0010
0100
1000
0001
0010
0001
1000
0100
1000
,
0001
0010
0001
1000
0100
1000
0100
0010
0001
0100
0010
1000
0100
0010
0001
0010
,
1001
0000
0000
0000
1000
0000
0010
0010
,
0010
0000
1000
0000
0100
0000
0001
0000
0010
0000
0100
0000
0001
0000
0010
0100
,
1000
0000
0110
1001
0000
1100
0000
0110
,
0000
0000
0011
0000
0000
0000
0110
0000
0000
0000
1001
0000
0000
0000
0010
0100
,
1001
0001
1000
0001
1000
0001
1000
0001
1000
0001
1000
0001
1000
0001
1000
0001
,
0110
1000
0001
1000
0001
1000
0001
1000
0001
1000
0001
1000
0001
1000
0001
1000
,
0110
0001
1000
0001
1000
0001
1000
0001
0110
1000
0001
1000
0001
1000
0001
1000
,
0010
0100
0010
0100
0010
0100
0010
0100
0010
0100
0010
0100
0010
0100
0010
0100
0010
0100
0010
0100
0010
0100
0010
0100
0010
0100
0010
0100
0010
0100
0010
0100
,
1000
0100
1000
0100
1000
0100
1000
0100
1000
0010
1000
0010
1000
0010
1000
0010
,
0100
0010
0100
0010
0100
0010
0100
0010
0100
0001
0100
0001
0100
0001
0100
0001
,
0010
0001
0010
0001
0010
0001
0010
0001
1000
0001
1000
0001
1000
0001
1000
0001
,
1000
0010
1000
0010
1000
0010
1000
0010
0100
0010
0100
0010
0100
0010
0100
0010
,
0001
0010
0100
1000
0001
0010
0100
1000
0100
0010
0001
0100
0010
1000
0100
0010
,
0001
0010
0100
1000
0001
0010
0100
1000
0100
0010
0001
0100
0010
1000
0100
0010
,
0001
0010
0100
1000
0001
0010
0100
1000
0100
0010
0001
0100
0010
1000
0100
0010
,
0001
0010
0100
1000
0001
0010
0100
1000
0100
0010
0001
0100
0010
1000
0100
0010
,
0001
0010
0100
1000
0001
0010
0100
1000
0001
0010
0100
1000
0100
0010
0100
1000
,
0100
0010
0001
1000
0100
0010
0001
1000
0100
0010
0001
0010
0100
0010
0001
0010
,
0100
1000
0001
0010
0100
1000
0001
0010
0100
1000
0100
0010
0100
1000
0100
0010
,
0001
1000
0100
0010
0001
1000
0100
0010
0001
0010
0100
0010
0001
0010
0100
1000
,
0010
0100
0001
0010
0100
1000
0010
0100
0001
0010
0100
1000
0100
0010
0001
1000
,
0100
0010
0001
0100
0010
1000
0100
0010
0001
0010
0100
1000
0001
0010
0100
1000
,
0010
0100
0001
0010
0100
1000
0100
0010
0001
0010
0100
1000
0100
0010
0001
0100
,
0010
1000
0100
0010
0001
0010
0100
1000
0010
0100
0001
0010
0100
1000
0010
0100
,
0001
0010
0100
1000
0100
0010
0001
1000
0100
0010
0001
0100
0010
1000
0100
0010
,
0001
0010
0100
1000
0100
0010
0001
0010
0100
1000
0001
0010
0100
1000
0010
0100
,
0001
0010
0100
0010
0001
1000
0100
0010
0100
1000
0001
0010
0100
0010
0001
1000
,
0100
0010
0001
1000
0100
0010
0001
0100
0010
0000
1000
0100
0010
0001
0010
0100
,
1000
0100
0010
0001
0010
0100
1000
0001
0010
0100
1000
0010
0100
0001
0010
0100
,
1000
0100
0010
0001
0100
0010
1000
0100
0010
0001
0010
0100
1000
0010
0100
0001
,
0010
0100
1000
0100
0010
0001
0100
0010
1000
0100
0010
0001
1000
0100
0010
0100
,
1000
0100
0010
0100
1000
0100
0010
0001
0010
0100
0010
0001
0010
0100
0010
0001
,
2200
0000
0000
0000
,
3300
0000
0000
0000
;
