#TITLE:Complete!;
#SUBTITLE:;
#ARTIST:Aisaka Taiga, Kushieda Minori, Kawashima Ami (CV;
#TITLETRANSLIT:;
#SUBTITLETRANSLIT:;
#ARTISTTRANSLIT:;
#CREDIT:;
#BANNER:Complete BN.jpg;
#BACKGROUND:Complete BG 1.jpg;
#LYRICSPATH:;
#CDTITLE:;
#MUSIC:01-Complete.mp3;
#OFFSET:-1.100;
#SAMPLESTART:36.298;
#SAMPLELENGTH:12.000;
#SELECTABLE:YES;
#BPMS:0.000=165.300;
#STOPS:;
#BGCHANGES:;
// cache tags:
#FIRSTBEAT:1.000;
#LASTBEAT:603.167;
#SONGFILENAME:Songs/toune 8/Toradora PSP ED - Complete/Complete .sm;
#HASMUSIC:1;
#HASBANNER:1;
#MUSICLENGTH:231.340;
// end cache tags

//---------------dance-single - ----------------
#NOTES:
     dance-single:
     :
     Hard:
     7:
     0.000,0.000,0.000,0.000,0.000,0.000,0.000,0.000,0.000,0.000:
0000
0000
0000
0000
;

//---------------dance-single - ----------------
#NOTES:
     dance-single:
     :
     Medium:
     1:
     0.703,0.945,0.406,1.000,0.942,629.000,94.000,416.000,0.000,3.000:
0000
0000
1000
0100
0010
0001
1000
1000
,
0000
0000
0000
0000
0000
0000
0000
0001
0000
0000
0000
1000
0000
0000
0000
0010
0000
0000
0000
1000
0000
0000
0000
0002
0000
0000
0003
0001
0000
0000
0000
0000
,
0000
0000
0000
0000
0000
0000
0000
0000
0000
0000
0000
0001
0000
0000
0000
0100
0000
0000
0000
0010
0000
0000
0000
0100
0000
0000
0000
2000
0000
0000
3000
0000
,
0000
0000
0000
0000
0000
0000
0000
0000
0000
0000
0000
0000
0020
0030
0200
0300
0000
0000
0000
0000
0000
0000
0000
0000
0000
0000
0020
0000
0000
0000
0000
0000
,
0000
0000
0000
0200
0000
0000
0000
0330
0000
0000
0000
0000
0002
0003
2000
3000
,
0000
0010
0000
0200
0000
0000
0300
0100
0000
0000
0000
0002
0000
1003
0000
0000
,
0000
0020
0000
0030
0000
1000
0000
2000
0000
3000
0000
0000
0000
0002
0003
0000
,
2000
0000
3000
0000
0020
0030
0200
0000
0300
0000
0001
0000
2000
0000
3000
0000
,
0000
0000
0000
0200
0000
0000
0000
0000
0000
0000
0000
0000
0000
0000
0000
0000
0001
0000
0000
0000
0001
0000
0000
0001
,
0000
0001
0000
0300
0000
0000
0000
0000
2000
0000
3020
0000
0000
0030
0000
0000
0100
0000
0000
0000
0001
0000
0000
0000
,
0000
0000
0110
0000
0110
0000
0000
0000
0000
0000
0000
2000
0000
0000
0020
3000
0000
0030
0000
0000
2000
0000
0000
3000
,
0000
0000
0011
0000
0011
0000
0000
0000
0000
0000
0000
0000
0000
0000
0000
0000
0002
0000
0003
0200
0000
0000
0300
0000
,
0000
0010
0000
0000
0000
2200
0000
3300
0000
0000
1100
0000
0000
0000
0000
0000
0000
0000
2002
0000
0000
0000
0000
0000
,
0000
0000
3003
0000
0000
0000
0000
0000
0000
0000
0000
0000
0011
0000
0000
0000
0000
0000
0000
1001
0000
0000
0000
0000
,
0000
0000
1001
0000
0000
0000
0000
2002
0000
0000
0000
0000
0000
0000
3003
0000
1001
0000
0000
0000
0000
0000
0000
0000
,
0000
0010
0000
0000
0000
0000
0000
0100
0000
0022
0000
0000
0000
0000
0000
0033
0011
0000
0000
0000
0000
0000
0000
2000
,
0000
3000
0020
0000
0000
0030
0000
0000
0200
0000
0300
0001
0000
0000
0000
0000
0000
0000
2000
0000
3000
0000
0000
0000
,
0000
0000
0000
2002
0000
3003
0000
0000
0000
2002
0000
3003
0000
0000
2002
0000
0000
0000
0000
0000
0000
0000
3003
0000
,
0000
0000
0000
0000
0000
0000
0002
0000
0000
0003
0000
2000
0000
0000
3000
0000
0000
0000
0110
0000
0000
0000
0011
0000
,
0000
0000
0000
0000
0000
0000
0000
0002
0000
0000
0003
0000
0200
0000
0000
0300
0000
0000
1010
0000
0000
0000
0100
0000
,
0000
0000
0100
0000
0000
0000
0000
0000
0000
0000
0000
0000
0002
0000
0003
2000
0000
0000
0000
3000
0000
0000
0020
0000
,
0030
0000
1000
0000
0000
0001
0000
0000
0000
0000
0000
0000
0000
0000
0000
0000
0000
0000
0000
0000
0000
0000
0000
0000
,
0000
0000
0000
0000
0000
0000
0000
0000
2002
0000
0000
0000
,
0000
0000
0000
0000
0100
0000
0000
0100
0000
0000
3003
0000
0000
0000
0000
0000
0000
0000
0000
2000
0000
0000
0000
0000
,
0000
3000
0002
0000
0003
0000
0001
0000
0000
0000
0000
0000
2000
0000
0000
0000
3000
0200
0300
0000
0000
0000
0000
0002
,
0000
0000
0000
0000
0000
0000
0000
0000
2003
0000
3000
0000
2000
0000
3000
0000
0000
0000
0000
0200
0000
0000
0000
0000
,
0000
0000
0000
0300
0000
0002
0000
0000
0000
0000
0003
2000
0000
0000
3000
0000
0000
0220
0000
0000
0330
0000
0110
0000
,
0000
0000
0000
0000
0000
0200
0000
0000
0000
0000
0000
0000
0000
0000
0000
0000
0000
0000
0000
0001
0000
0001
0000
0300
,
0000
0000
0000
0000
0020
0000
0000
0000
0030
0000
1000
0000
0000
0001
0000
0000
0000
1000
0000
0000
0000
0020
0000
0030
,
0010
0000
0000
0000
2000
0000
0000
3000
0010
0000
0000
0000
0000
0002
0000
0000
0000
0000
1000
0000
0000
0003
1000
0000
,
0000
0000
0000
0000
0000
0002
0000
0000
1003
0000
0000
0000
0000
0000
0200
0000
0320
0000
0230
0000
0000
0000
0300
0000
,
0000
0002
0000
0000
0000
0000
0000
0000
2003
3000
0000
1001
0000
0000
1001
0000
0000
0000
0000
0020
0000
0000
0000
0000
,
2000
0030
0000
0000
3000
0000
0020
0000
0000
0000
0000
0230
,
0300
0000
0000
0000
0000
0000
0000
0000
0000
0000
0000
0000
0000
0000
0000
0000
0200
0000
0000
0000
0000
0000
0000
0000
0000
0000
0000
0000
0000
0000
0000
0000
0300
0000
0000
0000
0000
0000
0000
0000
2000
0000
0000
0000
0000
0000
0000
0000
0000
0000
0000
0000
0000
0000
0000
0000
3000
0000
0000
0000
0000
0000
0000
0000
0000
0000
0000
0000
0000
0000
0000
0000
0000
0000
0000
0000
0000
0000
0000
0000
0000
0000
0000
0000
0000
0000
0000
0000
0000
0000
0000
0000
0000
0000
0000
0000
0001
0000
0000
0000
0000
0000
0000
0000
0000
0000
0000
0000
0000
0000
0000
0000
0000
0000
0000
0000
0000
0000
0000
0000
0000
0000
0000
0000
0000
0000
0000
0000
0001
0000
0000
0000
0000
0000
0000
0000
0000
0000
0000
0000
0000
0000
0000
0000
0000
0000
0000
0000
0000
0000
0000
0000
0100
0000
0000
0000
0000
0000
0000
0000
0000
0000
0000
0000
0000
0000
0000
0000
0000
0000
0000
0000
0000
0000
0000
0000
0000
0000
0000
0000
0000
0000
0000
0000
0000
0000
2002
0000
0000
0000
0000
0000
,
0000
0000
0000
0000
3003
0000
0000
0000
0000
0000
0000
0000
0000
0000
2002
0000
0000
0000
0000
0000
0000
3003
0000
0000
0000
0000
0000
0000
0020
0030
0200
0000
,
0300
0020
0000
0030
0000
0000
0000
0001
0000
0000
0000
0200
0000
0000
0000
0000
0000
0000
0000
0301
0000
0000
0000
0000
0000
0000
0000
2000
0000
0000
0000
0000
,
0000
0000
3000
0000
0000
0100
0000
0000
0000
0000
0000
0000
0001
0000
0002
0000
0000
0000
0000
0000
0000
0000
0000
0010
0023
0000
0000
0000
0000
0000
0000
0000
,
0030
0000
0000
0000
0000
2000
0000
0000
0000
0000
0000
0000
3001
0000
0000
0000
0000
0020
0000
0030
0200
0000
0000
0320
,
0000
0030
0000
0000
0000
0000
1000
0000
0001
0000
0000
0000
0000
0000
0000
0000
0002
0000
0000
0003
2000
0000
0000
3000
,
0000
0020
0000
0000
0030
0000
0000
0000
0000
0000
0000
0000
2000
0000
3000
0001
0000
0000
0000
2002
0000
0000
0000
0000
,
0000
0000
0000
0000
,
0000
0000
0000
0000
0000
3003
0000
0000
0000
0000
0000
0000
0000
0000
0000
0000
0000
0000
0000
0000
0000
0000
0000
0000
,
0000
0002
0000
0003
0000
2000
0000
0000
3000
0010
0000
0000
0000
1000
0000
0000
0000
0001
0000
0000
0000
0100
0000
0000
,
0000
0000
2000
0000
0000
3000
0000
0000
0100
0000
0010
0000
0000
0000
0002
0000
0000
0003
1000
0000
0000
0100
0000
0000
,
0100
0000
0000
0000
0000
0000
0020
0000
0000
0000
0000
1030
0000
0000
0000
0000
2002
0000
0000
0000
0000
0000
0000
3003
,
0000
0000
0000
0000
2002
0000
3003
0000
0000
0100
0000
0000
0001
0000
0000
0001
0000
0000
0000
0000
0200
0000
0300
0000
,
0100
0000
0000
0000
0002
0000
0000
0103
0000
0000
0000
0000
0000
0000
0000
0000
2000
0000
0000
0000
0000
0000
3000
0000
,
0020
0000
0030
0000
0000
0001
0000
0000
0000
0000
2002
0000
3003
0000
0000
0020
0000
0030
0000
0000
0000
1000
0000
0000
,
0100
0000
0000
0001
0000
0020
0000
0000
0000
0000
0130
0000
0100
0000
0000
0000
0000
0000
0000
0000
2000
0000
0000
3000
,
1000
0000
0000
0000
0000
0002
0000
0000
0003
0000
0001
0000
0000
2000
0000
0000
0000
3000
0000
0000
0000
0000
0020
0000
,
0230
0000
0000
0300
0000
0000
0001
0000
0000
0000
0000
0001
0000
0000
0100
0000
0000
0000
0000
0000
0000
0000
2000
0000
,
0000
0000
0000
0000
0000
3002
0003
0000
0002
0003
0000
0200
0000
0000
0000
0000
0000
0000
0320
0000
0000
0000
0000
0230
,
0000
0000
0000
0000
0300
0000
0000
0000
0000
2000
0000
3000
0001
0000
0000
0100
0000
0000
0001
0000
0100
0000
0000
0010
,
0000
2000
0000
0000
0000
0000
3000
0000
0000
0000
0000
0000
0000
0020
0000
0030
0000
0000
0020
0000
0030
0000
0020
0000
,
0000
0030
2000
0000
0000
0000
0000
0000
0000
0000
0000
3000
0000
0011
0000
0000
0000
0110
0000
0000
2000
0000
0000
3000
,
0000
0010
0000
0000
0001
0000
0000
2000
0000
0000
3000
0000
0002
0000
0000
0000
0003
2000
0000
0000
0000
3000
0000
0000
,
0010
0000
0000
0000
0010
0000
0000
0000
0100
0000
0000
0000
0002
0000
0000
0000
0003
0000
0000
0000
0000
2000
0000
0000
,
3000
0000
1000
0000
0000
0000
0020
0000
0030
0000
2000
0000
3002
0000
0003
0002
0000
0000
0000
0000
0000
0000
0000
0000
,
0003
0000
0000
0000
2000
0000
0000
3000
0000
0000
2000
0000
3000
0000
0000
0020
0000
0030
0000
0200
0000
0300
0000
0000
,
0002
0000
0000
0000
0003
0000
2000
0000
3000
0000
0000
1000
0000
0000
0002
0000
0000
0000
0003
0000
0000
0000
0000
0000
,
0000
0200
0000
0300
0020
0000
0000
0030
0000
0000
0002
0003
0000
0001
0000
0000
0000
1000
0000
0000
0000
1000
0000
0000
,
0000
0000
0000
0000
0200
0000
0300
0200
0000
0000
0300
0002
0000
0000
0000
0003
2000
0000
0000
3000
0000
0010
0000
0000
,
0100
0000
0000
0000
0000
0000
0002
0000
0000
0003
0000
2000
0000
0000
3000
0000
0000
0010
0000
0000
0000
0100
0000
0000
,
0000
0000
0000
0000
0010
0000
0000
0000
0100
0000
0000
0000
0000
0000
0000
2002
0000
0000
3003
0000
0000
2002
0000
0000
,
0000
3003
0000
2002
0000
0000
0000
0000
0000
0000
0000
0000
3003
0000
0000
0000
0000
0000
0000
0000
0000
0020
0030
0000
,
0200
0000
0300
0000
0000
1001
0000
0000
0000
0011
0000
0000
0000
0000
0000
0000
0000
0000
0000
1000
0000
0000
0000
0100
,
0000
0000
0000
0000
0011
0000
0000
1100
0000
0000
0000
0000
0000
0220
0000
0000
0330
0000
0000
0000
0000
0000
0000
0020
,
0000
0000
0030
0000
0200
0000
0000
0300
2000
0000
3000
0000
0001
0000
0000
0000
0000
2000
0000
0000
0000
0000
0000
0000
,
0000
0000
0000
0000
0000
0000
0000
3000
0000
0000
0000
0000
0000
0000
0000
0000
0000
0000
0000
0000
0000
0000
0000
0000
,
0000
0000
0000
2000
0000
0000
0000
0000
0000
0000
3002
0000
0000
0003
0000
0000
0000
0200
0000
0300
0000
0001
0000
0000
,
0000
1000
0000
0000
1000
0000
0000
0000
0002
0000
0000
0003
0000
0000
0000
0000
0200
0000
0300
0000
0020
0000
0030
0000
,
0000
0020
0000
0000
0030
0000
0000
0000
0000
0000
0000
0000
0000
0000
0000
0000
0000
0000
2000
0000
0000
3000
0000
0020
,
0000
0000
0030
0000
0000
0000
2002
3003
0000
0000
0000
1100
0000
0000
0000
0000
0000
0002
0000
0003
0000
0002
0000
0003
,
0000
0100
0000
0000
0000
0010
0000
0000
0020
0000
0000
0000
0030
0000
0000
0000
0000
0000
0000
2000
0000
3000
0002
0000
,
0000
0003
0000
0100
0000
0000
0010
0000
0000
0010
0000
0000
0000
0000
0000
0000
0000
0000
2000
0000
0000
3000
0000
0000
,
0100
0000
0000
0000
0000
0010
0000
0000
0000
1000
0000
0000
1000
0000
0000
0000
0200
0000
0000
0000
0300
0000
0000
0000
,
0000
0002
0000
0000
0003
0000
0000
0001
0000
0000
0200
0000
0000
0300
0000
0000
0010
0000
0000
0100
0000
0000
0000
0000
,
0001
0000
0000
0001
0000
0100
0000
0000
0020
0000
0000
0000
0000
0000
0000
0000
0030
0100
0000
0100
0000
0000
0000
0000
,
0000
0000
0000
0002
0000
0000
0000
0000
0003
0100
0000
0000
0000
0020
0000
0000
0000
0000
0000
0000
1030
0000
0000
0000
,
0000
0000
0000
0000
0200
0000
0000
0000
0300
0000
0000
0010
0000
0000
0000
0202
0303
0000
0000
0000
0000
0000
2020
3030
,
0000
0000
0000
0000
0022
0000
0000
0000
0033
0000
0000
0000
0000
1000
0000
1000
0000
2000
0000
0000
0000
0000
3000
0000
,
0010
0000
0000
0010
0000
0020
0000
0000
0000
0000
0030
0000
0000
0000
0000
0000
0110
0000
0000
0000
0100
0000
0000
0002
,
0000
0000
0000
0000
0000
0000
2000
0003
3000
0000
0000
0000
0000
0000
0002
0000
0000
0000
2000
0000
0000
0000
0000
3003
,
0000
0000
0000
0020
0000
0230
0300
0000
0000
0001
0000
0000
0001
0000
0000
0000
0000
0000
0000
0200
0300
0000
0000
0100
,
0000
0000
0020
0000
0000
0000
0031
0000
0000
0000
0000
0200
0000
0000
0300
0000
0010
0000
0001
0000
0000
0000
0000
0000
,
0000
0000
0000
0000
0002
0000
0000
2003
0000
0000
3000
0000
0010
0000
0000
0020
0000
0000
0000
0000
0000
0000
0000
0000
,
0000
2000
0000
0000
0000
0000
0000
0000
0000
0000
0000
0000
,
0000
0000
0000
0000
,
0000
0000
0000
0000
0000
3030
0000
0000
0000
0000
0000
0200
0000
0301
0000
0000
0000
0000
0010
0000
1000
0000
0000
0000
,
0220
0330
0000
0002
0003
0001
0000
0000
0000
0000
1000
0000
0000
0001
0000
0000
0000
1000
0000
0110
0000
0000
0220
0000
,
0000
0030
0300
0001
0000
0000
0000
0000
0000
2000
0000
0000
0000
0000
3000
0000
0000
0000
0000
0000
0002
0000
0000
0000
,
0000
2003
0000
3000
0000
0000
0020
0000
0000
0000
0000
0000
0000
0000
0002
0000
0000
0000
0033
0000
0000
0000
0000
0000
,
0020
0000
0000
0000
0000
0000
0000
0130
0000
0000
0002
0003
0000
0200
0000
0300
0000
2000
0000
3000
0000
0000
0000
0000
,
0000
0002
0000
0000
0003
0000
1000
0000
0000
0000
0010
0000
0000
0200
0000
0000
0300
0000
1000
0000
0000
0002
0000
0000
,
0003
0000
0000
0000
0000
2000
0000
0000
3000
0000
0001
0000
0000
0200
0000
0000
0300
0000
0000
0002
0000
0003
0000
1000
,
0000
0000
0000
0000
0020
0000
0030
0200
0000
0300
0020
0000
0000
0030
0000
2000
0000
0000
3000
0001
0000
1000
0000
0000
,
0020
0000
0000
0000
0000
0000
0000
1031
0000
0000
0000
0000
0002
0000
0000
0000
0003
0200
0000
0000
0000
0000
0000
0000
,
0000
0000
0301
0000
0000
0000
0000
0000
0000
0000
2000
0000
0000
0010
3000
0000
0000
1000
0000
0000
0002
0000
0003
0000
,
0000
0100
0000
0000
2002
3003
0000
0000
1001
0000
0000
0000
0000
0000
0000
0002
0000
0000
0000
0003
0000
0000
1000
0000
,
0000
0110
0000
0000
0000
2002
0000
0000
0000
3003
0000
0000
1001
0000
0000
0000
0000
0000
0000
0000
0002
0000
0000
0000
,
2000
3003
0000
0000
0010
0000
0000
0000
2000
0000
3000
0000
0000
0100
0000
0000
0001
0000
0000
0000
0000
0000
0200
0000
,
0000
0000
0000
0000
0000
0300
0000
0220
0000
0000
0330
0000
0002
0000
0003
0000
1000
0000
0001
0000
0000
0000
0000
0000
,
2000
0000
0000
0000
0000
0000
3000
0000
0200
0000
0000
0320
0000
0030
0000
0000
0000
1000
0000
0001
0000
0002
0000
0000
,
0003
0000
0000
2000
0000
0000
0000
0000
3010
0000
0000
0000
0000
0200
0300
0000
0000
0001
0000
0000
2002
0000
3003
0000
,
1001
0000
0000
0000
0000
0000
0000
2000
0000
0000
0000
0000
0000
3001
0000
0000
0000
1000
0000
0001
0000
0000
0000
1000
,
0000
0000
0002
0003
0002
0000
2000
0000
0000
3003
0000
0000
,
0000
2002
0000
3003
0000
0000
0000
0000
0000
0000
0002
0000
0000
0000
0000
0000
0000
2000
0000
0000
0000
0000
0000
0000
,
0000
0000
0000
0000
0000
0000
0000
0000
0000
0000
0000
0000
0000
0000
0000
0000
0000
3003
0000
0000
0000
0000
0000
0000
,
0000
0000
0000
0000
0000
0000
0000
0000
0000
1000
0000
0000
0000
0000
0000
0000
0000
0000
0000
0000
2000
0000
0000
0000
,
0000
0000
0000
0000
,
0000
0000
0000
0000
0000
0000
0000
0000
0000
0000
0000
3000
,
0000
0000
0000
0000
2000
0000
3000
0002
0000
0000
0003
0200
0000
0300
0000
0000
0002
0000
0003
1000
0000
0000
0220
0330
,
0000
0000
0220
0000
0000
0330
0000
0000
0000
0000
0002
0000
0000
0003
0000
0000
0000
2000
0000
0000
3000
0000
0000
0020
,
0000
0000
0000
0000
0030
0000
0000
2000
0000
0000
0000
3000
0000
0000
0000
0000
0000
0000
2002
0000
3003
2002
0000
0000
,
3003
2002
0000
0000
0000
3003
0000
2002
0000
0000
0000
3003
0000
2002
0000
0000
3003
0000
0000
2002
0000
3003
0000
0000
,
1001
0000
1001
0000
2002
3003
0000
1001
0000
1001
0000
0000
0000
0000
0000
0000
0000
0200
0000
0000
0000
0000
0000
0000
,
0000
0000
0020
0000
0000
0000
0000
0000
0000
0000
0000
0000
,
0000
0000
0000
0000
,
0000
0000
0000
0000
0000
0000
0000
0000
0000
0000
0000
0000
0000
0000
0000
0000
0000
0330
0000
0000
0000
0000
0000
0000
,
0000
0000
0000
0000
0000
2002
0000
0000
0000
0000
0000
0000
0000
0000
0000
0000
0000
0000
0000
0000
0000
0000
0000
0000
,
0000
0000
0000
0000
0000
3003
0000
0000
0002
0000
0000
0000
0000
0000
0000
0103
0000
0000
0000
0000
2000
0000
3200
0000
,
0000
0300
0000
0001
0000
0000
0001
0000
0000
0000
0000
2000
3000
2000
3000
0000
0001
0000
0000
1000
0000
1000
0000
1000
,
0000
0020
0000
0000
0000
0030
0000
0000
0000
0000
0200
0000
0000
0000
0000
0302
0003
0000
2000
0000
0000
0000
0000
3000
,
0000
0200
0000
0300
0000
0002
0000
0000
0000
0003
0000
2000
0000
0000
0000
0000
3000
0000
0002
0000
0000
0000
0000
0000
,
0003
0000
0220
0330
0000
0000
2200
0000
0000
3300
0000
0000
0000
0002
0000
0003
0000
2000
0000
0000
3000
0000
0010
0000
,
0000
0110
0000
0000
2000
3000
0000
0000
0002
0000
0000
0003
2000
0000
0000
0000
0000
3000
0000
0000
0000
0000
0002
0000
,
0000
0000
0003
2000
3000
0000
0000
0010
0000
0000
1000
0000
0002
0003
0000
0000
0002
0000
0000
0003
0000
0000
2000
0000
,
0000
0000
0000
0000
3001
0000
0000
0000
0001
0000
1000
0000
0000
0000
0000
2000
0000
3000
0000
0002
0003
0002
0003
0000
,
2000
3000
2000
3000
0000
0000
0200
0000
0000
0000
0000
0000
0000
0000
0000
0000
0000
0000
0301
0000
0000
0000
0000
0000
,
0000
0000
0000
0000
2000
0000
3000
0000
0001
0000
0100
0000
0000
0000
0000
0001
0000
0000
2002
0000
3003
0000
2002
0000
,
0000
3003
0000
0000
0000
0000
0000
2002
0000
3003
0000
0002
0000
0000
0000
0003
0000
0100
0000
0000
0000
0002
0003
0000
,
0200
0000
0000
0000
0300
2000
0000
3000
0000
0000
0002
0000
0000
0000
0000
0000
1000
0000
0000
0000
1003
0000
0000
0000
,
0000
0000
0002
0000
0203
0000
0000
0300
0000
2002
0000
0000
0000
3003
0000
0000
0001
0000
0000
0000
0000
2000
0000
0000
,
0000
3000
0000
0000
0000
0102
0000
0000
0003
0000
0000
0000
0000
2000
0000
0000
0000
3001
0000
0100
0000
0000
0000
0000
,
0001
0000
0000
2000
0000
3000
0000
0001
0000
0000
0000
2000
0000
3000
2000
0000
0000
3000
0000
0000
0000
0000
0000
0020
,
0000
0000
0000
0130
0000
0000
0001
0000
0000
2000
3000
2000
0000
3000
0120
0000
0030
0000
0000
0000
0000
2000
0000
0000
,
0000
3000
0000
0000
0000
0000
0002
0000
0000
0000
0000
0000
0000
0000
2003
0000
3000
0000
0000
0200
0000
0300
0000
0000
,
0000
1000
0000
0000
0000
0000
0000
0000
0000
0200
0000
0000
0000
0000
0000
0000
0000
0000
0300
0000
0002
0000
0000
0000
,
0003
0000
1000
0000
1000
0000
0000
0000
0000
0000
0000
0020
0000
0000
0030
0000
1000
0000
0002
0000
0000
0003
0000
2000
,
0000
0000
3200
0000
0000
0000
0300
0000
0002
0000
0000
0000
0000
0003
0000
0020
0000
0000
0030
2000
0000
0000
3000
0000
,
0000
0002
0000
0000
0000
0203
0000
0300
0000
0000
0000
0000
0000
0000
0001
0000
0000
1000
0001
0000
1000
0000
0000
0000
,
0000
2002
0000
3003
2002
0000
0000
0000
0000
0000
0000
3003
0000
0000
0000
0000
0000
1000
0001
0000
1000
0000
0001
0000
,
0000
0000
0000
2002
0000
3003
0000
2002
0000
0000
0000
0000
0000
3003
0000
0000
0000
0000
0000
0000
1000
0001
0000
0000
,
1000
0001
0000
0200
0000
0320
0000
0000
0000
0030
0000
0000
,
0000
2002
0000
0000
3003
2000
0000
0000
3000
2002
0000
3003
0000
2002
0000
0000
0000
0000
0000
0000
0000
0000
3003
0000
,
0000
0000
0000
0000
0000
0000
0000
1000
0001
0000
0000
1000
0001
0000
0000
0000
0000
0000
2002
0000
3003
0000
0000
0020
,
0000
0000
0000
0000
0000
0000
0030
0000
0000
0000
0001
0000
0000
1002
0003
1000
0000
0000
0000
0000
0000
0000
0000
0200
,
0000
0000
2000
0000
0000
0000
0000
3300
0000
0000
0000
0000
0000
1000
0100
0000
0000
1000
0000
0100
0000
0000
0000
0022
,
0000
0033
0022
0000
0033
0000
0000
0000
0000
0000
0000
0000
,
0000
0000
0000
0000
0000
0000
0000
0000
0000
0000
0000
0000
0000
0000
0000
0000
0000
0200
0000
0000
0000
0000
0000
0000
,
0000
0300
0002
0000
0000
0003
2000
0000
0000
3000
0000
0002
0000
0000
0003
0000
0200
0300
0000
0010
0000
0000
0000
0000
;
