#TITLE:RAVE2000009;
#SUBTITLE:;
#ARTIST:DJ Sharpnel;
#TITLETRANSLIT:;
#SUBTITLETRANSLIT:;
#ARTISTTRANSLIT:;
#CREDIT:;
#BANNER:rave2009 bn.png;
#BACKGROUND:rave2009 bg.png;
#LYRICSPATH:;
#CDTITLE:;
#MUSIC:RAVE2000009.ogg;
#OFFSET:-0.127;
#SAMPLESTART:63.933;
#SAMPLELENGTH:12.799;
#SELECTABLE:YES;
#BPMS:0.000=150.000;
#STOPS:;
#BGCHANGES:;
// cache tags:
#FIRSTBEAT:16.000;
#LASTBEAT:608.000;
#SONGFILENAME:Songs/SHARPNELSTREAMZ v2/Rave2000009/RAVE2000009.sm;
#HASMUSIC:1;
#HASBANNER:1;
#MUSICLENGTH:257.724;
// end cache tags

//---------------dance-single - 13+ (CTalon)----------------
#NOTES:
     dance-single:
     13+ (CTalon):
     Challenge:
     13:
     1.000,0.973,0.144,0.016,1.000,1998.000,37.000,4.000,0.000,0.000:
0000
0000
0000
0000
,
0000
0000
0000
0000
,
0000
0000
0000
0000
,
0000
0000
0000
0000
,
0001
0000
1000
0000
0010
0000
0100
0001
0000
0001
1000
0000
0100
0000
0010
0000
,
0001
0000
1000
0000
0010
0000
1000
0100
0000
0100
0010
0000
0001
0000
0100
0000
,
0010
0000
1000
0000
0001
0000
0010
0001
0000
0001
1000
0000
0010
0000
0100
0000
,
0010
0000
1000
0000
0001
0000
0100
0010
0000
0010
1000
0000
0001
0000
0010
0000
,
0001
1000
0001
0100
0010
1000
0100
0010
0001
0010
0100
1000
0001
0100
0010
0100
,
0001
1000
0100
1000
0001
0010
0100
1000
0010
1000
0010
0100
0001
1000
0100
1000
,
0001
0100
0001
0010
0100
1000
0100
1000
0001
0100
0001
1000
0010
0100
0010
1000
,
0001
0010
0100
1000
0001
0010
0001
1000
0010
1000
0001
0010
0100
0010
0001
0100
,
0010
1000
0010
0100
0001
1000
0100
1000
0001
0100
0010
1000
0100
0010
0001
0010
,
0001
0100
0001
1000
0001
0100
0001
0010
0100
0010
0001
1000
0010
0100
0001
1000
,
0001
0010
0001
1000
0100
1000
0010
0100
0001
1000
0010
0100
0001
1000
0100
0010
,
0001
0010
0100
1000
0001
0100
0010
0100
0001
0010
0100
0000
0020
0000
0000
0000
,
0031
1000
0001
0010
0100
1000
0010
0100
0001
0100
0010
1000
0001
0010
0100
0010
,
0001
1000
0010
1000
0001
0100
0010
1000
0100
1000
0100
0010
0001
1000
0010
1000
,
0001
0010
0001
0100
0010
1000
0010
1000
0001
0010
0001
1000
0100
0010
0100
1000
,
0001
0100
0010
1000
0001
0100
0001
1000
0100
1000
0001
0100
0010
0100
0001
0010
,
0100
1000
0100
0010
0001
1000
0010
1000
0001
0010
0100
1000
0010
0100
0001
0100
,
0001
0010
0001
1000
0001
0010
0001
0100
0010
0100
0001
1000
0100
0010
0001
1000
,
0001
0100
0001
1000
0010
1000
0100
0010
0001
1000
0100
0010
0001
1000
0010
0100
,
0001
0100
0010
1000
0001
0010
0100
0010
0001
0100
0010
0000
0200
0000
0000
0000
,
0301
0000
0000
1000
0000
0000
1000
0000
0010
0000
0000
0100
0000
0000
0100
0000
,
0001
0000
0000
0010
0000
0000
0010
0000
0100
0000
0000
1000
0000
0000
1000
0000
,
0001
0000
0000
1000
0000
0000
1000
0000
0100
0000
0000
0010
0000
0000
0010
0000
,
0001
0000
0000
0100
0000
0000
0100
0000
0001
0000
0000
1000
0000
0000
1000
0000
,
0100
0000
0000
0010
0000
0000
0010
0000
0001
0000
0000
1000
0000
0000
1000
0000
,
0001
0000
0000
0100
0000
0000
0100
0000
0010
0000
0000
0100
0000
0000
0100
0000
,
0001
0000
0000
1000
0000
0000
1000
0000
0100
0000
0000
0010
0000
0000
0010
0000
,
0001
0000
0000
1000
0000
0000
1000
0000
0010
0000
0000
0100
0000
0000
0100
0000
,
0001
0000
0001
0000
1000
0000
0010
0100
0001
0100
0010
0000
1000
0000
0001
0000
,
0010
0000
0010
0000
0100
0000
1000
0001
0100
0010
0100
0000
0001
0000
0010
0000
,
0100
0000
0100
0000
1000
0000
0001
0100
0010
1000
0001
0000
1000
0000
0100
0000
,
1000
0000
1000
0000
0001
0000
0100
0010
1000
0001
0010
0000
0100
0000
1000
0000
,
1001
0000
0000
1001
0000
0000
0001
0010
0100
0000
0000
1100
0000
0000
1000
0010
,
0100
0000
0000
0101
0000
0000
0001
0010
0100
0000
0000
1100
0000
0000
1000
0010
,
0100
0000
0000
0101
0000
0000
0001
1000
0001
0000
0000
0011
0000
0000
0010
0100
,
1000
0000
0000
1010
0000
0000
0010
0100
0001
0000
0000
0011
0000
0000
0020
0000
,
0031
0100
0001
1000
0100
1000
0001
0010
0001
0100
0001
1000
0010
1000
0001
0010
,
0001
0100
0001
1000
0010
1000
0001
0010
0001
0010
0100
1000
0010
0100
0001
1000
,
0001
0100
0001
1000
0100
1000
0001
0010
0001
0100
0001
1000
0010
1000
0001
0010
,
0001
0100
0001
1000
0010
1000
0001
0010
0001
0010
0100
1000
0010
0100
0001
1000
,
0001
0010
0001
1000
0010
1000
0001
0100
0001
0010
0001
1000
0100
1000
0001
0100
,
0001
0010
0001
1000
0100
1000
0001
0100
0001
0100
0010
1000
0100
0010
0001
1000
,
0001
0010
0001
1000
0010
1000
0001
0100
0001
0010
0001
1000
0100
1000
0001
0100
,
0001
0010
0001
1000
0100
1000
0001
0100
0001
0100
0010
1000
0100
0010
0001
1000
,
0001
0100
0001
1000
0100
1000
0001
0010
0001
0100
0001
1000
0010
1000
0001
0010
,
0001
0100
0001
1000
0010
1000
0001
0010
0001
0010
0100
1000
0010
0100
0001
1000
,
0001
0100
0001
1000
0100
1000
0001
0010
0001
0100
0001
1000
0010
1000
0001
0010
,
0001
0100
0001
1000
0010
1000
0001
0010
0001
0010
0100
1000
0010
0100
0001
1000
,
0001
0010
0001
1000
0010
1000
0001
0100
0001
0010
0001
1000
0100
1000
0001
0100
,
0001
0010
0001
1000
0100
1000
0001
0100
0001
0100
0010
1000
0100
0010
0001
1000
,
0001
0010
0001
1000
0010
1000
0001
0100
0001
0010
0001
1000
0100
1000
0001
0100
,
0001
0010
0001
1000
0100
1000
0001
0100
0001
0100
0010
1000
0100
0010
0001
0100
,
0001
1000
0000
0001
0010
0000
0100
1000
0000
0001
0100
0000
0010
0000
1000
0000
,
0100
0010
0000
0001
0010
0000
0001
1000
0000
0010
0100
0000
0001
0000
1000
0000
,
0100
0010
0000
0001
0010
0000
0001
0100
0000
0010
1000
0000
0001
0000
0010
0000
,
0100
1000
0000
0100
0010
0000
0001
1000
0000
0010
1000
0000
0100
0000
1000
0000
,
0001
0100
0000
0010
1000
0000
0100
0010
0000
0001
1000
0000
0001
0000
0100
0000
,
0010
1000
0000
0100
0010
0000
0001
1000
0000
0001
0100
0000
0010
0000
1000
0000
,
0100
0010
0000
0001
0010
0000
0001
1000
0000
0010
0100
0000
0001
0000
1000
0000
,
0100
0010
0000
0001
0100
0000
0001
1000
0000
0010
1000
0000
0100
0000
0010
0000
,
0001
0000
0001
0000
0100
0000
0010
1000
0100
0010
0001
0000
1000
0000
0010
0000
,
0100
0000
0100
0000
0001
0000
0010
0001
0100
0010
1000
0000
0001
0000
0010
0000
,
0100
0000
0100
0000
0010
0000
0001
0010
0001
1000
0010
0000
0100
0000
0001
0000
,
0010
0000
0010
0000
0100
0000
1000
0100
1000
0010
1000
0000
0001
0000
0010
0000
,
0001
0010
0100
1000
0001
0010
0001
1000
0100
0010
0100
0010
0001
1000
0001
0010
,
0001
1000
0010
0100
0001
0100
0001
1000
0010
0100
0010
1000
0001
1000
0010
0100
,
0001
1000
0100
1000
0001
0010
0100
1000
0100
0010
0100
1000
0100
1000
0001
0010
,
0004
0003
1000
0000
0001
0000
1000
0000
0001
0000
1000
0000
0004
0003
1000
0000
0001
0000
0100
0000
0010
0000
0100
0000
0001
0000
0010
0000
0100
0000
0010
0000
,
0001
1000
0001
0100
0010
1000
0100
0010
0001
0010
0100
1000
0001
0100
0010
0100
,
0001
1000
0100
1000
0001
0010
0100
1000
0010
1000
0010
0100
0001
1000
0100
1000
,
0001
0100
0001
0010
0100
1000
0100
1000
0001
0100
0001
1000
0010
0100
0010
1000
,
0001
0010
0100
1000
0001
0010
0001
1000
0010
1000
0001
0010
0100
0010
0001
0100
,
0010
1000
0010
0100
0001
1000
0100
1000
0001
0100
0010
1000
0100
0010
0001
0010
,
0001
0100
0001
1000
0001
0100
0001
0010
0100
0010
0001
1000
0010
0100
0001
1000
,
0001
0010
0001
1000
0100
1000
0010
0100
0001
1000
0010
0100
0001
1000
0100
0010
,
0001
0010
0100
1000
0001
0100
0010
0100
0001
0010
0001
0010
0100
1000
0100
1000
,
0001
1000
0001
0010
0100
1000
0010
0100
0001
0100
0010
1000
0001
0010
0100
0010
,
0001
1000
0010
1000
0001
0100
0010
1000
0100
1000
0100
0010
0001
1000
0010
1000
,
0001
0010
0001
0100
0010
1000
0010
1000
0001
0010
0001
1000
0100
0010
0100
1000
,
0001
0100
0010
1000
0001
0100
0001
1000
0100
1000
0001
0100
0010
0100
0001
0010
,
0100
1000
0100
0010
0001
1000
0010
1000
0001
0010
0100
1000
0010
0100
0001
0100
,
0001
0010
0001
1000
0001
0010
0001
0100
0010
0100
0001
1000
0100
0010
0001
1000
,
0001
0100
0001
1000
0010
1000
0100
0010
0001
1000
0100
0010
0001
1000
0010
0100
,
0004
0003
0100
0000
0010
0000
1000
0000
0001
0000
0010
0000
0400
0300
0010
0000
0001
0000
0100
0000
0001
0000
0100
0000
0010
0000
1000
0000
0010
0000
1000
0000
,
0001
1000
0001
0100
0010
1000
0100
0010
0001
0010
0100
1000
0001
0100
0010
0100
,
0001
1000
0100
1000
0001
0010
0100
1000
0010
1000
0010
0100
0001
1000
0100
1000
,
0001
0100
0001
0010
0100
1000
0100
1000
0001
0100
0001
1000
0010
0100
0010
1000
,
0001
0010
0100
1000
0001
0010
0001
1000
0010
1000
0001
0010
0100
0010
0001
0100
,
0010
1000
0010
0100
0001
1000
0100
1000
0001
0100
0010
1000
0100
0010
0001
0010
,
0001
0100
0001
1000
0001
0100
0001
0010
0100
0010
0001
1000
0010
0100
0001
1000
,
0001
0010
0001
1000
0100
1000
0010
0100
0001
1000
0010
0100
0001
1000
0100
0010
,
0001
0010
0100
1000
0001
0100
0010
0100
0001
0010
0001
0010
0100
1000
0100
1000
,
0001
1000
0001
0010
0100
1000
0010
0100
0001
0100
0010
1000
0001
0010
0100
0010
,
0001
1000
0010
1000
0001
0100
0010
1000
0100
1000
0100
0010
0001
1000
0010
1000
,
0001
0010
0001
0100
0010
1000
0010
1000
0001
0010
0001
1000
0100
0010
0100
1000
,
0001
0100
0010
1000
0001
0100
0001
1000
0100
1000
0001
0100
0010
0100
0001
0010
,
0100
1000
0100
0010
0001
1000
0010
1000
0001
0010
0100
1000
0010
0100
0001
0100
,
0001
0010
0001
1000
0001
0010
0001
0100
0010
0100
0001
1000
0100
0010
0001
1000
,
0001
0100
0001
1000
0010
1000
0100
0010
0001
1000
0100
0010
0001
1000
0010
0100
,
0004
0003
0100
0000
0010
0000
1000
0000
0001
0000
0010
0000
0400
0300
0010
0000
0001
0000
0100
0000
0001
0000
0100
0000
0010
0000
1000
0000
0010
0000
1000
0000
,
0001
0000
1000
0010
0000
0100
0010
0000
1000
0000
0001
0000
0100
0001
1000
0000
,
0001
0000
1000
0010
0000
0100
0010
0000
1000
0000
0100
0000
0010
0001
1000
0000
,
0001
0000
0010
0100
0000
0010
0001
0000
1000
0000
0010
0000
0100
0001
1000
0000
,
0100
0000
1000
0001
0000
0010
0100
0000
0010
0000
0001
0000
1000
0010
0100
0000
,
0010
0000
1000
0001
0000
1000
0100
0000
1000
0000
0001
0000
0100
0010
1000
0000
,
0001
0000
0010
0100
0000
0010
0001
0000
1000
0000
0010
0000
0100
0001
1000
0000
,
0010
0000
1000
0001
0000
0010
0001
0000
1000
0000
0100
0000
0010
0001
1000
0000
,
0010
0000
0100
0001
0000
1000
0010
0000
0100
0000
0010
0000
1000
0100
0010
0000
,
0011
0000
0000
0011
0000
0000
0011
0000
1001
0000
0000
1001
0000
0000
1001
0000
,
1010
0000
0000
1010
0000
0000
1010
0000
0110
0000
0000
0110
0000
0000
0110
0000
,
0101
0000
0000
0101
0000
0000
0101
0000
1100
0000
0000
1100
0000
0000
1100
0000
,
1001
0000
0000
1001
0000
0000
1001
0000
1010
0000
0010
0000
1001
0000
0000
0000
,
0011
0000
0000
0011
0000
0000
0001
0010
0100
0000
0000
1100
0000
0000
1000
0001
,
0100
0000
0000
0110
0000
0000
0010
1000
0001
0000
0000
1001
0000
0000
1000
0100
,
0010
0001
0010
0001
1000
0010
0100
0001
0010
0100
1000
0100
1000
0010
0100
0001
,
1000
0000
1000
0000
0010
0000
0100
0001
0000
0001
1000
0001
0100
0000
0010
0000
,
1000
0010
1000
0001
0010
0001
1000
0100
1000
0010
1000
0001
0100
0001
1000
0100
,
1000
0010
1000
0001
0100
0001
1000
0100
1000
0100
0010
0001
0100
0010
1000
0001
,
1000
0010
1000
0001
0010
0001
1000
0100
1000
0010
1000
0001
0100
0001
1000
0100
,
1000
0010
1000
0001
0100
0001
1000
0100
1000
0100
0010
0001
0100
0010
1000
0001
,
1000
0100
1000
0001
0100
0001
1000
0010
1000
0100
1000
0001
0010
0001
1000
0010
,
1000
0100
1000
0001
0010
0001
1000
0010
1000
0010
0100
0001
0010
0100
1000
0001
,
1000
0100
1000
0001
0100
0001
1000
0010
1000
0100
1000
0001
0010
0001
1000
0010
,
1000
0100
1000
0001
0010
0001
1000
0010
1000
0010
0100
0001
0010
0100
1000
0001
,
1000
0010
1000
0001
0010
0001
1000
0100
1000
0010
1000
0001
0100
0001
1000
0100
,
1000
0010
1000
0001
0100
0001
1000
0100
1000
0100
0010
0001
0100
0010
1000
0001
,
1000
0010
1000
0001
0010
0001
1000
0100
1000
0010
1000
0001
0100
0001
1000
0100
,
1000
0010
1000
0001
0100
0001
1000
0100
1000
0100
0010
0001
0100
0010
1000
0001
,
1000
0100
1000
0001
0100
0001
1000
0010
1000
0100
1000
0001
0010
0001
1000
0010
,
1000
0100
1000
0001
0010
0001
1000
0010
1000
0010
0100
0001
0010
0100
1000
0001
,
1000
0100
1000
0001
0100
0001
1000
0010
1000
0100
1000
0001
0010
0001
1000
0010
,
1000
0100
1000
0001
0010
0001
1000
0010
1000
0010
0100
0001
0010
0100
1000
0010
,
1000
0010
1000
0001
0010
0001
1000
0100
1000
0010
1000
0001
0100
0001
1000
0100
,
1000
0010
1000
0001
0100
0001
1000
0100
1000
0100
0010
0001
0100
0010
1000
0001
,
1000
0010
1000
0001
0010
0001
1000
0100
1000
0010
1000
0001
0100
0001
1000
0100
,
1000
0010
1000
0001
0100
0001
1000
0100
1000
0100
0010
0001
0100
0010
1000
0001
,
1000
0100
1000
0001
0100
0001
1000
0010
1000
0100
1000
0001
0010
0001
1000
0010
,
1000
0100
1000
0001
0010
0001
1000
0010
1000
0010
0100
0001
0010
0100
1000
0001
,
1000
0100
1000
0001
0100
0001
1000
0010
1000
0100
1000
0001
0010
0001
1000
0010
,
1000
0100
1000
0001
0010
0001
1000
0010
1000
0010
0100
0001
0010
0100
1000
0010
,
1000
0010
1000
0001
0010
0001
1000
0100
1000
0010
1000
0001
0100
0001
1000
0100
,
1000
0010
1000
0001
0100
0001
1000
0100
1000
0100
0010
0001
0100
0010
1000
0001
,
1000
0010
1000
0001
0010
0001
1000
0100
1000
0010
1000
0001
0100
0001
1000
0100
,
1000
0010
1000
0001
0100
0001
1000
0100
1000
0100
0010
0001
0100
0010
1000
0001
,
1000
0100
1000
0001
0100
0001
1000
0010
1000
0100
1000
0001
0010
0001
1000
0010
,
1000
0100
1000
0001
0010
0001
1000
0010
1000
0010
0100
0001
0010
0100
1000
0001
,
1000
0100
1000
0001
0100
0001
1000
0010
1000
0100
1000
0001
0010
0001
1000
0010
,
1000
0000
0000
1000
0000
0000
1000
0000
0010
0000
0100
0000
0002
0000
0000
0000
,
1003
0000
0000
0000
;
