#TITLE:Angel Island Zone Act 2;
#SUBTITLE:Sonic 3;
#ARTIST:Sonic Team;
#TITLETRANSLIT:;
#SUBTITLETRANSLIT:;
#ARTISTTRANSLIT:;
#CREDIT:;
#BANNER:Banner.png;
#BACKGROUND:BG.png;
#LYRICSPATH:;
#CDTITLE:.;
#MUSIC:Sonic the Hedgehog 3 and Knuckles - 04 Angel Island Zone Act 2.ogg;
#OFFSET:-0.036;
#SAMPLESTART:44.756;
#SAMPLELENGTH:29.999;
#SELECTABLE:YES;
#BPMS:0.000=137.696;
#STOPS:;
#BGCHANGES:;
// cache tags:
#FIRSTBEAT:8.000;
#LASTBEAT:296.000;
#SONGFILENAME:Songs/Owem Extras -l/Angel Island Zone Act 2 - [Braeden & Owem]/Sonic the Hedgehog 3 and Knuckles - 03 Angel Island Zone Act 1.sm.sm;
#HASMUSIC:1;
#HASBANNER:1;
#MUSICLENGTH:138.893;
// end cache tags

//---------------dance-single - 13 (Braeden)----------------
#NOTES:
     dance-single:
     13 (Braeden):
     Hard:
     13:
     0.997,1.000,0.000,0.259,1.000,933.000,0.000,36.000,0.000,0.000:
0000
0000
0000
0000
,
0000
0000
0000
0000
,
1000
0000
0001
0000
0100
0010
0000
1000
0010
0100
0000
0001
1000
0000
0010
0000
,
1000
0100
0010
0001
1000
0010
0100
0001
1000
0010
1000
0001
0100
0000
0010
1000
,
0010
0000
0100
0000
0001
1000
0000
1000
0001
0100
0010
0000
1000
0000
0010
0000
,
1000
0000
0100
0000
0010
0001
1000
0010
0000
0100
0001
0100
0010
0000
1000
0100
,
1000
0000
0100
0000
1000
0001
0000
0001
0100
0010
1000
0001
0010
0000
0001
0000
,
2000
0000
0000
3020
0000
0000
0130
0001
0000
0100
0010
0100
0001
1000
0100
0010
,
0001
0000
0100
0010
0000
0100
0010
1000
0000
0001
0100
0010
2000
0000
3001
0000
,
1000
0000
0010
0000
0100
0001
0100
0010
0000
1000
0100
1000
0001
0000
0100
0010
,
0100
0000
0010
1000
0010
0000
0100
0001
0000
0001
0100
0000
0010
0000
1000
0001
,
1000
0000
0010
0100
0000
0001
0100
0010
1000
0000
0100
0010
0000
0000
0001
1000
,
0010
0000
0100
0001
0100
0000
0010
1000
0100
1000
0001
0000
1000
0000
0100
0010
,
0100
0000
1000
0000
0001
0100
0010
1000
0001
0010
0001
0000
1000
0000
0010
0100
,
0010
0000
0100
0001
0100
0000
0010
1000
0100
1000
0001
0010
0100
0000
1000
0100
,
0010
0000
0001
0100
0000
0010
1000
0010
0100
0000
0001
0010
0000
0000
0100
1000
,
0200
0000
0000
0320
0000
0000
0032
0000
0000
0000
1003
0000
0010
0000
0100
0000
,
0001
0010
0100
1000
0000
0001
0100
0010
0000
1000
0100
0000
0010
0000
0001
1000
,
0020
0000
0000
0230
0000
0000
0302
0000
0000
0000
1003
0000
0010
0000
0100
0000
,
0001
1000
0100
1000
0000
0001
0010
0100
0000
1000
0001
0000
0100
0000
0010
1000
,
0020
0000
0000
0230
0000
0000
0320
0000
0000
0000
0130
0000
0010
0000
1000
0000
,
0100
0010
0001
0100
0000
0010
1000
0100
0000
0010
0001
0100
0010
0000
1000
0100
,
2000
0000
0000
3020
0000
0000
0230
0000
0000
0000
0301
0000
1000
0000
0010
0000
,
0100
0001
0010
0100
0000
1000
0001
0100
0000
0010
1000
0100
1000
0001
0010
0100
,
1000
0100
0010
0001
0010
0100
1000
0001
0010
0001
0100
0010
0100
0001
1000
0001
,
1000
0000
0100
0000
0010
0000
0001
0000
0010
0000
0100
0000
1000
0000
0001
0000
0100
0000
0001
0000
0000
0100
0000
0000
0010
0000
0000
1000
0000
0000
0001
0000
0000
0010
0000
0000
0100
0000
0000
1000
0000
0000
0001
0000
0000
0010
0000
0000
,
0001
1000
0010
0100
0001
0010
0001
1000
0100
0010
0001
0010
0100
1000
0001
0100
0010
0100
0001
0010
0001
1000
0100
0010
,
0001
0010
0100
1000
0001
0100
0010
1000
0001
0010
0100
1000
0001
0010
0100
1000
0001
0100
0010
0100
0001
0010
0001
1000
,
0001
0100
0010
0100
0001
0010
0001
1000
0100
0010
0001
0010
0100
1000
0001
0100
,
0001
0000
0010
0000
0100
0000
1000
0000
0001
0000
0010
0000
0001
0000
1000
0000
0100
0000
0010
0000
0000
0001
0000
0000
0010
0000
0000
0100
0000
0000
1000
0000
0000
0001
0000
0000
0100
0000
0000
0010
0000
0000
0100
0000
0000
0001
0000
0000
,
1000
0000
0100
0000
0010
0000
0001
0000
0010
0000
0100
0000
1000
0000
0001
0000
0100
0000
0001
0000
0000
0100
0000
0000
0010
0000
1000
0000
0100
0000
0010
0000
0001
0000
0010
0000
0100
0000
1000
0000
0001
0000
0100
0000
0000
0010
0000
0000
,
1000
0000
0100
0000
0010
0000
0001
0000
0010
0000
0100
0000
1000
0000
0001
0000
0010
0000
0001
0000
1000
0000
0010
0000
0100
0000
0001
0000
0010
0000
0001
0000
1000
0000
0100
0000
0010
0000
0001
0000
1000
0000
0001
0000
0000
1000
0000
0000
,
0002
0000
0000
0103
0000
0000
0010
1000
0010
0000
0000
0010
0000
0000
0010
0000
,
0200
0000
0000
0301
0000
0000
0010
0100
0010
0000
0000
0100
0000
0000
0010
0000
,
1000
0100
0010
0001
0010
0100
1000
0001
0010
0001
1000
0010
0100
0001
0010
0001
,
1000
0000
0100
0010
0100
0000
0010
0001
0010
0001
1000
0010
0100
0001
0010
0001
,
1000
0000
0100
0000
0010
0001
0000
1000
0001
0000
0100
0001
0000
1000
0100
0000
,
0010
0000
0002
0000
1003
0000
0010
0100
0000
0001
1000
0001
0100
0010
0100
0001
,
1000
0000
0001
0000
0010
0100
0000
1000
0100
0010
0000
0001
1000
0000
0100
0000
,
1000
0010
0100
0001
1000
0100
0010
0001
1000
0100
1000
0001
0010
0000
0100
1000
,
0100
0000
0010
0000
0001
1000
0000
1000
0001
0010
0100
0000
1000
0000
0100
0000
,
1000
0000
0010
0000
0100
0001
1000
0100
0000
0010
0001
0010
0100
0000
1000
0010
,
1000
0000
0010
0000
1000
0001
0000
0001
0010
0100
1000
0001
0100
0000
0001
0000
,
2000
0000
0000
3200
0000
0000
0310
0001
0000
0010
0100
0010
0001
1000
0010
0100
,
0001
0000
0010
0100
0000
0010
0100
1000
0000
0001
0010
0100
2000
0000
3001
0000
,
1000
0000
0100
0000
0010
0001
0010
0100
0000
1000
0010
1000
0001
0000
0010
0100
,
0010
0000
0100
1000
0100
0000
0010
0001
0000
0001
0010
0000
0100
0000
1000
0001
,
1000
0000
0100
0010
0000
0001
0010
0100
1000
0000
0010
0100
0000
0000
0001
1000
,
0100
0000
0010
0001
0010
0000
0100
1000
0010
1000
0001
0000
1000
0000
0010
0100
,
0010
0000
1000
0000
0001
0010
0100
1000
0001
0100
0001
0000
1000
0000
0100
0010
,
0100
0000
0010
0001
0010
0000
0100
1000
0010
1000
0001
0100
0010
0000
1000
0010
,
0100
0000
0001
0010
0000
0100
1000
0100
0010
0000
0001
0100
0000
0000
0010
1000
,
0020
0000
0000
0230
0000
0000
0302
0000
0000
0000
1003
0000
0100
0000
0010
0000
,
0001
0100
0010
1000
0000
0001
0010
0100
0000
1000
0010
0000
0100
0000
0001
1000
,
0200
0000
0000
0320
0000
0000
0032
0000
0000
0000
1003
0000
0100
0000
0010
0000
,
0001
1000
0010
1000
0000
0001
0100
0010
0000
1000
0001
0000
0010
0000
0100
1000
,
0200
0000
0000
0320
0000
0000
0230
0000
0000
0000
0310
0000
0100
0000
1000
0000
,
0010
0100
0001
0010
0000
0100
1000
0010
0000
0100
0001
0010
0100
0000
1000
0010
,
2000
0000
0000
3200
0000
0000
0320
0000
0000
0000
0031
0000
1000
0000
0100
0000
,
0010
0001
0100
0010
0000
1000
0001
0010
0000
0100
1000
0010
1000
0001
0100
0010
,
1000
0010
0100
0001
0100
0010
1000
0001
0100
0001
0010
0100
0010
0001
1000
0001
,
1000
0000
0010
0000
0100
0000
0001
0000
0100
0000
0010
0000
1000
0000
0001
0000
0010
0000
0001
0000
0000
0010
0000
0000
0100
0000
0000
1000
0000
0000
0001
0000
0000
0100
0000
0000
0010
0000
0000
1000
0000
0000
0001
0000
0000
0100
0000
0000
,
0001
1000
0100
0010
0001
0100
0001
1000
0010
0100
0001
0100
0010
1000
0001
0010
0100
0010
0001
0100
0001
1000
0010
0100
,
0001
0100
0010
1000
0001
0010
0100
1000
0001
0100
0010
1000
0001
0100
0010
1000
0001
0010
0100
0010
0001
0100
0001
1000
,
0001
0010
0100
0010
0001
0100
0001
1000
0010
0100
0001
0100
0010
1000
0001
0010
,
0001
0000
0100
0000
0010
0000
1000
0000
0001
0000
0100
0000
0001
0000
1000
0000
0010
0000
0100
0000
0000
0001
0000
0000
0100
0000
0000
0010
0000
0000
1000
0000
0000
0001
0000
0000
0010
0000
0000
0100
0000
0000
0010
0000
0000
0001
0000
0000
,
1000
0000
0010
0000
0100
0000
0001
0000
0100
0000
0010
0000
1000
0000
0001
0000
0010
0000
0001
0000
0000
0010
0000
0000
0100
0000
1000
0000
0010
0000
0100
0000
0001
0000
0100
0000
0010
0000
1000
0000
0001
0000
0010
0000
0000
0100
0000
0000
,
1000
0000
0010
0000
0100
0000
0001
0000
0100
0000
0010
0000
1000
0000
0001
0000
0100
0000
0001
0000
1000
0000
0100
0000
0010
0000
0001
0000
0100
0000
0001
0000
1000
0000
0010
0000
0100
0000
0001
0000
1000
0000
0001
0000
0000
1000
0000
0000
,
0002
0000
0000
0013
0000
0000
0100
1000
0100
0000
0000
0100
0000
0000
0100
0000
,
0020
0000
0000
0031
0000
0000
0100
0010
0100
0000
0000
0010
0000
0000
0100
0000
,
1000
0010
0100
0001
0100
0010
1000
0001
0100
0001
1000
0100
0010
0001
0100
0001
,
1000
0000
0010
0100
0010
0000
0100
0001
0100
0001
1000
0100
0010
0001
0100
0001
,
1000
0000
0010
0000
0100
0001
0000
1000
0001
0000
0010
0001
0000
1000
0010
0000
,
0100
0000
0002
0000
1003
0000
0100
0010
0000
0001
1000
0001
0010
0100
0010
0001
,
1000
0000
0000
0000
;

//---------------dance-single - 15 (Owem)----------------
#NOTES:
     dance-single:
     15 (Owem):
     Challenge:
     15:
     1.000,1.000,0.000,0.259,1.000,973.000,0.000,36.000,0.000,0.000:
0000
0000
0000
0000
,
0000
0000
0000
0000
,
1000
0000
0001
0000
0100
0010
0000
1000
0010
0100
0000
0001
1000
0000
0010
0000
,
1000
0100
0010
0001
1000
0010
0100
0001
1000
0010
1000
0001
0100
0000
0010
1000
,
0010
0000
0100
0000
0001
1000
0000
1000
0001
0100
0010
0000
1000
0000
0010
0000
,
1000
0000
0100
0000
0010
0001
1000
0010
0000
0100
0001
0100
0010
0000
1000
0100
,
1000
0000
0100
0000
1000
0001
0000
0001
0100
0010
1000
0001
0010
0000
0001
0000
,
2000
0000
0000
3020
0000
0000
0130
0001
0000
0100
0010
0100
0001
1000
0100
0010
,
0001
0000
0100
0010
0000
0100
0010
1000
0000
0001
0100
0010
2000
0000
3001
0000
,
1000
0000
0010
0000
0100
0001
0100
0010
0000
1000
0100
1000
0001
0000
0100
0010
,
0100
0000
0010
1000
0010
0000
0100
0001
0000
0001
0100
0000
0010
0000
1000
0001
,
1000
0000
0010
0100
0000
0001
0100
0010
1000
0000
0100
0010
0000
0000
0001
1000
,
0010
0000
0100
0001
0100
0000
0010
1000
0100
1000
0001
0000
1000
0000
0100
0010
,
0100
0000
1000
0000
0001
0100
0010
1000
0001
0010
0001
0000
1000
0000
0010
0100
,
0010
0000
0100
0001
0100
0000
0010
1000
0100
1000
0001
0010
0100
0000
1000
0100
,
0010
0000
0001
0100
0000
0010
1000
0010
0100
0000
0001
0010
0000
0000
0100
1000
,
0200
0000
0000
0320
0000
0000
0032
0000
0000
0000
1003
0000
0010
0000
0100
0000
,
0001
0010
0100
1000
0000
0001
0100
0010
0000
1000
0100
0000
0010
0000
0001
1000
,
0020
0000
0000
0230
0000
0000
0302
0000
0000
0000
1003
0000
0010
0000
0100
0000
,
0001
1000
0100
1000
0000
0001
0010
0100
0000
1000
0001
0000
0100
0000
0010
1000
,
0020
0000
0000
0230
0000
0000
0320
0000
0000
0000
0130
0000
0010
0000
1000
0000
,
0100
0010
0001
0100
0000
0010
1000
0100
0000
0010
0001
0100
0010
0000
1000
0100
,
2000
0000
0000
3020
0000
0000
0230
0000
0000
0000
0301
0000
1000
0000
0010
0000
,
0100
0001
0010
0100
0000
1000
0001
0100
0000
0010
1000
0100
1000
0001
0010
0100
,
1000
0100
0010
0001
0010
0100
1000
0001
0010
0001
0100
0010
0100
0001
1000
0001
,
1000
0000
0000
0000
0000
0000
0000
0100
0000
0000
0000
0000
0000
0000
0010
0000
0000
0000
0000
0000
0000
0001
0000
0000
0000
0000
0000
1000
0000
0000
0000
0000
0000
0000
0001
0000
0000
0000
0000
0000
0000
0100
0000
0000
0000
0000
0000
0000
0010
0000
0000
0000
0000
0000
0000
1000
0000
0000
0000
0000
0000
0000
0001
0000
0000
0000
0000
0000
0000
1000
0000
0000
0000
0000
0000
0010
0000
0000
0000
0000
0000
0000
0000
0000
0100
0000
0000
0000
0000
0000
0000
0000
0000
0000
0000
0000
0010
0000
0000
0000
0000
0000
0000
0000
0000
0000
0000
0000
1000
0000
0000
0000
0000
0000
0000
0000
0000
0000
0000
0000
0001
0000
0000
0000
0000
0000
0000
0000
0000
0000
0000
0000
0010
0000
0000
0000
0000
0000
0000
0000
0000
0000
0000
0000
0100
0000
0000
0000
0000
0000
0000
0000
0000
0000
0000
0000
1000
0000
0000
0000
0000
0000
0000
0000
0000
0000
0000
0000
0001
0000
0000
0000
0000
0000
0000
0000
0000
0000
0000
0000
0010
0000
0000
0000
0000
0000
0000
0000
0000
0000
0000
0000
,
0001
0000
0000
0000
0000
0000
0000
1000
0000
0000
0000
0000
0000
0000
0010
0000
0000
0000
0000
0000
0000
0100
0000
0000
0000
0000
0000
0001
0000
0000
0000
0000
0000
0000
1000
0000
0000
0000
0000
0000
0000
0100
0000
0000
0000
0000
0000
0000
0010
0000
0000
0000
0000
0000
0000
0001
0000
0000
0000
0000
0000
0000
1000
0000
0000
0000
0000
0000
0000
0001
0000
0000
0000
0000
0000
0100
0000
0000
0000
0000
0000
0000
0010
0000
0000
0000
0000
0000
0000
1000
0000
0000
0000
0000
0000
0000
0001
0000
0000
0000
0000
0000
0000
0100
0000
0000
0000
0000
0000
0000
0001
0000
0000
0000
0000
0000
0000
1000
0000
0000
0000
0000
0000
0100
0000
0000
0000
0000
0000
0000
0010
0000
0000
0000
0000
0000
0000
0001
0000
0000
0000
0000
0000
0000
1000
0000
0000
0000
0000
0000
0000
0010
0000
0000
0000
0000
0000
0000
0100
0000
0000
0000
0000
0000
0000
0001
0000
0000
0000
0000
0000
1000
0000
0000
0000
0000
0000
0000
0001
0000
0000
0000
0000
0000
0000
0010
0000
0000
0000
0000
0000
0000
,
0100
0000
0000
0000
0000
0000
0000
1000
0000
0000
0000
0000
0000
0000
0010
0000
0000
0000
0000
0000
0000
0100
0000
0000
0000
0000
0000
0010
0000
0000
0000
0000
0000
0000
1000
0000
0000
0000
0000
0000
0000
0001
0000
0000
0000
0000
0000
0000
0100
0000
0000
0000
0000
0000
0000
0001
0000
0000
0000
0000
0000
0000
0010
0000
0000
0000
0000
0000
0000
0100
0000
0000
0000
0000
0000
1000
0000
0000
0000
0000
0000
0000
0001
0000
0000
0000
0000
0000
0000
1000
0000
0000
0000
0000
0000
0000
0010
0000
0000
0000
0000
0000
0000
0100
0000
0000
0000
0000
0000
0000
0001
0000
0000
0000
0000
0000
0000
1000
0000
0000
0000
0000
0000
0001
0000
0000
0000
0000
0000
0000
0010
0000
0000
0000
0000
0000
0000
0100
0000
0000
0000
0000
0000
0000
1000
0000
0000
0000
0000
0000
0000
0001
0000
0000
0000
0000
0000
0000
0100
0000
0000
0000
0000
0000
0000
0010
0000
0000
0000
0000
0000
1000
0000
0000
0000
0000
0000
0000
0001
0000
0000
0000
0000
0000
0000
0100
0000
0000
0000
0000
0000
0000
,
0001
1000
0010
0100
0001
0010
0001
1000
0100
0010
0001
0010
0100
1000
0001
0100
,
0001
0000
0000
0000
0000
0000
0000
1000
0000
0000
0000
0000
0000
0000
0100
0000
0000
0000
0000
0000
0000
0010
0000
0000
0000
0000
0000
0001
0000
0000
0000
0000
0000
0000
1000
0000
0000
0000
0000
0000
0000
0001
0000
0000
0000
0000
0000
0000
0100
0000
0000
0000
0000
0000
0000
0010
0000
0000
0000
0000
0000
0000
1000
0000
0000
0000
0000
0000
0000
0001
0000
0000
0000
0000
0000
0000
0000
1000
0000
0000
0000
0000
0000
0000
0001
0000
0000
0000
0000
0000
0000
0000
0000
0000
0000
0000
0010
0000
0000
0000
0000
0000
0000
0000
0000
0000
0000
0000
0100
0000
0000
0000
0000
0000
0000
0000
0000
0000
0000
0000
1000
0000
0000
0000
0000
0000
0000
0000
0000
0000
0000
0000
0001
0000
0000
0000
0000
0000
0000
0000
0000
0000
0000
0000
0100
0000
0000
0000
0000
0000
0000
0000
0000
0000
0000
0000
0010
0000
0000
0000
0000
0000
0000
0000
0000
0000
0000
0000
0100
0000
0000
0000
0000
0000
0000
0000
0000
0000
0000
0000
0001
0000
0000
0000
0000
0000
0000
0000
0000
0000
0000
0000
,
1000
0000
0000
0000
0000
0000
0000
0100
0000
0000
0000
0000
0000
0000
0010
0000
0000
0000
0000
0000
0000
0001
0000
0000
0000
0000
0000
1000
0000
0000
0000
0000
0000
0000
0001
0000
0000
0000
0000
0000
0000
0100
0000
0000
0000
0000
0000
0000
0010
0000
0000
0000
0000
0000
0000
1000
0000
0000
0000
0000
0000
0000
0001
0000
0000
0000
0000
0000
0000
1000
0000
0000
0000
0000
0000
0000
0001
0000
0000
0000
0000
0000
0000
0000
0100
0000
0000
0000
0000
0000
0000
0000
0000
0000
0000
0000
0010
0000
0000
0000
0000
0000
0000
1000
0000
0000
0000
0000
0000
0000
0010
0000
0000
0000
0000
0000
0000
0100
0000
0000
0000
0000
0000
0001
0000
0000
0000
0000
0000
0000
1000
0000
0000
0000
0000
0000
0000
0100
0000
0000
0000
0000
0000
0000
0010
0000
0000
0000
0000
0000
0000
0001
0000
0000
0000
0000
0000
0000
1000
0000
0000
0000
0000
0000
0000
0010
0000
0000
0000
0000
0000
0000
0100
0000
0000
0000
0000
0000
0000
0000
0010
0000
0000
0000
0000
0000
0000
0000
0000
0000
0000
0000
,
1000
0000
0000
0000
0000
0000
0000
0100
0000
0000
0000
0000
0000
0000
1000
0000
0000
0000
0000
0000
0000
0001
0000
0000
0000
0000
0000
0100
0000
0000
0000
0000
0000
0000
0010
0000
0000
0000
0000
0000
0000
1000
0000
0000
0000
0000
0000
0000
0001
0000
0000
0000
0000
0000
0000
0010
0000
0000
0000
0000
0000
0000
0100
0000
0000
0000
0000
0000
0000
1000
0000
0000
0000
0000
0000
0001
0000
0000
0000
0000
0000
0000
0100
0000
0000
0000
0000
0000
0000
0001
0000
0000
0000
0000
0000
0000
1000
0000
0000
0000
0000
0000
0000
0010
0000
0000
0000
0000
0000
0000
0100
0000
0000
0000
0000
0000
0000
0001
0000
0000
0000
0000
0000
1000
0000
0000
0000
0000
0000
0000
0100
0000
0000
0000
0000
0000
0000
1000
0000
0000
0000
0000
0000
0000
0010
0000
0000
0000
0000
0000
0000
0100
0000
0000
0000
0000
0000
0000
0001
0000
0000
0000
0000
0000
0000
1000
0000
0000
0000
0000
0000
0000
0010
0000
0000
0000
0000
0000
0000
0000
1000
0000
0000
0000
0000
0000
0000
0000
0000
0000
0000
0000
,
0002
0000
0000
0103
0000
0000
0010
1000
0010
0000
0000
0010
0000
0000
0010
0000
,
0200
0000
0000
0301
0000
0000
0010
0100
0010
0000
0000
0100
0000
0000
0010
0000
,
1000
0100
0010
0001
0010
0100
1000
0001
0010
0001
1000
0010
0100
0001
0010
0001
,
1000
0000
0100
0010
0100
0000
0010
0001
0010
0001
1000
0010
0100
0001
0010
0001
,
1000
0000
0100
0000
0010
0001
0000
1000
0001
0000
0100
0001
0000
1000
0100
0000
,
0010
0000
0002
0000
1003
0000
0010
0100
0000
0001
1000
0001
0100
0010
0100
0001
,
1000
0000
0001
0000
0010
0100
0000
1000
0100
0010
0000
0001
1000
0000
0100
0000
,
1000
0010
0100
0001
1000
0100
0010
0001
1000
0100
1000
0001
0010
0000
0100
1000
,
0100
0000
0010
0000
0001
1000
0000
1000
0001
0010
0100
0000
1000
0000
0100
0000
,
1000
0000
0010
0000
0100
0001
1000
0100
0000
0010
0001
0010
0100
0000
1000
0010
,
1000
0000
0010
0000
1000
0001
0000
0001
0010
0100
1000
0001
0100
0000
0001
0000
,
2000
0000
0000
3200
0000
0000
0310
0001
0000
0010
0100
0010
0001
1000
0010
0100
,
0001
0000
0010
0100
0000
0010
0100
1000
0000
0001
0010
0100
2000
0000
3001
0000
,
1000
0000
0100
0000
0010
0001
0010
0100
0000
1000
0010
1000
0001
0000
0010
0100
,
0010
0000
0100
1000
0100
0000
0010
0001
0000
0001
0010
0000
0100
0000
1000
0001
,
1000
0000
0100
0010
0000
0001
0010
0100
1000
0000
0010
0100
0000
0000
0001
1000
,
0100
0000
0010
0001
0010
0000
0100
1000
0010
1000
0001
0000
1000
0000
0010
0100
,
0010
0000
1000
0000
0001
0010
0100
1000
0001
0100
0001
0000
1000
0000
0100
0010
,
0100
0000
0010
0001
0010
0000
0100
1000
0010
1000
0001
0100
0010
0000
1000
0010
,
0100
0000
0001
0010
0000
0100
1000
0100
0010
0000
0001
0100
0000
0000
0010
1000
,
0020
0000
0000
0230
0000
0000
0302
0000
0000
0000
1003
0000
0100
0000
0010
0000
,
0001
0100
0010
1000
0000
0001
0010
0100
0000
1000
0010
0000
0100
0000
0001
1000
,
0200
0000
0000
0320
0000
0000
0032
0000
0000
0000
1003
0000
0100
0000
0010
0000
,
0001
1000
0010
1000
0000
0001
0100
0010
0000
1000
0001
0000
0010
0000
0100
1000
,
0200
0000
0000
0320
0000
0000
0230
0000
0000
0000
0310
0000
0100
0000
1000
0000
,
0010
0100
0001
0010
0000
0100
1000
0010
0000
0100
0001
0010
0100
0000
1000
0010
,
2000
0000
0000
3200
0000
0000
0320
0000
0000
0000
0031
0000
1000
0000
0100
0000
,
0010
0001
0100
0010
0000
1000
0001
0010
0000
0100
1000
0010
1000
0001
0100
0010
,
1000
0010
0100
0001
0100
0010
1000
0001
0100
0001
0010
0100
0010
0001
1000
0001
,
1000
0000
0000
0000
0000
0000
0000
0010
0000
0000
0000
0000
0000
0000
0100
0000
0000
0000
0000
0000
0000
0001
0000
0000
0000
0000
0000
1000
0000
0000
0000
0000
0000
0000
0001
0000
0000
0000
0000
0000
0000
0010
0000
0000
0000
0000
0000
0000
0100
0000
0000
0000
0000
0000
0000
1000
0000
0000
0000
0000
0000
0000
0001
0000
0000
0000
0000
0000
0000
1000
0000
0000
0000
0000
0000
0100
0000
0000
0000
0000
0000
0000
0000
0000
0010
0000
0000
0000
0000
0000
0000
0000
0000
0000
0000
0000
0100
0000
0000
0000
0000
0000
0000
0000
0000
0000
0000
0000
1000
0000
0000
0000
0000
0000
0000
0000
0000
0000
0000
0000
0001
0000
0000
0000
0000
0000
0000
0000
0000
0000
0000
0000
0100
0000
0000
0000
0000
0000
0000
0000
0000
0000
0000
0000
0010
0000
0000
0000
0000
0000
0000
0000
0000
0000
0000
0000
1000
0000
0000
0000
0000
0000
0000
0000
0000
0000
0000
0000
0001
0000
0000
0000
0000
0000
0000
0000
0000
0000
0000
0000
0100
0000
0000
0000
0000
0000
0000
0000
0000
0000
0000
0000
,
0001
0000
0000
0000
0000
0000
0000
1000
0000
0000
0000
0000
0000
0000
0100
0000
0000
0000
0000
0000
0000
0010
0000
0000
0000
0000
0000
0001
0000
0000
0000
0000
0000
0000
1000
0000
0000
0000
0000
0000
0000
0010
0000
0000
0000
0000
0000
0000
0100
0000
0000
0000
0000
0000
0000
0001
0000
0000
0000
0000
0000
0000
1000
0000
0000
0000
0000
0000
0000
0001
0000
0000
0000
0000
0000
0010
0000
0000
0000
0000
0000
0000
0100
0000
0000
0000
0000
0000
0000
1000
0000
0000
0000
0000
0000
0000
0001
0000
0000
0000
0000
0000
0000
0010
0000
0000
0000
0000
0000
0000
0001
0000
0000
0000
0000
0000
0000
1000
0000
0000
0000
0000
0000
0010
0000
0000
0000
0000
0000
0000
0100
0000
0000
0000
0000
0000
0000
0001
0000
0000
0000
0000
0000
0000
1000
0000
0000
0000
0000
0000
0000
0100
0000
0000
0000
0000
0000
0000
0010
0000
0000
0000
0000
0000
0000
0001
0000
0000
0000
0000
0000
1000
0000
0000
0000
0000
0000
0000
0001
0000
0000
0000
0000
0000
0000
0100
0000
0000
0000
0000
0000
0000
,
0010
0000
0000
0000
0000
0000
0000
1000
0000
0000
0000
0000
0000
0000
0100
0000
0000
0000
0000
0000
0000
0010
0000
0000
0000
0000
0000
0100
0000
0000
0000
0000
0000
0000
1000
0000
0000
0000
0000
0000
0000
0001
0000
0000
0000
0000
0000
0000
0010
0000
0000
0000
0000
0000
0000
0001
0000
0000
0000
0000
0000
0000
0100
0000
0000
0000
0000
0000
0000
0010
0000
0000
0000
0000
0000
1000
0000
0000
0000
0000
0000
0000
0001
0000
0000
0000
0000
0000
0000
1000
0000
0000
0000
0000
0000
0000
0100
0000
0000
0000
0000
0000
0000
0010
0000
0000
0000
0000
0000
0000
0001
0000
0000
0000
0000
0000
0000
1000
0000
0000
0000
0000
0000
0001
0000
0000
0000
0000
0000
0000
0100
0000
0000
0000
0000
0000
0000
0010
0000
0000
0000
0000
0000
0000
1000
0000
0000
0000
0000
0000
0000
0001
0000
0000
0000
0000
0000
0000
0010
0000
0000
0000
0000
0000
0000
0100
0000
0000
0000
0000
0000
1000
0000
0000
0000
0000
0000
0000
0001
0000
0000
0000
0000
0000
0000
0010
0000
0000
0000
0000
0000
0000
,
0001
1000
0100
0010
0001
0100
0001
1000
0010
0100
0001
0100
0010
1000
0001
0010
,
0001
0000
0000
0000
0000
0000
0000
1000
0000
0000
0000
0000
0000
0000
0010
0000
0000
0000
0000
0000
0000
0100
0000
0000
0000
0000
0000
0001
0000
0000
0000
0000
0000
0000
1000
0000
0000
0000
0000
0000
0000
0001
0000
0000
0000
0000
0000
0000
0010
0000
0000
0000
0000
0000
0000
0100
0000
0000
0000
0000
0000
0000
1000
0000
0000
0000
0000
0000
0000
0001
0000
0000
0000
0000
0000
0000
0000
1000
0000
0000
0000
0000
0000
0000
0001
0000
0000
0000
0000
0000
0000
0000
0000
0000
0000
0000
0100
0000
0000
0000
0000
0000
0000
0000
0000
0000
0000
0000
0010
0000
0000
0000
0000
0000
0000
0000
0000
0000
0000
0000
1000
0000
0000
0000
0000
0000
0000
0000
0000
0000
0000
0000
0001
0000
0000
0000
0000
0000
0000
0000
0000
0000
0000
0000
0010
0000
0000
0000
0000
0000
0000
0000
0000
0000
0000
0000
0100
0000
0000
0000
0000
0000
0000
0000
0000
0000
0000
0000
0010
0000
0000
0000
0000
0000
0000
0000
0000
0000
0000
0000
0001
0000
0000
0000
0000
0000
0000
0000
0000
0000
0000
0000
,
1000
0000
0000
0000
0000
0000
0000
0010
0000
0000
0000
0000
0000
0000
0100
0000
0000
0000
0000
0000
0000
0001
0000
0000
0000
0000
0000
1000
0000
0000
0000
0000
0000
0000
0001
0000
0000
0000
0000
0000
0000
0010
0000
0000
0000
0000
0000
0000
0100
0000
0000
0000
0000
0000
0000
1000
0000
0000
0000
0000
0000
0000
0001
0000
0000
0000
0000
0000
0000
1000
0000
0000
0000
0000
0000
0000
0001
0000
0000
0000
0000
0000
0000
0000
0010
0000
0000
0000
0000
0000
0000
0000
0000
0000
0000
0000
0100
0000
0000
0000
0000
0000
0000
1000
0000
0000
0000
0000
0000
0000
0100
0000
0000
0000
0000
0000
0000
0010
0000
0000
0000
0000
0000
0001
0000
0000
0000
0000
0000
0000
1000
0000
0000
0000
0000
0000
0000
0010
0000
0000
0000
0000
0000
0000
0100
0000
0000
0000
0000
0000
0000
0001
0000
0000
0000
0000
0000
0000
1000
0000
0000
0000
0000
0000
0000
0100
0000
0000
0000
0000
0000
0000
0010
0000
0000
0000
0000
0000
0000
0000
0100
0000
0000
0000
0000
0000
0000
0000
0000
0000
0000
0000
,
1000
0000
0000
0000
0000
0000
0000
0010
0000
0000
0000
0000
0000
0000
1000
0000
0000
0000
0000
0000
0000
0001
0000
0000
0000
0000
0000
0010
0000
0000
0000
0000
0000
0000
0100
0000
0000
0000
0000
0000
0000
1000
0000
0000
0000
0000
0000
0000
0001
0000
0000
0000
0000
0000
0000
0100
0000
0000
0000
0000
0000
0000
0010
0000
0000
0000
0000
0000
0000
1000
0000
0000
0000
0000
0000
0001
0000
0000
0000
0000
0000
0000
0010
0000
0000
0000
0000
0000
0000
0001
0000
0000
0000
0000
0000
0000
1000
0000
0000
0000
0000
0000
0000
0100
0000
0000
0000
0000
0000
0000
0010
0000
0000
0000
0000
0000
0000
0001
0000
0000
0000
0000
0000
1000
0000
0000
0000
0000
0000
0000
0010
0000
0000
0000
0000
0000
0000
1000
0000
0000
0000
0000
0000
0000
0100
0000
0000
0000
0000
0000
0000
0010
0000
0000
0000
0000
0000
0000
0001
0000
0000
0000
0000
0000
0000
1000
0000
0000
0000
0000
0000
0000
0100
0000
0000
0000
0000
0000
0000
0000
1000
0000
0000
0000
0000
0000
0000
0000
0000
0000
0000
0000
,
0002
0000
0000
0013
0000
0000
0100
1000
0100
0000
0000
0100
0000
0000
0100
0000
,
0020
0000
0000
0031
0000
0000
0100
0010
0100
0000
0000
0010
0000
0000
0100
0000
,
1000
0010
0100
0001
0100
0010
1000
0001
0100
0001
1000
0100
0010
0001
0100
0001
,
1000
0000
0010
0100
0010
0000
0100
0001
0100
0001
1000
0100
0010
0001
0100
0001
,
1000
0000
0010
0000
0100
0001
0000
1000
0001
0000
0010
0001
0000
1000
0010
0000
,
0100
0000
0002
0000
1003
0000
0100
0010
0000
0001
1000
0001
0010
0100
0010
0001
,
1000
0000
0000
0000
;
