#TITLE:Slash Dot Slash;
#SUBTITLE:(Slim boy fat);
#ARTIST:Round Wave Crusher;
#TITLETRANSLIT:;
#SUBTITLETRANSLIT:;
#ARTISTTRANSLIT:;
#CREDIT:;
#BANNER:slash-bn.png;
#BACKGROUND:slash-bg.png;
#LYRICSPATH:;
#CDTITLE:;
#MUSIC:Slash Dot Slash (Slim boy fat).ogg;
#OFFSET:0.009;
#SAMPLESTART:292.340;
#SAMPLELENGTH:17.000;
#SELECTABLE:YES;
#BPMS:0.000=220.000;
#STOPS:;
#BGCHANGES:;
// cache tags:
#FIRSTBEAT:0.000;
#LASTBEAT:1231.000;
#SONGFILENAME:Songs/Index Tournament 1/Slash Dot Slash (Slim boy fat) - [Aoreo]/Slash Dot Slash (Slim boy fat).sm;
#HASMUSIC:1;
#HASBANNER:1;
#MUSICLENGTH:336.727;
// end cache tags

//---------------dance-single - J. Nero----------------
#NOTES:
     dance-single:
     J. Nero:
     Challenge:
     19:
     1.000,1.000,0.030,0.184,1.000,3826.000,10.000,62.000,6.000,0.000:

1001
1000
0001
0010
,
0100
1000
0001
0100
,
0010
0100
0001
1000
,
0020
2030
3000
0200
2300
3020
0030
0400
,
0300
0001
1000
0001
,
0010
0100
0010
0001
,
0100
0010
1000
0100
,
0010
0000
0000
0000
0100
0000
0000
0000
1000
0000
0000
0000
0001
0000
1000
0100
,
1000
0001
0100
0001
0010
0100
1000
0001
1000
0010
0100
0001
0010
0001
1000
0100
,
1000
0001
0100
0001
0010
0100
1000
0001
1000
0010
0100
0001
0010
0100
1000
0010
,
1000
0001
0100
0001
0010
0100
1000
0001
1000
0010
0100
0001
0010
0100
1000
0010
,
1000
0001
0100
0001
0010
0100
0010
0001
1000
0100
1000
0010
1000
0100
0010
0001
,
1000
0010
1000
0001
0010
0100
1000
0001
1000
0010
0100
0001
0010
0001
1000
0100
,
1000
0001
0100
0001
0010
0100
1000
0001
1000
0010
0100
0001
0010
0001
1000
0100
,
1000
0001
0100
0001
0010
0100
1000
0001
1000
0010
0100
0001
0010
0001
1000
0100
,
2000
0001
0000
3001
,
1000
0010
0100
0001
0010
0100
0010
0001
1000
0010
0100
0001
0010
0100
0010
0001
,
1000
0010
0100
0001
0010
0100
0010
0001
1000
0010
0100
0001
0010
0100
0010
0001
,
1000
0010
0100
0001
0010
0100
0010
0001
1000
0010
0100
0001
0010
0100
0010
0001
,
1000
0010
0100
0001
1000
0100
0010
0100
1000
0010
0100
0010
1000
0001
0100
0001
,
1000
0010
0100
0001
0010
0100
0010
0001
1000
0010
0100
0001
0010
0100
0010
0001
,
1000
0010
0100
0001
0010
0100
0010
0001
1000
0010
0100
0001
0010
0100
0010
0001
,
1000
0010
0100
0001
0010
0100
0010
0001
1000
0010
0100
0001
0010
0100
0010
0001
,
1000
0010
0100
0001
1000
0100
0010
0100
1000
0010
0100
0010
1000
0100
0010
0001
,
1000
0010
0100
0001
0010
0100
0010
0001
1000
0010
0100
0001
0010
0100
0010
0001
,
1000
0010
0100
0001
0010
0100
0010
0001
1000
0010
0100
0001
0010
0100
0010
0001
,
1000
0010
0100
0001
0010
0100
0010
0001
1000
0010
0100
0001
0010
0100
0010
0001
,
1000
0010
0100
0001
1000
0100
0010
0100
1000
0010
0100
0010
1000
0001
0100
0001
,
1000
0010
0100
0001
0010
0100
0010
0001
1000
0010
0100
0001
1000
0100
0010
0001
,
1000
0010
0100
0001
1000
0100
0010
0001
1000
0010
0100
0001
1000
0100
0010
0001
,
1000
0010
0100
0001
0010
0100
0010
0001
0100
0010
1000
0100
0010
0001
0100
0010
,
2000
3000
0200
0300
0020
0030
0002
0003
2000
3000
0000
0000
2000
3000
0000
0000
,
0001
0100
0010
0100
0001
0010
0100
1000
,
0001
0000
0000
0000
0100
0000
0000
0000
0001
0000
0000
0000
1000
0000
0000
0000
0004
0003
0000
0000
0004
0003
0000
0000
0400
0300
0000
0000
0400
0300
0000
0000
,
0001
0010
0100
0010
0001
1000
0010
0100
,
0010
0000
1000
0000
0100
0000
0010
0000
0001
0000
1000
0000
0000
0000
0001
0100
,
0010
1000
0100
0010
0100
1000
0010
0100
,
0001
1000
0100
0010
0100
1000
0010
0100
,
0001
1000
0001
0100
0010
0100
0001
1000
,
0200
0300
0000
0000
0020
0030
0000
0000
0100
0000
0000
0000
2000
3000
0000
0000
0020
0030
0000
0000
0200
0300
0000
0000
0004
0000
0003
0000
1000
0000
0000
0000
,
0001
0100
0010
1000
0100
0010
0100
1000
0001
0100
0010
1000
0100
0010
0100
1000
,
0001
0100
0010
1000
0100
0010
0100
1000
0001
0100
0010
1000
0100
0010
0100
1000
,
0001
0100
0010
1000
0100
0010
0100
1000
0001
0100
0010
1000
0100
0010
0100
1000
,
0001
0100
0010
1000
0100
0010
0100
1000
0010
0100
0010
1000
0001
0010
0100
1000
,
0001
0100
0010
1000
0100
0010
0100
1000
0001
0100
0010
1000
0100
0010
0100
1000
,
0001
0100
0010
1000
0100
0010
0100
1000
0001
0100
0010
1000
0100
0010
0100
1000
,
0001
0100
0010
1000
0100
0010
0100
1000
0010
0100
0010
1000
0001
0000
0000
0000
,
1001
0000
4000
3000
0000
0000
0000
0000
0101
0000
0004
0003
1000
0100
0010
0100
,
1000
0010
1000
0001
0100
0001
1000
0100
0010
0100
1000
0001
0100
0010
0100
0001
,
1000
0100
0010
0001
1000
0001
0100
0001
1000
0010
0100
0010
1000
0100
0010
0100
,
1000
0001
0100
0010
0100
0001
1000
0100
0010
0100
1000
0001
0100
0010
0100
0001
,
1000
0100
1000
0001
1000
0100
0010
0001
0400
0300
0004
0003
0040
0030
0400
0300
,
1000
0010
1000
0001
0100
0001
1000
0100
0010
0100
1000
0001
0100
0010
0100
0001
,
1000
0100
1000
0001
1000
0010
0100
0001
0010
0100
0010
0001
1000
0100
1000
0001
,
0100
0010
0100
0001
1000
0100
1000
0001
0010
0100
0010
0001
1000
0100
0010
0100
,
1000
0001
0100
0001
1000
0001
0010
0100
2000
3000
0010
0000
0400
0300
0000
0000
,
0001
1000
0010
0100
0010
1000
0001
1000
0100
0010
0001
1000
0100
0010
0100
1000
,
0001
0100
0001
1000
0001
0100
0010
0100
0001
1000
0100
0010
0100
1000
0001
0100
,
0001
1000
0010
0100
0001
1000
0100
1000
0001
0010
0001
1000
0100
0010
0100
1000
,
0001
0100
0010
0100
0001
1000
0100
0010
0001
1000
0001
0100
0020
0030
2000
3000
,
0001
0100
0010
0100
0001
1000
0100
1000
0001
0010
0100
0010
0001
1000
0100
0010
,
0001
1000
0100
1000
0001
1000
0010
0100
0010
1000
0001
0010
0100
0010
0001
1000
,
0010
1000
0100
0010
0100
1000
0010
0100
,
0004
0000
1003
0000
0400
0000
1300
0000
0002
0003
0020
0030
0001
0000
0000
0000
,
0010
0100
0010
0001
1000
0010
0100
0001
0010
0100
0010
0001
1000
0010
0100
0001
,
1000
0100
1000
0010
1000
0001
0100
0001
1000
0100
0010
0001
1000
0010
0100
0001
,
0010
0100
0010
0001
1000
0010
0100
0001
0010
0100
0010
0001
1000
0100
0010
0100
,
1000
0001
0100
0001
1000
0001
0010
0100
1000
0001
1000
0010
0200
0300
0002
0003
,
1000
0010
0100
0001
0010
0100
0010
0001
1000
0010
0100
0001
0010
0100
0010
0001
,
1000
0100
1000
0001
1000
0010
0100
0001
0010
0001
1000
0001
0010
0100
1000
0001
,
1000
0010
0100
0001
0010
0100
0010
0001
1000
0010
0100
0001
0010
0100
0010
0001
,
1000
0100
1000
0001
1000
0010
0100
0001
0010
0100
1000
0001
0100
0010
0100
0010
,
1000
0001
0100
0010
1000
0100
0010
0100
1000
0001
0100
0010
1000
0100
0010
0100
,
1000
0001
1000
0010
1000
0001
0100
0010
0100
0001
0010
0100
0010
0001
0100
0010
,
1000
0001
1000
0010
1000
0001
0100
0010
0100
0001
0010
0100
0010
0001
0100
0010
,
1000
0001
1000
0010
1000
0001
0100
0010
0100
0001
0010
0100
1000
0010
0100
0010
,
1000
0001
0100
0010
1000
0100
0010
0100
1000
0001
0100
0010
1000
0100
0010
0100
,
1000
0001
0010
0001
1000
0001
0100
0010
1000
0010
0100
0001
0010
0100
0010
0001
,
1000
0001
0000
0000
1000
0010
0000
0000
0100
0001
0000
0000
1000
0100
0000
0000
,
1000
0000
0000
0000
0000
0000
0000
0000
0000
0000
0000
0000
0000
0000
0000
0000
0010
0000
0000
0000
0000
0000
0000
0000
0000
0000
0000
0000
0000
0000
0000
0000
1000
0000
0000
0000
0000
0000
0000
0000
0000
0000
0000
0000
0000
0000
0000
0000
0001
0000
0000
0000
0000
0000
0000
0000
0000
0000
0000
0000
0000
0000
0000
0000
0010
0000
0000
0000
0000
0000
0000
0000
0000
0000
0000
0000
0000
0000
0000
0000
0100
0000
0000
0000
0000
0000
0000
0000
0000
0000
0000
0000
0000
0000
0000
0000
4000
0000
0000
0000
0000
0000
3000
0000
0000
0000
0000
0000
0000
0000
0000
0000
0000
0000
0000
0000
0000
0000
0000
0000
0004
0000
0000
0000
0000
0000
0003
0000
0000
0000
0000
0000
0000
0000
0000
0000
0000
0000
0000
0000
0000
0000
0000
0000
0000
0000
0000
0000
0000
0000
0000
0000
0000
0000
0000
0000
0000
0000
0000
0000
0000
0000
0000
0000
0000
0000
0000
0000
0000
0000
0000
0000
0000
0000
0000
0000
0000
0000
0000
0000
0000
0000
0000
0000
0000
0000
0000
0000
0000
0000
0000
0000
,
1000
0010
1000
0100
0010
0001
1000
0001
,
0000
0000
0000
0000
,
1000
0010
0100
0010
1000
0001
0010
0100
,
2000
0000
3010
0000
0200
0000
0310
0000
2000
0010
3100
0010
1000
0100
0010
0001
,
1000
0100
0010
0100
1000
0010
0100
0001
,
0000
0000
0000
0000
,
1000
0100
1000
0010
0100
0001
1000
0001
,
0010
0100
1000
0010
1000
0100
0010
0001
0100
0002
0000
0000
,
1003
0100
0010
0100
1000
0001
0100
0010
,
0100
0000
0001
0000
1000
0000
0100
0000
0010
0000
0001
1000
0001
0010
0100
1000
,
0001
0100
0010
0100
0001
1000
0100
0010
,
0100
0000
1000
0000
0001
0000
0100
0000
0001
0000
1000
0100
0010
0100
1000
0001
,
0100
0010
0100
0001
0010
0001
0100
0010
,
1000
0100
0010
0100
1000
0010
0100
0001
,
1000
0010
0100
0001
0010
0100
0010
0001
1000
0010
0100
0001
0010
0100
0010
0001
,
2000
0000
0000
0000
0000
0000
0000
0000
3002
0003
0000
0000
0200
0300
0000
0000
0002
0003
0000
0000
0020
0000
0000
0000
0M30
0000
0000
0000
0000
0000
0000
0000
,
0001
0100
0010
1000
0100
0010
0100
1000
0001
0100
0010
1000
0100
0010
0100
1000
,
0001
0100
0010
1000
0100
0010
0100
1000
0001
0100
0010
0100
0001
0010
0100
1000
,
0001
1000
0100
0010
0100
1000
0010
0100
0010
1000
0100
0010
0100
1000
0010
0100
,
0010
1000
0100
0010
0100
1000
0001
0100
0010
0100
0001
0010
0100
0010
0001
0100
,
0001
1000
0010
0100
0001
0010
0100
0010
0001
1000
0010
0100
0001
0010
0100
0010
,
0001
1000
0010
0100
0001
0010
0100
0010
0001
0100
0010
0100
0001
0010
0100
1000
,
0001
0010
0001
0100
0010
0100
0001
0010
0001
0100
0010
0100
0001
0010
0001
1000
,
0100
0010
0100
1000
0001
0100
0010
0100
0002
0000
0000
0000
0403
0300
0000
0000
,
0001
0100
0010
1000
0100
0010
0100
1000
0001
0100
0010
1000
0100
0010
0001
1000
,
0001
0100
0010
1000
0100
0010
0100
1000
0001
0100
0010
1000
0100
1000
0010
0100
,
0001
1000
0010
0100
0001
0010
0100
0010
0001
1000
0010
0100
0001
0010
0100
0010
,
0001
0000
1000
0000
0010
0000
0100
0000
0001
0000
0010
0000
0100
0000
0010
0000
0002
0003
0000
0000
2000
3000
0000
0000
0002
0003
0000
0000
0200
0300
0000
0000
,
0001
0100
0010
1000
0100
0010
0100
1000
0001
0100
0010
1000
0100
0010
0100
1000
,
0001
0100
0010
1000
0100
0010
0100
1000
0001
0100
0010
1000
0100
0010
0100
1000
,
0001
0000
0100
0000
0001
0000
1000
0100
0010
0100
1000
0001
0100
0000
0010
0000
,
2000
0000
3001
0000
2000
0000
3001
0000
1000
0100
0010
0001
1000
0010
1000
0100
,
0010
0001
1000
0010
0100
0001
1000
0001
1000
0100
0010
0100
1000
0001
0010
0001
,
1000
0100
1000
0001
1000
0010
0100
0010
1000
0001
0010
0100
1000
0001
0100
0001
,
0010
0100
1000
0001
1000
0010
0100
0001
0010
0100
1000
0001
1000
0010
0100
0001
,
0010
0100
1000
0100
1000
0001
0100
0001
0010
0100
1000
0001
0100
0010
0100
0001
,
1000
0100
0010
0100
1000
0001
0100
0010
0100
0001
1000
0100
0010
0100
1000
0001
,
0100
0010
0100
0001
1000
0100
0010
0100
1000
0001
0100
0010
0100
0001
1000
0100
,
1000
0000
0000
0000
,
0000
0000
0000
0000
0000
0000
0000
0000
0000
0000
0000
0000
0000
0000
0010
1000
,
0100
0010
0001
1000
0001
0100
0010
0100
0001
1000
0100
0010
0100
1000
0001
0100
,
0001
1000
0100
1000
0001
1000
0010
0100
0010
1000
0001
0010
0100
0010
0001
1000
,
0010
0100
0010
1000
0001
0100
0001
1000
0100
0010
0001
1000
0010
1000
0001
0100
,
0010
1000
0100
0010
0002
0003
1000
0001
,
1000
0100
1000
0001
0010
0001
1000
0100
1000
0001
0010
0100
0010
0001
1000
0010
,
1000
0001
0100
0001
1000
0001
0010
0100
1000
0001
0100
0010
0100
0001
0010
0100
,
1000
0001
1000
0010
0100
0001
1000
0100
0010
0100
1000
0001
0100
0001
1000
0010
,
0100
0001
0010
0100
0010
0001
0100
0010
1000
0100
0010
0100
1000
0010
0100
0001
,
2000
0000
0000
0000
3001
0100
0001
1000
0010
0100
0010
1000
0001
0010
0100
0010
,
0001
1000
0100
0010
0001
1000
0100
1000
0001
0100
0001
1000
0010
0100
0010
1000
,
0001
0100
0001
1000
0010
1000
0001
0010
0100
0010
0001
1000
0100
0010
0001
2000
,
0000
0000
0000
0000
3001
0100
0010
0100
0001
1000
0001
1000
0100
0010
0001
0100
,
0002
0000
0000
0000
1003
0100
0010
0100
1000
0001
0100
0001
1000
0100
0010
0001
,
1000
0010
1000
0001
0100
0010
0100
0001
1000
0100
1000
0001
0100
0001
1000
0100
,
2000
0000
0000
0000
3001
0100
0001
1000
0100
0010
0001
1000
0010
1000
0001
0010
,
0100
1000
0001
0100
0010
0100
0001
1000
,
0002
0000
0000
0000
1003
0100
0010
0100
1000
0001
0100
0001
1000
0010
0100
0010
,
1000
0001
0010
0100
1000
0001
0100
0010
0100
0001
1000
0100
0010
0001
1000
0010
,
2000
0000
0000
0000
3001
0100
0001
1000
0100
0010
0100
1000
0001
0100
0001
1000
,
0010
0100
0010
0100
0001
1000
0001
1000
,
0200
0010
0300
0000
0000
0000
0000
0001
,
2000
0010
3000
0000
0000
0000
0000
1000
,
0002
0103
0000
0000
0000
0000
0000
0000
,
0001
1000
0000
1000
0000
1000
0000
0000
,
0001
1000
0010
0100
0001
1000
0100
0010
0001
1000
0010
0100
0001
1000
0100
0010
,
0001
1000
0010
0100
0001
1000
0100
0010
0001
1000
0010
0100
0001
1000
0100
0010
,
0001
1000
0010
0100
0001
1000
0100
0010
0001
1000
0010
0100
0001
1000
0100
0010
,
0001
1000
0010
0100
0001
1000
0100
0010
0001
0100
0010
0100
0001
0010
0100
0010
,
0001
1000
0010
0100
0001
1000
0100
0010
0001
1000
0010
0100
0001
1000
0100
0010
,
0001
1000
0010
0100
0001
1000
0100
0010
0001
1000
0010
0100
0001
1000
0100
0010
,
0001
0100
0010
0100
0001
0010
0100
1000
0010
0100
0010
1000
0100
0010
0001
0100
,
0001
1000
0010
0100
0001
0010
0100
1000
0001
0000
0000
0000
0000
0000
1000
0001
,
1000
0010
0100
0001
1000
0100
0010
0001
1000
0010
0100
0001
1000
0100
0010
0001
,
1000
0010
0100
0001
1000
0100
0010
0001
1000
0010
0100
0001
1000
0100
0010
0001
,
1000
0010
0100
0001
1000
0100
0010
0001
1000
0010
0100
0001
1000
0100
0010
0001
,
1000
0010
0100
0001
1000
0100
0010
0001
1000
0100
1000
0010
0100
0010
1000
0100
,
1000
0001
0010
0100
1000
0001
0100
0010
1000
0001
0010
0100
1000
0001
0100
0010
,
1000
0001
0010
0100
1000
0001
0100
0010
1000
0001
0010
0100
1000
0001
0100
0010
,
1000
0000
0010
0000
0100
0000
0001
1000
0001
0100
0001
1000
0100
0000
0010
0001
,
2000
0000
3010
0000
0200
0000
0301
0000
1000
0001
0100
0010
1000
0001
0010
0100
,
1000
0010
0100
0001
1000
0100
0010
0001
1000
0010
0100
0001
1000
0100
0010
0001
,
1000
0010
0100
0001
1000
0100
0010
0001
1000
0010
0100
0001
1000
0100
0010
0001
,
1000
0010
0100
0001
1000
0100
0010
0001
1000
0010
0100
0001
1000
0100
0010
0001
,
1000
0100
0010
0100
1000
0001
0100
0010
0100
0001
1000
0100
0010
0100
1000
0001
,
1000
0010
0100
0001
1000
0100
0010
0001
1000
0010
0100
0001
1000
0100
0010
0001
,
1000
0010
0100
0001
1000
0100
0010
0001
1000
0010
0100
0001
1000
0100
0010
0001
,
1000
0100
0010
0100
1000
0010
0100
0010
1000
0001
0010
0100
0010
0001
0100
0001
,
1000
0000
0000
0000
0001
0000
0000
0000
0001
0000
0000
0000
4000
0000
3010
0100
,
0001
1000
0100
0010
0001
1000
0010
0100
0001
1000
0100
0010
0001
1000
0010
0100
,
0001
1000
0100
0010
0001
1000
0010
0100
0001
1000
0100
0010
0001
1000
0010
0100
,
0001
0010
0100
1000
0001
0100
0010
1000
0001
0010
0100
1000
0001
0100
0010
1000
,
0001
0010
0100
1000
0001
0100
0010
1000
0001
0010
0100
1000
0002
0000
0003
0000
,
1000
0010
0100
0001
1000
0100
0010
0001
1000
0010
0100
0001
1000
0100
0010
0001
,
1000
0010
0100
0001
1000
0100
0010
0001
1000
0010
0100
0001
1000
0100
0010
0001
,
1000
0010
0100
0001
0010
0100
0010
0001
0100
0010
0100
0001
1000
0100
0010
0001
,
1000
0000
0100
0000
0010
0000
0100
1000
0001
0100
0001
1000
0010
0000
0100
0000
,
0101
0004
0003
0000
0000
0000
0000
0000
,
0000
0000
0000
0000
,
M000
0M00
M000
0M00
0000
0000
0000
0000
,
0000
0000
0000
0000
0000
0000
0000
0000
0000
0000
0000
0000
0100
0001
0010
0100
,
1000
0000
0004
0003
0100
0000
0010
0000
0000
0000
0100
0000
0001
0000
0000
0000
,
1000
0000
0100
1000
0001
0000
0100
0001
,
1000
0000
0100
0010
0001
0000
1000
0010
,
0100
0001
0100
0010
0100
0001
0100
0010
,
0100
0001
1000
0100
0010
0100
1000
0000
,
0001
0100
0010
0100
0001
1000
0100
1000
,
0001
0100
0010
0100
0001
1000
0100
1000
,
0001
0100
0010
0100
0001
0100
0010
0100
,
0001
1000
0100
0010
0000
0100
1000
0000
,
0001
0100
0010
0100
0001
1000
0100
1000
,
0001
0100
0010
0100
0001
1000
0100
1000
,
0001
0100
0010
0100
0001
0100
0010
0100
,
0001
1000
0100
0010
0100
1000
0001
0100
,
0010
0000
1000
0001
0100
0000
0001
1000
,
0100
0000
0010
0001
1000
0000
0010
1000
,
0001
0100
0010
0100
0001
0100
0010
0100
,
0002
0003
4000
3000
0000
0000
0000
0000
0000
0000
0000
0000
0000
0000
0000
0000
,
0002
0003
0000
0000
0000
0000
0000
0000
,
1000
0000
0001
0100
0001
0000
1000
0000
,
0000
0000
0000
0000
0000
0000
0000
0000
0000
0000
0000
0000
0001
0010
0100
1000
,
0010
0100
0001
0100
0010
0100
0001
0100
,
0010
1000
0100
1000
0100
1000
0100
1000
,
0001
0000
0100
0000
0010
0000
1000
0100
0010
0100
1000
0001
1000
0000
0001
0100
,
0001
0000
0100
0000
0001
0000
1000
0100
0010
0100
1000
0001
1000
0100
0010
0001
,
0100
0001
0010
0001
0100
0001
0010
0001
,
1000
0100
1000
0100
1000
0100
1000
0100
,
0010
0100
1000
0001
1000
0010
0100
0001
1000
0100
0010
0001
1000
0001
0100
0010
,
1000
0000
0000
0000
,
0001
0100
0001
1000
0100
0010
0100
1000
0001
0100
0010
0100
0001
1000
0100
0010
,
0001
1000
0010
1000
0001
0100
0001
1000
0100
0010
0100
1000
0010
0100
0010
0100
,
0001
1000
0100
0010
0100
1000
0001
0100
0010
0100
0001
1000
0100
0010
0001
1000
,
0100
1000
0001
0100
0010
1000
0001
0100
0010
0100
0001
0010
0100
0010
0001
0100
,
0001
1000
0100
0010
0100
1000
0001
0100
0001
1000
0100
1000
0001
0100
0010
0100
,
0001
1000
0010
0100
0010
1000
0001
0100
0001
1000
0100
1000
0001
1000
0010
0100
,
0010
1000
0100
0010
0100
1000
0010
0100
0010
1000
0100
0010
0100
1000
0010
1000
,
0001
0100
0010
0100
0001
1000
0100
0010
0001
0000
0100
0000
0001
0000
1000
0000
,
0100
0010
0100
1000
0001
0100
0001
1000
0010
0100
0010
1000
0001
0100
0010
0100
,
0001
1000
0001
0100
0001
1000
0100
0010
0100
1000
0001
0100
0001
1000
0010
0100
,
0010
1000
0001
0010
0001
1000
0100
0010
0100
1000
0001
0100
0001
1000
0010
0100
,
0001
0010
0100
0010
0001
0100
0010
0100
0001
1000
0100
1000
0010
0100
0010
1000
,
0100
1000
0001
0100
0010
0100
0001
1000
0100
0010
0100
1000
0001
0100
0010
0100
,
0001
1000
0100
0010
0100
1000
0001
0100
0010
0100
0001
1000
0100
0010
0100
1000
,
0001
0100
0001
0010
0100
0010
0001
0100
,
0010
0000
1000
0000
0000
0000
0001
0000
1000
0100
1000
0001
0100
0010
1000
0100
,
0010
0001
1000
0010
1000
0001
0100
0010
0100
0001
1000
0100
0010
0100
1000
0001
,
0010
0001
0100
0010
0100
0001
0010
0001
0100
0010
0100
0001
0010
0001
0100
0010
,
1000
0100
0010
0001
1000
0010
1000
0001
0100
0010
0100
0001
1000
0100
0010
0001
,
1000
0100
1000
0010
0100
0010
1000
0100
1000
0010
0100
0010
1000
0100
1000
0010
,
0100
0001
0010
0100
1000
0001
0100
0001
1000
0100
0010
0100
1000
0001
0100
0010
,
0100
0001
0010
0001
0100
0010
0100
0001
0010
0001
0100
0010
0100
0001
0010
0001
,
0100
0010
1000
0100
0010
0100
1000
0001
0100
0010
0100
0001
1000
0100
1000
0001
,
0100
0000
0000
0000
,
0001
0100
0001
1000
0100
0010
0100
1000
0001
0100
0010
0100
0001
1000
0010
0100
,
0010
1000
0100
1000
0010
0100
0010
1000
0100
1000
0010
0100
0010
1000
0100
1000
,
0010
0100
0001
0010
0100
1000
0001
0100
0001
1000
0100
0010
0100
1000
0001
0100
,
0010
0100
0001
0010
0001
0100
0010
0100
0001
0010
0001
0100
0010
0100
0001
0010
,
0001
0100
0010
1000
0001
0010
0100
0010
0001
1000
0010
0100
0010
0100
0001
1000
,
0100
1000
0010
0100
0010
1000
0100
1000
0010
0100
0010
1000
0100
1000
0010
0100
,
0001
0000
1000
0000
0100
0000
1000
0001
0100
0001
1000
0100
0010
0000
0001
1000
,
0001
0000
1000
0000
0010
0000
1000
0000
0001
0100
0001
0010
0200
0300
2000
0000
,
3001
0100
0010
1000
0100
0010
0100
1000
0001
0100
0010
1000
0100
0010
0100
1000
,
0001
0100
0010
1000
0100
0010
0100
1000
0001
0100
0010
1000
0100
0010
0100
1000
,
0001
0100
0010
1000
0100
0010
0100
1000
0001
0100
0010
1000
0100
0010
0100
1000
,
0001
0100
0010
1000
0100
0010
0100
1000
0010
0100
0010
1000
0001
0010
0100
1000
,
0001
0100
0010
1000
0100
0010
0100
1000
0001
0100
0010
1000
0100
0010
0100
1000
,
0001
0100
0010
1000
0100
0010
0100
1000
0001
0100
0010
1000
0100
0010
0100
1000
,
0001
0100
0010
1000
0100
0010
0100
1000
0001
0100
0010
1000
0100
0010
0100
1000
,
0001
0100
0010
1000
0100
0010
0100
1000
0001
0000
0000
0000
0000
0000
1000
0001
,
1000
0010
0100
0001
0010
0100
0010
0001
1000
0010
0100
0001
0010
0100
0010
0001
,
1000
0010
0100
0001
0010
0100
0010
0001
1000
0010
0100
0001
0010
0100
0010
0001
,
1000
0010
0100
0001
0010
0100
0010
0001
1000
0010
0100
0001
0010
0100
0010
0001
,
1000
0010
0100
0001
0010
0100
0010
0001
0100
0010
0100
0001
0010
0100
1000
0001
,
1000
0010
0100
0001
0010
0100
0010
0001
1000
0010
0100
0001
0010
0100
0010
0001
,
1000
0010
0100
0001
0010
0100
0010
0001
1000
0010
0100
0001
0010
0100
0010
0001
,
1000
0000
0010
0000
1000
0000
0001
0100
0010
0100
0001
1000
0200
0300
0020
0030
,
0002
0000
0103
0000
0002
0000
1003
0000
0010
0100
0001
1000
0100
0010
0001
1000
,
0001
0100
0010
1000
0100
0010
0100
1000
0001
0100
0010
1000
0100
0010
0100
1000
,
0001
0100
0010
1000
0100
0010
0100
1000
0001
0100
0010
1000
0100
0010
0100
1000
,
0001
0100
0010
1000
0100
0010
0100
1000
0001
0100
0010
1000
0100
0010
0100
1000
,
0001
0100
0010
1000
0100
0010
0100
1000
0010
0100
0010
1000
0001
0100
0010
1000
,
0001
0100
0010
1000
0100
0010
0100
1000
0001
0100
0010
1000
0100
0010
0100
1000
,
0001
0100
0010
1000
0100
0010
0100
1000
0001
0100
0010
1000
0100
0010
0100
1000
,
0001
0000
0100
0000
0001
0000
1000
0000
0010
1000
0001
0010
0100
1000
0010
0100
,
0010
0000
0000
0000
1000
0000
0001
0000
0100
0001
1000
0100
0010
0001
0100
0001
,
1000
0010
0100
0001
0010
0100
0010
0001
1000
0010
0100
0001
0010
0100
0010
0001
,
1000
0010
0100
0001
0010
0100
0010
0001
1000
0010
0100
0001
0010
0100
0010
0001
,
1000
0010
0100
0001
0010
0100
0010
0001
1000
0010
0100
0001
0010
0100
0010
0001
,
1000
0010
0100
0001
0010
0100
0010
0001
0100
0010
0100
0001
0010
0100
1000
0001
,
1000
0010
0100
0001
0010
0100
0010
0001
1000
0010
0100
0001
0010
0100
0010
0001
,
1000
0010
0100
0001
0010
0100
0010
0001
1000
0010
0100
0001
0010
0100
0010
0001
,
0100
0010
0100
0001
1000
0010
0100
0001
1000
0100
0010
0001
1000
0010
0100
0010
,
1000
0000
0001
0000
0100
0000
0001
0100
0001
1000
0100
0010
0001
0000
1000
0000
,
0001
1000
0100
1000
0010
0100
0001
0010
0001
1000
0100
1000
0010
0100
0001
0100
,
0001
1000
0100
1000
0010
0100
0001
0100
0010
1000
0100
0010
0100
1000
0010
0100
,
0001
1000
0100
1000
0010
0100
0010
0100
0001
1000
0100
1000
0010
0100
0001
0100
,
0001
1000
0100
1000
0010
0100
0010
1000
0001
0100
0001
0000
0000
0000
1000
0100
,
1000
0001
0100
0001
0010
0100
1000
0001
1000
0010
0100
0001
0010
0100
1000
0001
,
1000
0010
0100
0001
0010
0100
1000
0001
1000
0010
0100
0001
0010
0100
1000
0001
,
1000
0010
0100
0001
0010
0100
1000
0001
0100
0010
0100
0001
0010
0100
1000
0001
,
1000
0010
0100
0010
1000
0100
0010
0100
1000
0000
0001
0000
0000
0000
0000
0000
,
1000
0001
0100
0001
0010
0100
1000
0001
0100
0010
0100
0001
0010
0100
1000
0001
,
1000
0010
0100
0001
0010
0100
1000
0001
0100
0010
0100
0001
0010
0100
1000
0010
,
1000
0001
0100
0001
0010
0100
1000
0001
0100
0010
0100
0001
0010
0100
1000
0001
,
1000
0010
0100
0001
0010
0001
1000
0100
0010
0001
1000
0010
0100
0010
1000
0001
,
0100
0010
0100
0001
0010
0100
1000
0001
1000
0010
0100
0001
0010
0100
1000
0001
,
0100
0010
0100
0001
0010
0100
1000
0001
0100
0010
0100
0001
0010
0001
1000
0100
,
1000
0100
1000
0010
0100
0001
0000
0000
,
1001
0000
4000
3000
0000
0000
0000
0000
0101
0000
0004
0003
0000
0000
0000
0000
,
1000
0010
0100
0001
1000
0100
1000
0001
0100
0010
0100
0001
1000
0100
0010
0100
,
1000
0001
0100
0001
1000
0100
0010
0001
1000
0010
0100
0010
1000
0001
0010
0100
,
0010
0001
1000
0100
1000
0001
0100
0010
0100
0001
1000
0100
1000
0001
0100
0010
,
0100
0001
1000
0100
0010
0001
0100
0010
0100
0001
0010
0100
0010
0001
0100
0010
,
1000
0100
1000
0001
0010
0100
1000
0001
0100
0001
1000
0010
0100
0010
1000
0001
,
0010
0100
0010
0001
1000
0010
1000
0001
0100
0010
0100
0001
1000
0100
0010
0100
,
1000
0001
0100
0010
0100
0001
1000
0100
0010
0001
1000
0010
1000
0000
0001
0000
,
1000
0010
1000
0001
0010
0000
0100
0000
1000
0001
1000
0010
1000
0100
0010
0001
,
1000
0100
0010
0100
1000
0001
0100
0010
,
0100
0001
1000
0100
0010
0001
1000
0100
,
1000
0010
0100
0010
1000
0001
0010
0100
,
1000
0001
0100
0010
0100
0001
2000
3000
,
0001
0100
0001
0010
0100
1000
0001
0100
,
0010
0100
0001
1000
0100
0010
0100
1000
,
0001
0000
0010
0000
0001
0000
0100
0000
0010
0000
0100
0000
0001
0000
1000
0001
,
1000
0100
0010
0100
1000
0000
1000
0000
,
0101
0004
0003
0000
0000
0000
0000
0000
,
0000
0000
0000
0000
,
0000
0000
0000
0000
,
0000
0000
0000
M000
;
