#TITLE:Crushing Day;
#SUBTITLE:Surfing With The Alien (1987);
#ARTIST:Joe Satriani;
#TITLETRANSLIT:;
#SUBTITLETRANSLIT:;
#ARTISTTRANSLIT:;
#CREDIT:;
#BANNER:crushing-bn.png;
#BACKGROUND:crushing-bg.png;
#LYRICSPATH:;
#CDTITLE:!gloveTitle.png;
#MUSIC:104_joe_satriani_-_crushing_day-mod.mp3;
#OFFSET:-4.532;
#SAMPLESTART:100.000;
#SAMPLELENGTH:12.000;
#SELECTABLE:YES;
#BPMS:0.000=162.750;
#STOPS:;
#BGCHANGES:;
// cache tags:
#FIRSTBEAT:4.000;
#LASTBEAT:315.000;
#SONGFILENAME:Songs/Astronomic Metal Collection/Crushing Day (GLoVE)/crushingday.sm;
#HASMUSIC:1;
#HASBANNER:1;
#MUSICLENGTH:139.389;
// end cache tags

//---------------dance-single - ----------------
#NOTES:
     dance-single:
     :
     Hard:
     12:
     1.000,1.000,0.639,1.000,1.000,857.000,89.000,165.000,0.000,23.000:

0000
0000
0000
0000
,
0001
1000
1000
0001
1000
1000
1000
1000
,
0010
1000
1000
0010
1000
1000
1000
1000
,
0100
1000
1000
0100
1000
1000
1000
1000
,
0002
0000
0000
0000
0000
0000
0000
0000
0000
0000
0000
0000
0000
0000
0000
0000
0003
0000
0000
0020
0000
0000
0030
0200
0000
0000
0000
0000
0000
0000
0300
0000
,
1100
0001
0001
0100
0010
0100
0001
0100
0010
0100
0001
1000
0010
0001
1000
0010
,
0001
0100
0010
0100
0001
0100
0010
0100
0002
0000
0000
0000
0000
0000
0003
0000
,
1100
0010
0001
0100
0010
0100
0001
0100
0010
0100
0001
1000
0010
0001
1000
0010
,
0001
0000
0000
0000
0000
0000
0000
0000
0000
0000
0000
0000
1000
0000
0000
0000
0000
0000
0000
0000
0000
0100
0000
0000
0010
0000
0000
0000
0000
0000
0000
0000
0000
0000
0000
0000
0000
0000
0000
0000
0000
0000
0000
0000
0000
1000
0000
0000
0100
0000
0000
0000
0000
0000
0000
0000
0000
0000
0000
0000
0010
0000
0000
0000
0000
0000
0000
0000
0000
0000
0000
0000
0000
0000
0000
0000
0000
0000
0000
0000
0000
0000
0000
0000
0010
0000
0000
0000
0000
0000
0000
0000
0002
0000
0000
0000
0000
0000
0000
0000
0000
0000
0000
0000
0000
0000
0000
0000
0000
0000
0000
0000
0000
0000
0000
0000
0000
0000
0000
0000
0000
0000
0000
0000
0000
0000
0000
0000
0000
0000
0000
0000
0000
0000
0000
0000
0000
0000
0000
0000
0000
0000
0000
0000
0000
0000
0000
0000
0000
0000
0000
0000
0000
0000
0000
0000
0000
0000
0000
0000
0000
0000
0000
0000
0000
0000
0000
0000
0003
0000
0000
0000
0000
0000
0000
0000
0000
0000
0000
0000
0000
0000
0000
0000
0000
0000
0000
0000
0000
0000
0000
0000
,
1100
0010
0001
0100
0010
0100
0001
0100
0010
0100
0001
1000
0010
0001
1000
0010
,
0001
0100
0010
0100
0001
0100
1000
0000
0010
0100
1000
0000
0002
0000
0000
0003
,
1100
0010
0001
0100
0010
0100
0001
0100
0010
0100
1000
0100
0010
0100
0001
0200
,
0000
0000
0000
0000
0302
0000
0000
0000
0000
0000
0000
0000
0200
0003
0000
0300
,
1100
0010
0001
0100
0010
0100
0001
0100
0010
0100
1000
0100
0010
0001
1000
0010
,
0001
0100
0010
0100
0001
0100
0010
0200
0000
0000
0000
2000
0000
0000
0000
3300
,
1100
0010
0001
0100
0010
0100
0001
0100
0010
0100
0001
1000
0100
0010
1000
0100
,
0010
0000
1000
0000
0100
0000
0001
0000
2000
0000
3100
0000
0010
0000
0010
0000
0002
0000
0000
0000
0000
0000
0000
0200
0000
0000
0000
0000
0003
0000
0300
0000
,
1100
0001
1000
0100
0010
0100
0001
0100
0010
0100
0001
1000
0010
0001
1000
0010
,
0001
0100
0010
0100
0001
0100
0001
1000
0001
0010
0100
1000
0202
0000
0000
0303
,
1100
0000
0000
0010
0000
0000
0001
0000
0000
0100
0000
0000
0010
0000
0000
0100
0000
0000
0001
0000
0000
0100
0000
0000
0010
0000
0000
0100
0000
0000
0001
0000
0000
0010
0000
0000
1000
0000
0000
0100
0000
0000
0010
0000
0000
0000
0200
0000
,
0000
0000
0302
0000
0000
0000
0000
0003
,
0220
0330
0022
0033
1000
0000
1000
0000
1000
0000
1000
0000
1000
0000
0220
0000
,
0000
0330
0022
0033
1000
0000
1000
0000
0002
0000
0203
0300
0010
0000
2202
0000
,
0000
3303
0222
0333
1000
0000
1000
0000
1000
0000
1000
0000
1000
0000
2202
0000
,
0000
3303
0222
0333
1000
0000
1000
0000
1000
0000
1000
0000
1000
0000
0220
0000
,
0000
0330
0022
0033
1000
0000
1000
0000
1000
0000
1000
0000
1000
0000
0220
0000
,
0000
0330
0022
0033
1000
0000
1000
0000
0002
0000
0203
0300
0010
0000
2202
0000
,
0000
3303
0222
0333
1000
0000
1000
0000
1000
0000
1000
0000
1000
0000
2202
0000
,
0000
3303
0222
0333
1000
0000
1000
0000
1000
0000
1000
0000
1000
0000
0220
0000
,
0000
0330
0122
0033
1001
0000
1100
0000
1010
0000
1001
0000
1000
0000
0220
0000
,
0000
0330
0122
0033
1001
0000
1100
0000
0102
0000
0213
0300
0010
0000
2202
0000
,
0000
3303
1222
0333
1001
0000
1010
0000
1001
0000
1001
0000
1000
0000
2202
0000
,
0000
3303
1222
0333
1001
0000
1100
0000
1010
0000
1001
0000
1000
0000
0220
0000
,
0000
0330
0122
0033
1001
0000
1100
0000
1010
0000
1001
0000
1000
0000
0220
0000
,
0000
0330
0122
0033
1001
0000
1100
0000
0102
0000
0213
0300
0010
0000
2202
0000
,
0000
3303
1222
0333
1001
0000
1010
0000
1001
0000
1001
0000
1001
0000
2212
0003
,
0001
3300
1222
0333
1001
0000
1010
0000
1000
0000
1000
0000
1000
0000
0000
0000
,
0001
0000
0000
0000
0000
0000
0000
0000
0000
0000
0000
0000
0000
0000
0000
0000
0000
0000
0000
0000
0000
0000
0000
0000
0000
0000
0000
0000
0000
0000
1000
0000
0000
0000
0000
0000
0100
0000
0000
0000
0000
0000
0010
0000
0000
0000
0000
0000
0001
0000
0000
0000
0000
0000
0000
0000
0000
0000
0000
0000
0010
0000
0000
0000
0000
0000
0000
0000
0000
0000
0000
0000
1000
0000
0000
0000
0000
0000
0000
0000
0000
0000
0000
0000
0100
0000
0000
0000
0000
0000
0010
0000
0000
0000
0000
0000
0001
0000
0000
0000
0000
0000
0000
0000
0000
0000
0000
0000
0010
0000
0000
0000
0000
0000
0000
0000
0000
0000
0000
0000
0100
0000
0000
0000
0000
0000
0000
0000
0000
0000
0000
0000
1000
0000
0000
0000
0000
0000
0010
0000
0000
0000
0000
0000
0001
0000
0000
0000
0000
0000
0000
0000
0000
0000
0000
0000
0010
0000
0000
0000
0000
0000
0000
0000
0000
0000
0000
0000
0100
0000
0000
0000
0000
0000
0000
0000
0000
0000
0000
0000
1000
0000
0000
0000
0000
0000
0000
0000
0100
0000
0000
0000
,
0000
0000
0000
0000
0010
0000
0000
0000
0000
0000
0000
0000
0001
0000
0000
0000
0000
0000
0010
0000
0000
0000
0000
0000
0100
0000
0000
0000
0000
0000
0000
0000
0001
0000
0000
0000
1000
0000
0000
0000
0100
0000
0000
0000
0010
0000
0000
0000
0001
0000
0000
0000
0000
0000
0000
0000
0000
0000
0000
0000
0010
0000
0000
0000
0000
0000
0000
0000
0000
0000
0000
0000
0000
0000
0000
0000
0000
0000
0100
0000
0000
0000
0000
0000
1000
0000
0000
0000
0000
0000
0010
0000
0000
0000
0000
0000
0001
0000
0000
0000
0000
0000
0000
0000
0000
0000
0000
0000
0010
0000
0000
0000
0000
0000
0000
0000
0000
0000
0000
0000
1000
0000
0000
0000
0100
0000
0000
0000
0010
0000
0000
0000
0000
0000
0000
0000
0000
0000
0000
0000
0000
0000
0000
0000
0001
0000
0000
0000
0000
0000
0000
0000
0000
0000
0000
0000
0020
0000
0000
0000
0000
0000
0000
0000
0000
0000
0000
0000
0000
0000
0000
0000
0000
0000
0000
0000
0000
0000
0000
0000
0030
0000
0000
0000
0000
0000
0000
0000
0000
0000
0000
0000
,
0001
0100
0000
1000
0001
0010
0000
0100
1000
0100
0010
0001
0100
0010
1000
0100
,
0010
0001
1000
0100
0010
0001
0100
0001
0020
0000
0000
0000
0030
0000
0000
0000
,
0000
0000
0000
0000
0000
0000
0000
0000
0000
0000
0000
0000
0000
0000
0000
0000
0000
0000
0000
0000
0000
0000
0000
0000
0000
0000
0000
0000
0000
0000
1000
0000
0000
0000
0000
0000
0100
0000
0000
0000
0000
0000
0010
0000
0000
0000
0000
0000
0001
0000
0000
0000
0000
0000
0000
0000
0000
0000
0000
0000
0010
0000
0000
0000
0000
0000
0000
0000
0000
0000
0000
0000
1000
0000
0000
0000
0000
0000
0000
0000
0000
0000
0000
0000
0100
0000
0000
0000
0000
0000
0010
0000
0000
0000
0000
0000
0001
0000
0000
0000
0000
0000
0000
0000
0000
0000
0000
0000
0010
0000
0000
0000
0000
0000
0000
0000
0000
0000
0000
0000
0100
0000
0000
0000
0000
0000
0000
0000
0000
0000
0000
0000
1000
0000
0000
0000
0000
0000
0010
0000
0000
0000
0000
0000
0001
0000
0000
0000
0000
0000
0000
0000
0000
0000
0000
0000
0010
0000
0000
0000
0000
0000
0000
0000
0000
0000
0000
0000
0100
0000
0000
0000
0000
0000
0000
0000
0000
0000
0000
0000
1000
0000
0000
0000
0000
0000
0000
0000
0100
0000
0000
0000
,
0000
0000
0000
0000
0010
0000
0000
0000
0000
0000
0000
0000
0001
0000
0000
0000
0000
0000
0010
0000
0000
0000
0000
0000
0100
0000
0000
0000
0000
0000
0000
0000
0001
0000
0000
0000
1000
0000
0000
0000
0100
0000
0000
0000
0010
0000
0000
0000
0001
0000
0000
0000
0000
0000
0000
0000
0000
0000
0000
0000
0010
0000
0000
0000
0000
0000
0000
0000
0000
0000
0000
0000
0000
0000
0000
0000
0000
0000
0100
0000
0000
0000
0000
0000
1000
0000
0000
0000
0000
0000
0010
0000
0000
0000
0000
0000
0001
0000
0000
0000
0000
0000
0000
0000
0000
0000
0000
0000
0010
0000
0000
0000
0000
0000
0000
0000
0000
0000
0000
0000
1000
0000
0000
0000
0100
0000
0000
0000
0010
0000
0000
0000
0000
0000
0000
0000
0000
0000
0000
0000
0000
0000
0000
0000
0001
0000
0000
0000
0000
0000
0000
0000
0020
0000
0000
0000
0000
0000
0000
0000
0000
0000
0000
0000
0000
0000
0000
0000
0000
0000
0000
0000
0000
0000
0000
0000
0000
0000
0000
0000
0030
0000
0000
0000
0000
0000
0000
0000
0000
0000
0000
0000
,
0001
0100
0010
1000
0001
0100
0010
0100
1000
0100
0010
0001
0100
0010
1000
0100
,
0010
0000
0000
0001
0000
0000
1000
0000
0000
0100
0000
0000
0010
0000
0000
0001
0000
0000
0100
0000
0000
0010
0000
0000
0002
0000
0000
0000
0000
0000
0000
0000
0000
0000
0000
0003
0000
0000
0000
0000
0000
0000
0000
0000
0000
0000
0000
0000
,
0001
1000
0001
1000
1000
0100
1000
1000
0010
1000
0010
1000
1000
0010
1000
1000
,
0001
1000
0001
1000
1000
0100
1000
1000
0010
1000
0010
1000
1000
0010
1000
1000
,
0001
0000
1000
0000
1000
0000
0010
0000
1000
0000
1000
0000
0001
0000
0010
0000
1000
0000
0000
0001
0010
0100
1000
0000
0001
0000
0010
0000
0100
0000
1000
0000
,
0010
0000
0000
0001
0000
0000
0010
0000
0000
0100
0000
0000
0100
0000
0000
1000
0000
0000
0010
0000
0000
0001
0000
0000
0010
0000
0000
0100
0000
0000
0100
0000
0001
1000
0000
0000
0010
0000
1000
0001
0000
0000
0010
0000
0001
0100
0000
0000
,
1000
0000
0000
0100
0000
1000
0010
0000
0000
0001
0000
0000
0010
0000
0000
0100
0000
0000
1000
0000
0000
0100
0000
0000
0010
0000
0000
0001
0000
0000
0100
0000
0000
0010
0000
0000
0100
0000
0000
1000
0000
0000
0001
0000
0000
0100
0000
0000
,
0010
0100
1000
0010
0100
0010
0100
1000
0001
0100
0001
0100
1000
0010
0100
0001
,
0001
0100
1000
0010
0100
0001
0001
0100
1000
0010
0100
1000
0010
0100
1000
1000
,
0100
0000
0010
0000
0001
0000
0010
0000
0100
0000
1000
0000
0022
0000
0000
0000
0000
0000
0000
0000
0000
0000
0033
0000
2002
0000
3003
0020
0000
0000
0000
0000
,
0000
0030
0202
0303
0202
0303
2020
3030
0202
0303
0202
0303
2000
3000
0202
0303
,
0202
0303
2000
3000
0202
0303
0202
0303
2000
3000
0202
0303
0202
0303
0020
0030
,
0002
0013
0020
0130
0200
1300
0002
0013
,
2200
0000
0000
3300
0220
0000
0000
0330
2200
0000
0000
3300
2200
0000
0000
3300
0000
0000
0000
0000
0000
0000
0000
0000
2000
3000
0000
0000
0020
0000
0000
0000
,
0030
0000
0000
0000
0000
0001
0000
0000
0000
0000
0010
0000
0000
0000
0200
0000
0000
0000
0000
0000
0000
0000
0000
0300
0000
0000
0000
0000
0000
0000
0000
0010
0000
0000
0000
0100
0000
0000
1000
0000
0002
0000
0000
0000
0000
0000
0000
0000
0000
0000
0000
0000
0000
0000
0000
0000
0003
0000
0000
0000
0000
0000
0000
0000
,
0010
0100
0001
0010
0100
1000
0001
0010
0100
1000
0100
1000
,
0001
0010
0100
0010
0100
1000
0001
0010
0100
0010
0100
1000
,
0001
0010
0100
0001
0010
0100
2000
0000
0000
0000
3000
0000
,
1000
0100
0010
0001
0100
0010
0001
0100
0010
0001
1000
0100
0010
1000
0100
0010
,
0001
1000
0010
0100
0001
1000
0100
0010
0001
1000
0100
1000
0010
0100
0010
0001
,
0010
1000
0100
0010
1000
0100
0010
1000
0001
1000
0100
0010
0001
1000
0100
0010
,
0001
1000
0100
0010
0001
0100
0010
1000
0001
0100
0010
0001
1000
0100
0010
0001
,
1000
0100
0010
0001
0001
1000
0100
0010
1000
0100
0010
0001
,
0100
0010
0001
0010
0100
0001
1000
0010
0100
0001
0100
1000
,
0001
0000
0100
0000
0010
0000
1000
0000
0100
0000
0001
0000
0010
0000
0001
0010
0100
0000
0010
0000
0100
0000
0001
0000
,
0010
0100
1000
0010
1000
0001
0100
0010
1000
0001
0010
0100
,
0010
1000
0010
1000
0001
0010
0100
1000
0010
1000
0010
1000
0001
0001
0100
1000
,
0010
0100
0010
0100
1000
0001
0100
1000
0010
0100
0010
0100
1000
0001
0100
1000
,
0001
0100
0001
0100
1000
0001
0100
1000
0010
0100
0010
0100
1000
0001
0100
1000
,
0010
0100
0010
0100
1000
0001
0100
1000
0010
0100
0010
0100
1000
0010
0100
1000
,
0020
0000
0032
0000
0023
0000
0032
0000
0000
0000
0000
0000
0000
0003
0200
0000
,
0000
0000
0000
0300
0001
0000
0000
0000
0010
0000
0000
0000
0100
0000
0000
0000
1000
0000
0000
0000
0100
0000
0000
0000
1000
0000
0000
0000
0020
0000
0000
0000
0000
0000
0000
0000
0000
0000
0000
0000
0030
0000
0000
0000
0000
0000
0000
0000
,
0001
0010
0100
0010
0100
1000
0001
0010
1000
0001
0100
1000
,
0010
0001
1000
0010
0100
0000
0020
0000
0000
0000
0000
0000
,
0000
0000
0000
0000
,
0000
0000
0000
0030
;
