#TITLE:Healing-D-Vision;
#SUBTITLE:;
#ARTIST:DE-STRAD;
#TITLETRANSLIT:;
#SUBTITLETRANSLIT:;
#ARTISTTRANSLIT:;
#CREDIT:;
#BANNER:HDVbanner.png;
#BACKGROUND:HDVbg.png;
#LYRICSPATH:;
#CDTITLE:djcorp.png;
#MUSIC:HDV.mp3;
#OFFSET:1.090;
#SAMPLESTART:70.800;
#SAMPLELENGTH:12.000;
#SELECTABLE:YES;
#BPMS:0.000=180.000,212.000=360.000;
#STOPS:;
#BGCHANGES:;
// cache tags:
#FIRSTBEAT:20.000;
#LASTBEAT:380.000;
#SONGFILENAME:Songs/cedric step/HDV/HDV.sm;
#HASMUSIC:1;
#HASBANNER:1;
#MUSICLENGTH:98.358;
// end cache tags

//---------------dance-single - ----------------
#NOTES:
     dance-single:
     :
     Hard:
     9:
     0.773,0.966,1.000,0.020,0.391,421.000,109.000,2.000,0.000,0.000:

0000
0000
0000
0000
,
0000
0000
0000
0000
,
0000
0000
0000
0000
,
0000
0000
0000
0000
,
0000
0000
0000
0000
,
0100
0000
0000
0001
0100
0000
0000
0010
1000
0000
0000
0000
1010
0000
0000
0000
,
0100
0000
0000
1000
0100
0000
0000
0010
0001
0000
0000
0000
0011
0000
0000
0000
,
0100
0000
0000
0001
0010
0000
0000
1000
0100
0000
0000
0000
1001
0000
0000
0000
,
0101
1010
1100
0011
,
0100
0000
0000
0001
0100
0000
0000
0010
1000
0000
0000
0000
1010
0000
0000
0000
,
0100
0000
0000
1000
0100
0000
0000
0010
0001
0000
0000
0000
0011
0000
0000
0000
,
0100
0000
0000
0001
0010
0000
0000
1000
0100
0000
0000
0000
1001
0000
0000
0000
,
0100
0000
0000
0000
0001
0000
0000
0000
0100
0000
0000
1000
0001
0000
0000
0000
,
0100
0000
0000
0000
1001
0000
0000
0000
1000
0000
0001
0000
0000
0000
0000
0001
,
0100
0000
0000
0000
0001
0000
0000
0010
0100
0000
0000
0000
0000
0000
0000
1000
,
0100
0000
0000
0000
1001
0000
0000
0000
1000
0000
0001
0000
0000
0000
0000
0001
,
1100
0011
1010
0101
,
0010
0000
0000
0000
1001
0000
0000
0000
0001
0000
1000
0000
0000
0000
0000
1000
,
0010
0000
0000
0000
1000
0000
0000
0100
0010
0000
0000
0000
0000
0000
0000
0001
,
0010
0000
0000
0000
1001
0000
0000
0000
0001
0000
1000
0000
0000
0000
0000
1000
,
0011
1100
0101
1010
,
0100
0000
0000
0100
0001
0000
0000
0001
0100
0000
0000
0100
1000
0000
0000
1000
,
0100
0101
0010
1010
,
0100
0000
0000
0100
1000
0000
0000
1000
0100
0000
0000
0100
0001
0000
0000
0001
,
0100
1100
0010
0011
,
0010
0000
0000
0010
0001
0000
0000
0001
0010
0000
0000
0010
1000
0000
0000
1000
,
0010
0011
0100
1100
,
0100
0000
0000
0100
1000
0000
0000
1000
0100
0000
0000
0100
0001
0000
0000
0001
,
0100
1100
0010
0011
,
0100
0000
0000
1000
0001
0000
0000
0000
0100
0000
0000
0000
1010
0000
0000
0000
,
0100
0000
0000
1000
0001
0000
0000
0000
0100
0000
0000
0000
1010
0000
0000
0000
,
0100
0000
0000
0001
1000
0000
0000
0000
0100
0000
0000
0000
0011
0000
0000
0000
,
0010
0000
0000
0001
1000
0000
0000
0000
0010
0000
0000
0000
0101
0000
0000
0000
,
0010
0000
0000
1000
0001
0000
0000
0000
0010
0000
0000
0000
1100
0000
0000
0000
,
0010
0000
0000
1000
0001
0000
0000
0000
0010
0000
0000
0000
1100
0000
0000
0000
,
0010
0000
0000
0001
1000
0000
0000
0000
0010
0000
0000
0000
0101
0000
0000
0000
,
0010
0000
0000
0001
1000
0000
0000
0000
0010
0000
0000
0000
0101
0000
0000
0000
,
0010
1000
0010
0000
0100
0000
0000
0100
0001
0000
0000
1000
0010
0000
0000
0000
,
0100
0001
0100
0000
0010
0000
0000
0010
1000
0000
0000
1000
0001
0000
0000
0000
,
0010
0001
0010
0000
0100
0000
0000
0100
1000
0000
0000
0001
0010
0000
0000
0000
,
0100
1000
0100
0000
0010
0000
0000
0010
0001
0000
0000
0001
1000
0000
0000
0000
,
0001
0000
0000
0011
0000
0000
0110
0000
0000
1100
0000
0000
1000
0000
0000
0000
,
1000
0000
0000
1100
0000
0000
0110
0000
0000
0011
0000
0000
0001
0000
0000
0000
,
0001
0000
0000
0011
0000
0000
0110
0000
0000
1100
0000
0000
1000
0000
0000
0000
,
0110
0000
0000
0000
,
0001
0000
0000
0101
0000
0000
1010
0000
0000
0101
0000
0000
1001
0000
0000
0000
,
1000
0000
0000
1100
0000
0000
0011
0000
0000
1100
0000
0000
1001
0000
0000
0000
,
0001
0000
0000
0011
0000
0000
1100
0000
0000
0011
0000
0000
1001
0000
0000
0000
,
1000
0000
0000
1010
0000
0000
0101
0000
0000
1010
0000
0000
1001
0000
0000
0000
,
0001
0000
0000
0011
0000
0000
0110
0000
0000
1100
0000
0000
1001
0000
0000
0000
,
1000
0000
0000
1010
0000
0000
0110
0000
0000
0101
0000
0000
1001
0000
0000
0000
,
0001
0000
0000
0101
0000
0000
0110
0000
0000
1100
0000
0000
1001
0000
0000
0000
,
0110
0000
0000
0000
,
0011
0000
0000
1001
0000
0000
1100
0000
,
0000
1001
0000
0000
0011
0000
0000
0000
,
1100
0000
0000
1001
0000
0000
0011
0000
,
0000
1001
0000
0000
1100
0000
0000
0000
,
0011
0000
0000
1001
0000
0000
1100
0000
,
0000
1001
0000
0000
0011
0000
0000
0100
,
1000
0000
0000
0010
0000
0000
0100
0000
,
0001
0000
0000
0100
0000
0000
1000
0000
,
0001
1000
0001
0010
0000
0000
0000
0001
,
0100
0000
0000
0010
1000
0100
0010
0000
,
0001
1000
0001
0100
0000
0000
0000
0001
,
0010
0000
0000
0100
1000
0010
0100
0000
,
0010
0100
0010
1000
0000
0000
0000
0100
,
0010
0000
0000
0001
0100
0010
1000
0000
,
0100
0010
0100
1000
0000
0000
0000
0010
,
0100
0000
1001
0000
,
1000
0001
1000
0010
0000
0000
0000
1000
,
0100
0000
0000
0010
0001
0100
0010
0000
,
1000
0001
1000
0100
0000
0000
0000
1000
,
0010
0000
0000
0100
0001
0010
0100
0000
,
0010
0100
0010
0001
0000
0000
0000
0100
,
0010
0000
0000
1000
0100
0010
0001
0000
,
0100
0010
0100
0001
0000
0000
0000
0010
,
0100
0000
1001
0000
,
1000
0100
1000
0000
0001
0100
0001
0000
,
1000
0010
1000
0000
0001
0100
0001
0000
,
1000
0100
1000
0000
0001
0010
0001
0000
,
1000
0100
1000
0000
0001
0010
0001
0010
,
0100
1000
0100
0000
0010
0001
0010
0000
,
0100
1000
0100
0000
0010
0001
0010
0000
,
0100
0001
0100
0000
0010
1000
0010
0000
,
0100
0001
0100
0000
0010
1000
0010
0000
,
0101
0000
0000
0110
0000
0000
1010
0000
,
0000
0110
0000
0000
0101
0000
0000
0000
,
1010
0000
0000
0110
0000
0000
0101
0000
,
0000
0110
0000
0000
1010
0000
0000
0000
,
0101
0000
0000
0110
0000
0000
1010
0000
,
0000
0110
0000
0000
0101
0000
0000
0000
,
0010
0000
0000
1000
0000
0000
0001
0000
,
0000
0100
0000
0000
0000
0000
0002
2000
,
0000
0000
0000
0000
,
0000
0000
0000
0000
,
3003
0000
0000
0000
;

//---------------dance-single - DJ taka Oni----------------
#NOTES:
     dance-single:
     DJ taka Oni:
     Challenge:
     10:
     0.874,1.000,1.000,0.071,0.534,467.000,128.000,7.000,0.000,0.000:



0000
0000
0000
0000
,
0000
0000
0000
0000
,
0000
0000
0000
0000
,
0000
0000
0000
0000
,
0000
0000
0000
0000
,
0110
0000
0000
1000
0100
1000
0000
0010
1000
0000
0000
0000
1010
0000
0000
0000
,
0100
0000
0000
1000
0010
1000
0000
0010
0001
0000
0000
0000
0011
0000
0000
0000
,
0100
0000
0000
0001
1000
0001
0000
1000
0100
0000
0000
0000
1100
0000
1000
0000
,
0011
0110
1010
0011
,
0100
0000
0000
0001
0100
1000
0000
0010
1000
0000
0000
0000
1010
0000
0000
0000
,
0011
0000
0000
1000
0100
0001
0000
0010
0001
0000
0000
0000
0011
0000
0000
0000
,
1100
0000
0000
0001
0010
0100
0000
1000
0100
0000
0000
0000
1001
0000
0000
0000
,
1100
0000
0000
0001
0010
0100
0000
0010
0100
0000
0000
1000
0001
1000
0000
0000
,
0100
0000
0000
0000
1001
0000
0000
0000
1000
0000
0011
0000
0011
0000
0000
0001
,
0100
0000
0000
0000
0001
0000
0000
0010
1100
0000
1100
0000
0000
0000
0000
1000
,
0100
0000
0000
0000
1001
0000
0000
0000
1000
0000
0001
0000
0000
0000
0000
0001
,
1100
0011
0011
1010
,
1010
0000
0000
0000
1001
0000
0000
1000
0001
0000
1000
0000
1000
0000
0000
1000
,
0010
0000
0000
0001
1000
0000
0001
0000
0001
0000
0000
0000
0000
0000
0000
1001
,
0010
0000
0000
0000
1001
0000
0000
0000
0001
0000
1000
0000
0000
0000
0000
1100
,
0001
0000
0000
0000
1100
0000
0000
0000
0101
0000
0000
0000
0010
0000
0000
0011
,
0100
0000
0000
0100
0001
0000
0000
0001
0100
0000
0000
0100
1000
0100
0000
1000
,
0100
0101
0010
1010
,
0100
0000
0000
0100
1000
0000
0000
1000
0100
0000
0000
0100
0001
0100
0000
0001
,
0100
1100
0010
0011
,
0010
0000
0000
0010
0001
0000
0000
0001
0010
0000
0000
0010
1000
0010
0000
1000
,
0010
0011
0100
1100
,
0100
0000
0000
0100
1000
0000
0000
1000
0100
0001
0000
0100
0001
0000
0000
0001
,
0100
0110
1001
0110
,
1001
0000
0000
1000
0001
0000
0000
0000
0100
0000
0000
0100
1010
0000
0000
0000
,
0100
0000
0000
1000
0001
0000
0000
0000
0100
0000
0000
0100
1010
0000
0000
0000
,
0100
0000
0000
0001
1000
0000
0000
0000
0100
0000
0000
1000
0011
0000
0000
0000
,
0010
0000
0000
0001
1000
0000
0000
0000
0010
0000
0000
1000
0101
0000
0000
0000
,
0010
0000
0000
1000
0001
0000
0000
0000
0010
0000
0000
0001
1100
0000
0000
0000
,
0010
0000
0000
1000
0001
0000
0000
0000
0010
0000
0000
0010
1100
0000
0000
0000
,
0010
0000
0000
0001
1000
0000
0000
0000
0010
0000
0000
1000
0101
0000
0000
0000
,
0010
0000
0000
0001
1000
0000
0000
0000
0010
0000
0000
1000
0101
0000
0000
0000
,
0010
1000
0010
0000
0100
0000
0000
0100
0001
0000
0000
1000
0010
0000
0000
0000
,
1000
0100
0001
0000
0010
0000
0000
0010
1000
0000
0000
1000
0001
0000
0000
0000
,
0001
0010
1000
0000
0100
0000
0000
0100
1000
0000
0000
0001
0010
0000
0000
0000
,
1000
0100
0001
0000
0010
0000
0000
0010
0001
0000
0000
0001
1000
0000
0000
0000
,
1001
0000
0000
0101
0000
0000
0110
0000
0000
1100
0000
0000
1000
0000
0000
0010
,
1001
0000
0000
0011
0000
0000
1100
0000
0000
0110
0000
0000
0001
0000
0000
1000
,
0001
0000
0000
0011
0000
0000
1100
0000
0000
0011
0000
0000
1100
0000
0000
0000
,
0220
0000
0000
0000
0000
0000
0000
0330
,
0001
0000
0000
0101
0000
0000
1001
0000
0000
0101
0000
0000
0011
0000
0000
0000
,
1000
0000
0000
1100
0000
0000
1001
0000
0000
1010
0000
0000
1001
0000
0000
0000
,
0001
0000
0000
0011
0000
0000
1100
0000
0000
0011
0000
0000
1001
0000
0000
0000
,
1000
0000
0000
1100
0000
0000
0011
0000
0000
1100
0000
0000
0011
0000
0000
0000
,
1001
0000
0000
0110
0000
0000
1001
0000
0000
0110
0000
0000
1001
0000
0000
0000
,
1000
0100
0000
1010
0000
0000
0110
0000
0000
0101
0000
0000
1001
0000
0000
0000
,
0001
1000
0000
0101
0000
0000
0110
0000
0000
1100
0000
0000
1001
0000
0000
0000
,
0220
0000
0000
0330
,
0011
0000
0000
1001
0000
0000
1100
0000
,
0000
1001
0000
0000
0011
0000
0000
0000
,
1100
0000
0000
1001
0000
0000
0011
0000
,
0000
1001
0000
0000
1100
0000
0000
0000
,
0011
0000
0000
1001
0000
0000
1100
0000
,
0000
1001
0000
0000
0011
0000
0000
0100
,
1000
0001
0000
0010
0000
0000
0100
0000
,
0001
1000
0000
0100
0000
0000
1000
0000
,
0001
1000
0001
0010
0000
1000
0010
0001
,
0100
0000
0000
0010
1000
0100
0010
0000
,
0001
1000
0001
0100
0000
0000
0000
0001
,
0110
0000
0000
0100
1000
0010
0100
0000
,
0010
0100
0010
1000
0000
0010
0000
0100
,
1010
0000
0000
0001
0100
0010
1000
0000
,
0100
0010
0100
1000
0000
0000
0000
0010
,
0110
0000
1001
0000
,
1000
0100
0001
0100
0000
0000
0000
1000
,
0100
0000
0000
0001
0010
1000
0010
0000
,
1000
0010
0001
0010
1000
0000
0000
1000
,
0010
0000
0000
0100
0001
0010
0100
0000
,
0010
0100
0010
0001
1000
0000
0000
0100
,
0010
0000
0000
1000
0100
0010
0001
0000
,
0100
0010
0100
0001
0000
0000
0000
0010
,
0100
0000
0000
0000
1001
0000
0000
0001
,
0100
1000
0100
0001
0000
0100
0001
0000
,
1000
0010
1000
0000
0001
0100
0001
0000
,
1000
0100
1000
0000
0001
0010
0001
0000
,
1000
0100
0001
0000
0001
0100
1000
0100
,
0001
0100
1000
0000
0001
0010
1000
0000
,
1000
0010
0001
0000
0010
0001
0010
0000
,
0010
0001
0010
0000
0100
1000
0100
0000
,
0100
1000
0200
0000
0000
0000
0300
0000
,
1001
0000
0000
0110
0000
0000
1001
0000
,
0000
0110
0000
0000
1001
0000
0000
0000
,
1010
0000
0000
0110
0000
0000
0011
0000
,
0000
0110
0000
0000
1010
0000
0000
0000
,
0101
0000
0000
0110
0000
0000
1100
0000
,
0000
0110
0000
0000
0101
0000
0000
0000
,
0010
1000
0010
0000
1000
0100
1000
0000
,
0001
0100
0001
0100
0010
1000
0002
2000
,
0000
0000
0000
0000
,
0000
0000
0000
0000
,
3003
0000
0000
0000
;
