#TITLE:holy night magic;
#SUBTITLE:Meri-Curi OP theme;
#ARTIST:fripside;
#TITLETRANSLIT:;
#SUBTITLETRANSLIT:;
#ARTISTTRANSLIT:;
#CREDIT:ALICE_;
#BANNER:holy night magic.png;
#BACKGROUND:holy night magic.jpg;
#LYRICSPATH:;
#CDTITLE:cdtitle.png;
#MUSIC:Holy Night Magic.mp3;
#OFFSET:1.860;
#SAMPLESTART:105.320;
#SAMPLELENGTH:12.000;
#SELECTABLE:YES;
#BPMS:0.000=117.000,68.000=136.000;
#STOPS:;
#BGCHANGES:3.583=Holy Night Magic.avi=1.000=1=0=1,
99999=-nosongbg-=1.000=0=0=0 // don't automatically add -songbackground-
;
// cache tags:
#FIRSTBEAT:8.000;
#LASTBEAT:295.000;
#SONGFILENAME:Songs/alice 4th complete step/Holy Night Magic/Holy Night Magic.sm;
#HASMUSIC:1;
#HASBANNER:1;
#MUSICLENGTH:137.020;
// end cache tags

//---------------dance-single - ----------------
#NOTES:
     dance-single:
     :
     Hard:
     7:
     0.550,0.590,0.255,0.161,0.004,471.000,35.000,22.000,0.000,0.000:
0000
0000
0000
0000
,
0000
0000
0000
0000
,
0001
0001
0001
0000
1000
1000
1000
0000
,
0010
0010
0010
0000
1000
1000
1000
0000
,
0001
0001
0001
0000
0100
0100
0100
0000
,
0001
0001
0001
0000
1000
1000
1000
0000
,
0100
0100
0100
0000
0010
0010
0010
0000
,
0001
0001
0001
0000
1000
1000
1000
0000
,
0100
0100
0100
0000
1000
1000
1000
0000
,
0010
0010
0010
2000
0000
0100
0100
3000
,
1001
0100
0001
1000
0000
0100
0010
0000
,
1000
0100
1000
0001
0000
0100
0010
0000
,
1100
0010
0001
0100
0000
0010
1000
0000
,
0101
0010
1000
0100
0000
0010
0001
0000
,
1000
0100
0001
0100
0000
1000
0010
0000
,
0001
0100
1000
0100
0000
0001
0010
0000
,
0100
1000
0100
0010
0000
0001
0100
0010
,
0110
0000
0000
1001
0000
1000
0001
0100
,
0001
0010
0001
0010
0001
0100
0020
0030
,
1000
0100
1000
0001
0100
0010
1000
0001
,
0100
1000
0100
0001
0010
0001
0100
0010
,
1000
0100
0001
0100
1000
0010
0001
0010
,
1000
0000
1100
0000
0010
0001
0100
0010
,
1000
0000
0101
0000
0010
1000
0100
0010
,
0001
0100
0001
1000
0100
1000
0010
0100
,
0001
1000
0100
0020
0000
0130
1001
0000
,
0101
0000
1000
0100
1000
0000
1000
0100
,
0010
0000
0001
0100
0001
0000
0001
0100
,
0010
0000
1000
0001
0100
0000
0100
0010
,
1000
0000
0001
1000
0100
0000
0110
0000
,
1001
0000
0100
0001
1000
0010
0100
0000
,
1000
0000
0100
1000
0001
0100
0010
0000
,
1000
0100
1000
0001
0100
0001
1000
0020
,
0030
0100
0100
2002
3003
0010
0200
0300
,
1001
0000
0100
1000
0100
1000
0010
0100
,
0001
1000
0001
1000
0001
0010
0001
0100
,
0010
0000
0100
0001
0100
0001
0010
0100
,
1000
0001
1000
0001
0100
0010
1000
0010
,
0100
0000
1001
0000
0100
1000
0001
1000
,
0010
0000
1001
0000
0100
0001
1000
1010
,
0000
0100
0001
0101
0000
0010
0100
1100
,
0000
0001
1000
0001
0100
0010
0100
0000
,
1001
0000
1100
0000
0001
0100
0001
0000
,
1000
0100
1000
0010
1000
0100
1000
0000
,
0110
0000
0101
0000
1000
0100
1000
0000
,
0001
0010
0001
0100
0001
0010
0001
1000
,
0100
0000
0000
0010
0000
0000
1001
0000
0000
0000
0100
0000
0001
0000
0010
0000
,
0000
0100
1000
0010
0100
0001
1000
0001
,
0100
0000
0110
0000
0001
1000
0010
2002
,
0000
0000
0000
0000
3000
0100
0103
0000
,
1000
0100
1000
0100
0010
0100
0001
0100
,
1000
0010
1000
0010
0001
0010
0100
0010
,
1000
0001
1000
0001
0100
0001
0010
0100
,
0010
0001
1000
0001
0100
1000
0100
0001
,
0010
0100
1000
0010
0100
0001
1000
0010
,
0100
0001
0010
0100
1000
0010
0100
0001
,
1000
0100
1000
0001
0100
0010
1000
0100
,
0022
0033
0100
2020
0000
3030
0100
0001
,
1001
0100
1000
0100
0010
0001
0010
0001
,
0100
0010
0100
0010
1000
0001
0010
0001
,
0100
1000
0100
0001
0010
1000
0010
0001
,
1000
0010
0100
0001
0100
0010
1000
0100
,
0010
0000
1001
0000
0100
1000
0001
0000
,
0100
0001
0100
0001
1000
0010
0100
0000
,
0001
0010
0100
0010
1000
0010
0100
0010
,
2002
3003
0100
2020
3030
0001
0100
0001
,
1100
0000
0001
0100
0001
0100
0001
0010
,
0200
0300
1000
0010
1000
0001
0100
1000
,
0100
0001
0010
1000
0010
0100
1000
0001
,
0100
1000
0100
0001
1000
0010
0001
1000
,
0200
0000
0301
0000
1000
0100
0010
0100
,
0000
0000
1000
0001
0000
0101
0000
1100
,
0010
0100
0010
0100
1000
0001
0020
0000
,
0031
1000
0010
2002
3003
0000
0000
0000
;

//---------------dance-single - ----------------
#NOTES:
     dance-single:
     :
     Challenge:
     13:
     0.913,0.861,1.000,0.431,0.139,546.000,261.000,59.000,0.000,31.000:
0000
0000
0000
0000
,
0000
0000
0000
0000
,
1010
0010
0101
0000
1010
0010
0101
0000
,
1100
0100
1010
0000
0101
0001
0011
0000
,
1010
0010
0101
0000
1010
0100
0101
0000
,
0011
0100
1100
0000
1100
0010
1001
0000
,
0101
0100
1010
0000
0101
0100
1010
0000
,
0011
0001
1100
0000
1010
1000
1100
0000
,
1010
0010
0101
0000
1100
0100
1010
0000
,
0101
0001
1010
1001
0000
0100
0110
0000
,
2001
0001
3110
0001
1100
0100
1010
0000
,
0101
0100
1010
0001
1100
0100
1010
0000
,
1002
1000
0113
1000
0101
0100
0011
0000
,
1100
0100
1010
0100
1001
0001
0110
0000
,
0101
0100
1001
0010
1100
0100
1001
0000
,
1010
0010
0101
0010
1001
1000
0110
0000
,
1001
0010
1100
1001
0100
0010
1001
0000
,
1011
0000
0101
2012
0000
0100
3013
0100
,
1010
0010
1001
0100
1010
0001
0101
0010
,
1100
0000
0001
0000
0110
0000
0001
0010
1100
0000
0010
0000
0101
0000
0010
0000
,
1001
0000
0001
0000
1100
0000
1010
0100
0010
0000
0100
0000
1001
0000
0010
0000
,
1010
0100
0101
0010
1100
0001
0110
0001
,
2010
0000
0100
0000
3001
0000
0100
0010
1000
0000
0100
0000
0011
0000
0100
0000
,
1002
0013
1100
1010
0100
0011
1000
0101
,
1001
0000
0010
0000
0100
0000
0001
0020
1000
0000
0100
0000
1001
0000
0130
0000
,
0011
0000
0000
0110
0000
0000
1100
0000
0000
0220
0000
0000
0330
0000
0000
1000
0001
0100
0020
0000
0000
0100
0000
0000
,
1130
0000
0101
0010
1100
0010
0101
0000
,
0011
0000
1010
0100
0011
0100
1010
0000
,
0101
0000
1100
0010
0101
0010
1100
0000
,
1010
0000
0011
0100
1010
0100
0011
0110
,
1001
0000
1100
0001
0110
0001
1010
0000
,
0110
0000
0011
1000
0110
1000
0101
0000
,
1010
0000
0101
1000
0011
0100
1001
0220
,
0000
1330
1001
0220
0000
0331
2002
3003
,
1100
0001
0010
0000
0010
0000
1100
0001
0010
0000
0010
0000
1001
0000
0100
0000
,
0011
1000
0100
0000
0100
0000
0011
1000
0110
0000
0100
0000
1001
0000
0010
0000
,
1010
0100
0001
0000
0001
0000
1010
0100
0001
0000
0001
0000
1010
0000
0100
0000
,
0101
0010
1000
0000
1000
0000
0101
0010
1000
0000
1000
0000
0011
0000
1100
0000
,
1001
0100
0010
0000
0010
0000
1001
0100
0010
0000
0010
0000
1001
0000
0100
0000
,
0011
1000
0100
0000
0100
0000
0011
1000
0100
0000
0100
0000
1010
0000
0202
0000
,
0000
0313
1001
2020
0000
3130
1001
0220
,
0000
0330
1000
0001
0100
0000
0100
0000
0022
0000
1033
0000
2200
0000
3300
0000
,
1001
0000
0010
0000
1000
0000
0010
0010
1000
0000
0001
0000
1000
0000
0001
0000
,
0100
0000
0010
0000
0100
0000
0010
0010
1000
0000
0100
0000
1001
0000
0100
0000
,
0011
0000
1000
0000
0001
0000
1000
1000
0100
0000
0010
0000
0100
0000
0010
0000
,
1000
0000
0001
0000
1000
0000
0001
0001
0100
0000
0010
0000
1001
0000
0100
0000
,
1010
0000
0000
1001
0100
0000
1012
0000
0000
0000
1000
0000
0103
0000
2120
0000
,
0000
3130
0001
0100
1001
0010
1001
0100
,
1010
0000
0011
0000
1100
0101
1010
2112
,
0000
0000
0000
3113
,
1001
0000
0010
0000
1100
0000
0001
1000
0001
0000
0100
0000
1010
0000
0100
0100
,
1001
0000
0100
0000
0011
0000
1000
0001
1000
0000
0010
0000
0101
0000
0010
0000
,
1100
0001
1010
0001
0110
1000
0011
0100
,
1020
0000
0100
0030
1002
0003
0020
0030
0102
0003
2000
3000
0020
0030
0200
0300
,
1001
0010
1100
0001
0110
1000
0101
0010
,
1002
0000
0100
0000
1003
0000
0010
0100
2001
0000
0010
0000
0001
0000
3100
0000
,
1010
0010
0110
1001
0100
0011
1100
0110
,
2002
0000
3113
2020
0000
0100
3031
0010
,
1100
0000
0100
0000
1001
0000
0010
0100
1010
0000
0100
0000
2001
0000
3010
0000
,
0101
0000
0100
0000
1001
0000
0010
0001
0110
0000
0010
0000
1002
0000
0103
0000
,
2020
3031
1100
0011
0100
1010
0100
1001
,
0110
0100
0010
2100
0001
0010
0001
3100
,
0011
0000
0001
0000
1010
0000
0100
0001
1100
0000
0010
0000
1001
0000
0100
0000
,
2100
0000
0001
0000
3110
0000
0100
0001
1000
0000
0010
0000
0101
0000
0010
0000
,
1100
1000
0011
0110
1001
0001
1100
0010
,
1011
0000
0101
2012
0000
0100
3013
0100
,
1010
0000
0010
0000
1001
0000
0100
0100
1010
0000
1000
0000
0011
0000
0100
0000
,
1100
0000
0001
0000
0110
0000
0010
1000
0101
0000
1000
0000
0011
0000
0100
0000
,
1001
0000
0001
0000
1100
0000
1010
0100
0010
0000
0100
0000
1001
0000
0010
0000
,
1010
0000
0000
0000
0000
0000
0000
0000
0100
0000
0000
0000
0000
0000
0000
0000
0101
0000
0000
0000
0000
0000
0000
0000
0010
0000
0000
0000
0001
0000
0000
0000
1100
0000
0000
0000
0000
0000
0000
0000
0001
0000
0000
0000
0000
0000
0000
0000
2020
3030
0000
0000
0000
0000
0000
0000
0100
0000
0000
0000
0000
0000
0000
0000
,
2002
0000
0000
0000
3113
0000
0001
0001
1100
0000
0010
0000
0101
0000
1000
0000
,
2010
0100
3011
0101
0000
1100
0000
0110
,
1001
0000
0010
0000
0101
0000
1100
1100
0010
0000
0100
0000
1001
0000
0100
0000
,
0011
0110
1101
2120
0000
0000
3030
0000
;

//---------------dance-single - ----------------
#NOTES:
     dance-single:
     :
     Medium:
     5:
     0.392,0.404,0.124,0.088,0.004,347.000,17.000,12.000,0.000,0.000:
0000
0000
0000
0000
,
0000
0000
0000
0000
,
0002
0000
0103
0000
,
2000
0000
3100
0000
,
0020
0000
0130
0000
,
2000
0000
3001
0000
,
0002
0000
0013
0000
,
2000
0000
3010
0000
,
0200
0000
0301
0000
,
1000
0001
0100
0010
,
1001
0000
0100
1000
0100
0000
1000
0000
,
0010
0000
0100
0001
0010
0000
1000
0000
,
0001
0000
0100
0001
0100
0000
0001
0000
,
0010
0000
0100
1000
0001
0000
0100
0000
,
1000
0010
0100
0001
0000
0000
1100
0000
,
0001
0100
0010
1000
0000
0000
0101
0000
,
1000
0100
1000
0100
0001
0010
0100
0000
,
1001
0000
0000
0110
0000
1000
0001
0100
,
0010
0000
1100
0000
0010
1000
0001
0000
,
1100
0001
1000
0010
,
0100
0000
0011
0000
0100
0001
1000
0000
,
0010
0100
0001
1000
,
0001
0010
0001
0010
0001
1000
0001
0000
,
0100
0010
0100
0010
1000
0100
0010
0000
,
0100
1000
0001
0100
1000
0100
0001
0000
,
1000
0001
0100
0020
0000
0000
0030
0000
,
1000
0000
1000
0000
1000
0100
1000
0000
,
0001
0000
0001
0000
0001
0100
0001
0000
,
0100
0000
0010
0000
1000
0100
1000
0000
,
0010
0000
0100
0000
0001
0100
0001
0001
,
1000
0000
0100
0000
1000
0010
0100
0000
,
0001
0000
1000
0000
0010
0001
1000
0010
,
0100
0000
0001
0000
0010
0100
0010
0002
,
0000
0000
0003
2000
0000
3000
0110
0000
,
1000
0000
0001
0000
1000
0010
1000
0000
,
0001
0000
0100
0000
0001
0010
0001
0000
,
0100
0000
0010
0000
1000
0100
0001
0000
,
0100
0000
0010
0000
0001
0100
1000
0000
,
0101
0000
0010
0000
0100
1000
0100
0000
,
1000
0000
0010
0000
0001
1000
0100
0010
,
0000
0001
1000
0001
0000
0100
0010
0100
,
0000
0001
1000
0001
1000
0001
0100
0010
,
1000
1000
0001
0001
,
1000
0000
0010
0000
0100
1000
0010
0100
,
0001
0001
1000
1000
,
0010
0000
0100
0000
0001
1000
0100
0010
,
0100
0000
0000
1000
0000
0000
0100
0000
0000
0000
1000
0000
0001
0000
1000
0000
,
0000
0010
0100
0010
1000
0001
0100
0000
,
0001
0000
0010
0000
0100
1000
0001
0100
,
0000
0000
0000
1000
,
0001
1000
0100
0000
0001
1000
0100
0000
,
0010
0001
1000
0100
,
0010
0001
1000
0000
0100
0010
1000
0000
,
0100
1000
0001
0010
,
0100
0001
1000
0000
0010
0100
0001
0000
,
1000
0100
0001
0010
,
1000
0000
0100
1000
0001
0100
0010
0001
,
0010
1000
0100
0001
,
0010
0100
1000
0000
0001
0100
1000
0000
,
0010
0100
0001
1000
,
0010
0100
0001
0000
1000
0100
0001
0000
,
0100
0010
1000
0001
,
0100
0100
0100
0100
,
0001
0011
1000
1010
,
0100
0001
1000
0100
1000
0001
0010
0000
,
0110
0000
0000
1001
0000
0001
0010
0100
,
1000
0000
0011
0000
0100
1000
0010
0000
,
1000
0100
0001
0100
,
1000
0000
1010
0000
0100
0001
0010
0000
,
0001
0100
1000
0100
,
0010
0001
1000
0001
0100
0001
0010
0000
,
0100
1000
0100
1000
0001
0100
0010
0000
,
1000
0100
0001
0100
,
0010
0100
0100
2002
0000
0000
3003
0000
;
