#TITLE:I Don't Need Your Love;
#SUBTITLE:;
#ARTIST:Imil;
#TITLETRANSLIT:;
#SUBTITLETRANSLIT:;
#ARTISTTRANSLIT:;
#CREDIT:Tyler;
#BANNER:i dont need your love bn.png;
#BACKGROUND:i dont need your love bg.png;
#LYRICSPATH:;
#CDTITLE:;
#MUSIC:I Don't Need Your Love.ogg;
#OFFSET:-0.029;
#SAMPLESTART:25.531;
#SAMPLELENGTH:12.800;
#SELECTABLE:YES;
#BPMS:0.000=300.000;
#STOPS:;
#BGCHANGES:;
// cache tags:
#FIRSTBEAT:13.000;
#LASTBEAT:710.000;
#SONGFILENAME:Songs/SPEEEDCOOOORE 2/I Don't Need Your Love - [Tyler]/i dont need.sm;
#HASMUSIC:1;
#HASBANNER:1;
#MUSICLENGTH:144.065;
// end cache tags

//---------------dance-single - T. Moore----------------
#NOTES:
     dance-single:
     T. Moore:
     Challenge:
     13:
     0.979,1.000,0.548,0.222,0.316,866.000,79.000,32.000,24.000,1.000:
0000
0000
0000
0000
,
0000
0000
0000
0000
,
0000
0000
0000
0000
,
0000
00M0
0000
00M0
,
0000
0000
0000
0000
,
0000
0000
0000
0000
,
0000
0000
0000
0000
0000
0000
0M00
0M00
,
0M00
0M00
M000
0M00
,
0000
0000
0000
0000
,
0000
0000
0000
0000
,
0000
0000
0000
0000
,
000M
0000
0000
000M
0000
0000
000M
0000
,
000M
0000
0000
0000
,
0000
0000
0000
0000
,
0000
0000
0000
0000
,
2M00
0M00
0M00
0M00
0M00
0M00
0M00
0M00
,
3M01
0000
0001
0000
,
0100
0000
0100
0000
,
0010
0000
0010
0000
,
1000
0000
0010
0000
,
0100
0000
0100
0000
,
0001
0000
0001
0000
,
1000
0000
1000
0000
,
0100
0000
1000
1000
,
0001
0000
0001
0000
,
0100
0000
0100
0000
,
0010
0000
0010
0000
,
1000
0000
0000
0000
0001
0000
0001
1000
,
0100
0000
0100
0000
,
0010
0000
0010
0000
,
0001
0010
0001
0010
0001
0010
0001
0010
,
0400
4000
0000
0000
0000
0000
0000
0000
0000
0000
0000
0000
0000
0000
0300
0000
,
3001
0100
0010
1000
0100
0010
0001
0010
,
0100
1000
0100
1000
0100
1000
0010
0100
,
0001
1000
0100
0010
0100
1000
0001
0100
,
0010
0000
1000
0000
0001
0000
1000
0000
0010
0000
0100
0000
0001
0000
0010
0100
,
1000
0001
0100
0001
1000
0100
0010
0001
,
0100
0001
0100
0001
0100
0001
0010
0100
,
1000
0001
0100
0001
1000
0001
0100
0010
,
1000
0004
0013
0004
0013
0004
1003
0004
,
0013
0100
1000
0010
0100
0001
0010
0001
,
0100
0001
0100
0001
0100
0001
1000
0100
,
0010
0001
0100
0010
1000
0100
0010
0100
,
1000
0000
0000
0010
0000
0000
0100
0000
0000
0001
0000
0000
1000
0000
0100
0000
0010
0000
0001
0000
1000
0000
0001
0000
,
1000
0100
1000
0001
0100
0001
1000
0100
,
0010
0001
0010
0001
0010
0001
1000
0010
,
0100
0001
1000
0001
0100
0001
1000
0100
,
0110
0011
2002
3003
,
0001
0000
0100
0000
0010
0000
1000
0000
0000
0001
0000
0000
0010
0000
0100
0000
1000
0000
0001
0000
0100
0000
0010
0000
,
0100
0001
0010
0100
0010
0100
1000
0100
,
0010
0001
1000
0010
0100
0001
1000
0001
,
0100
0010
1000
0100
0020
0030
0004
0000
,
1003
0100
1000
0001
0010
0001
0100
0010
,
1000
0000
0001
0000
1000
0000
0001
0000
1000
0000
0001
0000
0100
0000
0010
1000
,
0001
1000
0001
1000
0001
1000
0100
1000
,
0001
0000
0100
0000
0010
0000
1000
0000
0001
1000
0001
1000
0400
0000
0000
0300
,
1100
0011
1100
1001
,
0101
0101
0101
1010
,
1001
0011
1001
1010
,
0101
0000
0011
0000
1100
0000
1000
0001
,
0101
1010
0101
1001
,
1100
1100
1100
0011
,
2002
3003
0000
0000
,
0000
0000
0000
0000
0100
0001
0100
0001
,
1000
0001
0100
0000
1000
0001
0100
0000
,
1000
0001
0010
0000
1000
0001
0010
0000
,
1000
0100
0010
0000
1000
0100
0010
0000
,
1000
0001
0100
0000
1000
0010
0100
0001
,
1000
0100
0010
0000
1000
0100
0010
0000
,
1000
0001
0010
0000
1000
0001
0010
0000
,
1000
0010
0100
0000
1000
0010
0100
0000
,
0001
0100
0010
1000
0001
0000
1000
0000
,
0001
0010
0100
0000
0001
0010
0100
0000
,
0001
1000
0010
0000
0001
1000
0010
0000
,
0001
0100
0010
0000
0001
0100
0010
0000
,
0001
1000
0100
0000
1100
0000
0110
0000
,
0011
1100
1001
1001
,
0101
0101
1010
1010
,
1000
0100
1000
0100
0010
0001
0010
0001
,
4000
0000
3001
0001
,
1000
0010
0100
0001
1000
0100
0010
0001
,
0100
0001
0100
0001
0100
0010
1000
0001
,
0010
0100
1000
0010
0100
0001
0010
0001
,
0100
0000
0010
0000
0100
0000
0010
0000
1000
0001
1000
0001
1000
0000
0001
0000
,
0010
0001
0100
0010
0100
0001
0010
0100
,
1000
0001
1000
0001
1000
0001
0100
0010
,
1010
1001
0011
1100
,
1001
0000
0000
0000
0000
0000
0000
0000
0000
0000
0000
0000
0001
0000
0000
1000
0000
0000
0001
0000
0000
1000
0000
0000
0001
0000
0000
0000
0000
0000
0000
0000
0000
0000
0000
0000
1000
0000
0000
0000
0010
0000
0000
0000
0100
0000
0000
0000
,
0001
1000
0100
0010
0100
1000
0010
0100
,
0001
0000
0100
0000
0001
0000
0100
0000
0001
0000
0100
0000
0010
0000
1000
0001
,
0010
0100
1000
0010
0100
0001
0010
0001
,
1000
0010
0100
0001
1000
0400
0310
0400
,
1300
0001
0100
0001
1000
0100
0010
0001
,
0100
0001
0100
0001
0100
0010
1000
0001
,
0011
0110
1001
0101
,
1000
0000
0000
0000
0100
0000
0000
0000
0010
0000
0000
0000
0001
0000
0000
0000
1000
0000
0000
0000
0010
0000
0000
0000
4000
0000
0000
0000
0000
0000
0000
0000
0000
0000
0000
0000
0000
0000
0000
0000
0000
0000
0000
0000
0000
3000
0000
0000
,
2002
0000
0000
0003
,
0000
0000
3000
0000
,
0000
0000
0000
0000
,
0000
0000
0000
0000
,
0002
0000
0000
0000
,
0023
0000
0000
0000
,
0230
0000
0000
0000
,
2300
0000
3020
0000
,
M130
0000
0000
0001
1000
0000
0001
0010
,
0000
0010
0000
0100
1000
0000
0000
0000
,
0001
0000
0000
1000
0010
0000
0000
0100
,
0001
1000
0000
0000
1000
0000
1000
0100
,
0010
0000
0000
0001
1000
0000
0001
0100
,
0000
0100
0000
0010
1000
0000
0000
0000
,
0001
0000
0000
1000
0010
0000
0000
0100
,
0001
0100
0001
0100
0010
1000
0001
1000
0001
0010
0100
1000
,
0001
1000
0100
1000
0001
0100
0010
1000
,
0100
1000
0010
0100
0001
0010
0100
1000
,
0010
1000
0100
0010
0001
0100
0010
1000
,
0001
0000
1000
0000
0010
0000
0100
0000
0001
0000
1000
0000
0100
0000
0010
0001
,
1000
0001
0010
0100
1000
0001
0100
0010
,
1000
0000
0000
0010
0000
0000
0100
0000
0000
0001
0000
0000
1000
0000
0100
0000
0010
0000
0001
0000
1000
0000
0001
0000
,
0100
0001
0100
0010
1000
0010
0100
0001
,
1000
0100
0010
0001
1000
0001
0040
0000
0000
0000
0000
0000
,
0031
1000
0001
0100
0010
0100
0001
0010
,
0100
1000
0100
0010
0001
0000
4000
0000
,
3001
1000
0100
0010
0001
1000
0010
0100
,
0001
0100
0010
1000
0200
0000
0300
0000
,
1000
0010
0100
0001
1000
0001
0100
0010
,
1000
0100
0010
0001
0100
0001
0010
0100
,
1100
0011
1001
1001
,
0100
0001
1000
0100
0010
0001
0100
0000
0000
0001
0000
0000
,
0001
0100
0010
1000
0001
0010
0100
1000
,
0010
1000
0010
1000
0010
0100
0001
0010
,
0100
0010
0001
0100
0010
1000
0100
0010
,
0001
0000
0010
0000
0100
0000
1000
0000
0001
0000
1000
0000
0100
0000
0010
0001
,
1000
0010
0100
0001
0100
0010
1000
0100
,
0010
0001
0010
0001
0010
0100
1000
0010
,
0100
0001
1000
0001
0100
0001
1000
0010
,
0110
0000
0000
0000
0101
0000
0000
0000
4004
0000
0000
0000
0000
0000
0000
3003
,
0001
0010
0001
0010
0100
1000
0001
1000
0100
0010
0001
1000
,
0010
0100
0001
1000
0001
0100
0010
1000
0004
0000
0000
0000
,
1003
0010
0100
0001
1000
0100
0010
0001
1000
0010
0100
0001
,
0010
0001
1000
0010
0100
0001
0020
0000
0000
0030
0000
0000
,
0001
1000
0010
0100
0001
1000
0100
0010
0001
1000
0010
0100
,
0001
0100
0010
1000
0001
0010
0100
0010
0001
1000
0010
0100
,
0004
0000
0000
0000
,
0000
0000
1003
1000
,
0001
0010
0100
0000
0001
0010
0100
0000
,
1000
0001
0010
0000
1000
0001
0010
0000
,
0001
1000
0100
0000
0001
1000
0100
0000
,
1000
0010
0100
0000
1000
0010
0100
0001
,
0010
0100
1000
0000
0001
1000
0010
0000
,
0001
1000
0100
0000
0001
1000
0100
0000
,
1000
0001
0100
0000
1000
0001
0100
0000
,
0010
1000
0010
1000
0001
0000
0010
0000
,
0100
1000
0010
0000
0001
1000
0100
0000
,
0010
0001
0100
0000
1000
0001
0010
0000
,
1000
0010
0100
0000
0010
0100
0001
0000
,
1000
0010
0100
0000
0101
0000
1001
0000
,
0011
1100
1001
0110
,
0101
1010
1100
0011
,
0100
1000
0100
1000
0100
1000
0100
1000
,
0004
0000
1003
1000
,
002M
0000
0000
0000
,
0230
0000
0000
0000
,
0302
0000
0000
0000
,
1003
0000
0200
0000
,
2300
0000
0000
0000
,
3020
0000
0000
0000
,
0230
0000
0000
0000
,
0301
0000
0020
0000
,
0230
0000
0000
0000
,
0320
0000
0000
0000
,
0032
0000
0000
0000
,
1003
0000
0020
0000
,
2030
0000
0000
0000
,
3200
0000
0000
0000
,
0320
0000
0000
0000
0000
0030
00M4
0000
,
0403
0340
4030
3000
,
2112
0000
0000
0000
,
0000
0000
3003
0000
;
