#TITLE:Peak 1.1;
#SUBTITLE:;
#ARTIST:Darwin;
#TITLETRANSLIT:;
#SUBTITLETRANSLIT:;
#ARTISTTRANSLIT:;
#CREDIT:;
#BANNER:Pd.banner.jpg;
#BACKGROUND:Pd.bg.jpg;
#LYRICSPATH:;
#CDTITLE:CDTITLE.jpg;
#MUSIC:darwin - peak 1 1215.mp3;
#OFFSET:-0.080;
#SAMPLESTART:100.000;
#SAMPLELENGTH:12.000;
#SELECTABLE:YES;
#BPMS:0.000=180.080,128.000=90.040,160.000=180.080,288.000=90.040,336.000=180.080;
#STOPS:;
#BGCHANGES:;
// cache tags:
#FIRSTBEAT:16.000;
#LASTBEAT:431.500;
#SONGFILENAME:Songs/Definitive Keyboard Megapack/Peak 1.1(Leone510)/darwin - peak 1 1215.sm;
#HASMUSIC:1;
#HASBANNER:1;
#MUSICLENGTH:170.488;
// end cache tags

//---------------dance-single - ----------------
#NOTES:
     dance-single:
     :
     Hard:
     13:
     1.000,1.000,1.000,0.135,1.000,1266.000,315.000,23.000,0.000,0.000:
0000
0000
0000
0000
,
0000
0000
0000
0000
,
0000
0000
0000
0000
,
0000
0000
0000
0000
,
1100
0011
1010
1001
,
0101
1001
0101
1100
,
0100
0000
0000
0001
0100
0000
1100
0000
0000
0100
0001
0000
0101
0000
0000
0000
,
0100
0000
0010
0000
0001
0000
0010
0000
0100
0000
1000
0000
0010
0000
0100
0000
0010
0000
0001
0010
0100
0000
0000
0000
0100
0000
1000
0100
0010
0000
0000
0000
,
1001
0100
1001
0010
1100
0010
0101
1000
,
0110
1000
0011
0100
1010
0100
1010
0001
,
0110
1000
0101
0010
1100
0001
1100
0010
,
0101
0010
1001
0100
0011
1000
0011
0100
,
0001
0010
0100
1000
0001
0100
0010
0001
1000
0001
0010
0100
0001
0100
1000
0100
,
0001
0010
0100
1000
0001
0100
0010
0001
1000
0001
0010
0100
0001
0100
1000
0100
,
0001
0010
0100
1000
0001
0100
0010
0001
1000
0001
0010
0100
0001
0100
1000
0100
,
1001
0000
0000
0010
0000
0000
0100
0000
0000
0010
0000
0000
0001
0000
0000
0010
0000
0000
0100
0000
0000
1000
0000
0000
0001
0000
0010
0000
0100
0000
1000
0000
0001
0000
0010
0000
2000
0000
0000
0000
0000
0000
3000
0000
0000
0000
0000
0000
,
0101
0000
1010
0001
1100
0000
1001
0100
0011
0000
1010
0100
0011
0000
1100
0010
,
1001
0000
0101
0010
0101
0000
1010
0100
1010
0000
1100
0001
1010
0000
0011
1000
,
0101
0000
1010
0001
1100
0000
1001
0100
0011
0000
1010
0100
0011
0000
1100
0010
,
1001
0000
0101
0010
0101
0000
1010
0100
1010
0000
1100
0001
1010
0000
0011
1000
,
0101
0000
1010
0001
1100
0000
1001
0100
0011
0000
1010
0100
0011
0000
1100
0010
,
1001
0000
0101
0010
0101
0000
1010
0100
1010
0000
1100
0001
1010
0000
0011
1000
,
0101
0000
1010
0001
1100
0000
1001
0100
0011
0000
1010
0100
0011
0000
1100
0010
,
1001
0000
0000
0000
0001
0000
0010
0000
0100
0000
0001
0000
1000
0000
0100
0000
1000
0010
0001
0000
1000
0000
0001
0000
1000
0010
0100
0000
0010
0000
1000
0000
,
0101
0010
1000
0010
0100
1000
0010
0001
0010
0100
0001
0010
1000
0010
0001
0010
,
0100
1000
0001
0100
0001
0010
1000
0001
0100
0001
0100
1000
0010
0100
1000
0010
,
0101
0010
1000
0010
0100
1000
0010
0001
0010
0100
0001
0010
1000
0010
0001
0010
,
0100
1000
0001
0100
0001
0010
1000
0001
0100
0001
0100
1000
0010
0100
1000
0010
,
0101
0010
1000
0010
0100
1000
0010
0001
0010
0100
0001
0010
1000
0010
0001
0010
,
0100
1000
0001
0100
0001
0010
1000
0001
0100
0001
0100
1000
0010
0100
1000
0010
,
0101
0010
0001
0100
1000
0010
0001
0100
1000
0010
0100
1000
0010
1000
0010
0100
,
0010
0000
0001
0000
0100
0000
0001
0000
0010
0000
0100
0000
1000
0000
0001
0000
1000
0010
0001
0000
0010
0000
0000
0000
0200
0000
0000
0000
0000
0000
0000
0000
,
0310
0000
0001
0100
0000
0000
0010
0000
0001
0000
0000
0001
0000
0001
0100
0000
1000
0000
0000
0100
0000
0000
0000
0000
0010
0000
0000
0100
0000
0001
1000
0000
,
0001
0000
0000
1000
0000
0000
0100
0000
0010
0000
0000
0100
0000
0010
0001
0000
0001
0000
0000
1000
0000
0000
0100
0000
0001
0000
0000
0100
0000
0000
0000
0000
,
0100
0000
0000
1000
0000
0000
0001
0000
0010
0000
0000
0100
0000
0000
0000
0000
0001
0000
0000
1000
0000
0000
0010
0000
0000
0100
0000
0000
0100
0000
0000
0000
,
0100
0000
0000
0001
0000
0000
0010
0000
0000
0100
0000
0000
1000
0000
0000
0000
0100
0000
0000
0001
0000
0000
0010
0000
0000
0100
0000
0000
0010
0000
0000
0000
,
0100
0000
0010
0001
0000
0001
0010
0000
0100
0000
1000
0100
0000
0100
1000
0000
0010
0000
0100
0010
0000
0010
0100
0000
0010
0000
0100
0001
0000
0001
0100
0000
,
1000
0000
0001
0010
0000
0010
0001
0000
1000
0000
0010
0100
0000
0100
0010
0000
1000
0000
0001
1000
0000
1000
0001
0000
1000
0000
0010
0001
0000
0001
0010
0000
,
0001
0010
0100
1000
0001
0010
0100
0010
0001
1000
0100
0010
1001
0100
0010
0100
0001
0010
0100
1000
0001
0010
0100
0010
0001
1000
0100
0010
1001
0100
0010
0100
,
0001
0000
0000
0000
0000
0000
0010
0000
0000
0000
0000
0000
0100
0000
0000
0000
0000
0000
1000
0000
0000
0000
0000
0000
0001
0000
0000
0000
0000
0000
0010
0000
0000
0000
0000
0000
0100
0000
0000
0000
0000
0000
0010
0000
0000
0000
0000
0000
0001
0000
0000
0000
0000
0000
1000
0000
0000
0000
0000
0000
0100
0000
0000
0000
0000
0000
0010
0000
0000
0000
0000
0000
1001
0000
0000
0000
0000
0000
0100
0000
0000
0000
0000
0000
0010
0000
0000
0000
0000
0000
0100
0000
0000
0000
0000
0000
0001
0000
0000
0000
0000
0000
0010
0000
0000
0000
0000
0000
0100
0000
0000
0000
0000
0000
1000
0000
0000
0000
0000
0000
0001
0000
0000
0000
0000
0000
0010
0000
0000
0000
0000
0000
0100
0000
0000
0000
0000
0000
0010
0000
0000
0000
0000
0000
0001
0000
0000
0000
0010
0000
0000
0000
0100
0000
0000
0000
1000
0000
0000
0000
0001
0000
0000
0000
0100
0000
0000
0000
0010
0000
0000
1000
0000
0000
0001
0000
0000
0010
0000
0000
0100
0000
0000
1000
0000
0000
0001
0000
0000
0010
0000
0000
,
1100
0000
1100
0001
0000
0001
1010
0000
0110
0001
0000
0000
1001
0000
0000
0000
,
0101
0000
0001
1001
0000
0010
1100
0000
1000
0101
0000
0000
1001
0000
0000
0000
,
0101
0000
0011
0100
0000
0010
1100
0000
0101
0010
0000
0000
1001
0000
0000
0000
,
1001
0000
0100
0101
0000
0100
1001
0000
0010
1100
0000
0000
0110
0000
0000
0000
,
1100
0000
1100
0001
0000
0001
1010
0000
0110
0001
0000
0000
1001
0000
0000
0000
,
0101
0000
0001
1001
0000
0010
1100
0000
1000
0101
0000
0000
1001
0000
0000
0000
,
0101
0000
0011
0100
0000
0010
1100
0000
0101
0010
0000
0000
1001
0000
0000
0000
,
1001
0000
0000
0000
0000
0000
0010
0000
0000
0101
0000
0000
0010
0000
0000
0100
0000
0000
1001
0000
0000
0010
0000
0000
0001
0000
0000
1100
0000
0000
0001
0000
0000
1000
0000
0000
0110
0000
0001
0000
1000
0000
0001
0000
0000
0000
0000
0000
,
0101
0000
0100
0001
0100
0001
0010
0100
1000
0010
0100
0000
0101
0000
0000
0000
,
1100
0000
0110
0001
1000
0001
1100
0010
0101
0010
0000
0000
1100
0000
0000
0000
,
1010
0000
0010
1000
0010
0100
1000
0010
0001
0010
0100
0000
1010
0000
0000
0000
,
0101
0000
0011
0100
1000
0010
0101
1000
0011
0100
0000
0000
1100
0000
0000
0000
,
0101
0000
0100
0001
0100
0001
0010
0100
1000
0010
0100
0000
0101
0000
0000
0000
,
1100
0000
0110
0001
1000
0001
1100
0010
0101
0010
0000
0000
1100
0000
0000
0000
,
1010
0000
0010
1000
0010
0100
1000
0010
0001
0010
0100
0000
1010
0000
0000
0000
,
0101
0000
0000
1000
0000
0000
0011
0000
0000
0100
0000
0000
1000
0000
0000
0010
0000
0000
0101
0000
0000
1000
0000
0000
0011
0000
0100
0000
1000
0000
0001
0000
0010
0000
0100
0000
1000
0000
0001
0000
0010
0000
0100
0000
1000
0000
0001
0000
,
0110
0100
1010
0001
0101
0100
0110
0010
,
0011
0100
1010
0100
0101
1000
0011
0100
,
1010
0010
1010
0100
0110
0010
1001
1000
,
1100
0010
0101
0010
1100
0010
1001
0100
,
0011
0100
1010
0001
0011
0100
1001
0010
,
1010
0100
1100
0001
1010
0100
0011
0100
,
0110
0001
0110
1000
0101
0001
1010
0100
,
1001
0001
1010
0100
0011
0100
1010
0001
,
0110
0100
1010
0001
0101
0100
0110
0010
,
0011
0100
1010
0100
0101
1000
0011
0100
,
1010
0010
1010
0100
0110
0010
1001
1000
,
1100
0010
0101
0010
1100
0010
1001
0100
,
0011
0100
1010
0001
0011
0100
1001
0010
,
1010
0100
1100
0001
1010
0100
0011
0100
,
0110
0001
0110
1000
0101
0001
1010
0100
,
0001
0000
0000
0010
0000
0000
0001
0000
0000
0010
0000
0000
1000
0000
0000
0010
0000
0000
0100
0000
0000
1000
0000
0000
0001
0000
0010
0000
0100
0000
1000
0000
0100
0000
0001
0000
0010
0000
0100
0000
0010
0000
1000
0000
0010
0000
0001
0000
,
0200
0010
0001
0010
0302
0100
1000
0010
2003
0100
0001
0100
3020
0001
0100
1000
,
0230
0010
0001
1000
0302
1000
0010
0100
2003
0010
0001
0100
3002
0010
1000
0010
,
0203
0010
1000
0010
0001
0010
1000
0010
0001
1000
0001
0010
1000
0010
1000
0001
,
0320
0100
0001
0100
0001
1000
0001
0100
2030
0001
0010
0100
0001
0100
0010
0001
,
3200
0001
1000
0010
0302
1000
0010
0100
2003
0010
0100
0001
3020
0100
0001
1000
,
0230
0010
1000
0010
0302
0010
0100
0010
2003
0100
0001
0100
0010
0001
0010
0001
,
3200
0010
1000
0001
0010
0001
1000
0010
0001
0010
1000
0001
0010
0001
1000
0001
,
0320
0100
1000
0100
0001
0100
0001
0100
2030
0000
0001
0000
0010
0000
0010
0000
,
3001
0010
0000
0100
0000
1000
0000
0100
1000
0001
0000
0100
0000
0010
0100
0010
,
1000
0010
0000
0100
0000
0100
0000
0100
0001
0010
0000
0100
0000
1000
0001
1000
,
0010
0001
0000
0100
0000
0010
0000
0100
0000
0010
0000
0100
0000
0010
0000
0100
,
1000
0001
0000
1000
0000
0001
0000
0001
0000
0001
0000
0001
0000
0100
1000
0010
,
1001
0000
1001
0000
0101
0000
1010
0001
,
1100
0000
0101
0000
1001
0000
0011
0100
,
1010
0000
1001
0000
0101
0000
0110
1000
,
0011
0000
0101
0000
1001
0000
1100
0010
,
1001
0010
1100
0001
1010
0100
0011
0100
,
1010
0101
1100
0101
1001
1100
1001
0110
,
0001
0000
0000
0010
0000
0000
1000
0000
0000
0010
0000
0000
1001
0000
0000
0100
0000
0000
0010
0000
0000
0001
0000
0000
0100
0000
1000
0000
0100
0000
0010
0000
1000
0000
0001
0000
0100
0000
0001
0000
1000
0000
0001
0000
0100
0000
0010
0000
,
1001
0000
0010
0000
0100
0000
1000
0000
0100
0000
0001
0000
0100
0000
1000
0000
0001
0000
0010
0000
0100
0000
0010
0000
1000
0100
0010
0001
0100
0010
0001
0100
,
1010
0000
0101
1000
0001
0010
0100
1000
0011
0000
0100
1000
0011
0000
0100
1000
,
0011
0000
1100
0010
0001
0010
0100
1000
0001
0100
0010
0100
1001
0000
0101
0000
,
1001
0000
1100
0010
0100
0001
0010
0001
1100
0000
0010
0001
1100
0000
0010
0001
,
1100
0000
1001
0010
0100
0001
1000
0001
1000
0100
0001
0100
1001
0000
0110
0000
,
1001
0000
0110
1000
0100
0010
0001
1000
0110
0000
0001
1000
0110
0000
0001
1000
,
0110
0000
1100
0010
1000
0001
0100
0001
0100
0010
1000
0100
0011
0000
1001
0000
,
0011
0000
1100
0010
0001
0010
0100
0010
1001
0000
0010
0100
1001
0000
0010
0100
,
1001
0000
0101
0010
1000
0010
0001
1000
0001
0100
0001
0100
1010
0000
1001
0000
,
0101
0000
0101
1000
0001
0010
0100
1000
0011
0000
0100
1000
0011
0000
0100
1000
,
0011
0000
1100
0010
0001
0010
0100
1000
0001
0100
0010
0100
1001
0000
0101
0000
,
1001
0000
1100
0010
0100
0001
0010
0001
1100
0000
0010
0001
1100
0000
0010
0001
,
1100
0000
1001
0010
0100
0001
1000
0001
1000
0100
0001
0100
1001
0000
0110
0000
,
1001
0010
0100
1000
0101
0010
0001
1000
0110
1000
0001
1000
0110
1000
0001
1000
,
0110
0001
1000
0010
1100
0001
0100
0001
1100
0010
1000
0100
0011
0100
1000
0100
,
0011
1100
1001
0101
1001
1010
1001
0011
,
1001
0000
0010
0000
0100
0000
0010
0000
1000
0000
0010
0000
0001
0000
1000
0000
0001
0000
0100
0000
0001
0010
0100
0000
1010
0000
0100
0000
1001
0000
0000
0000
;
