#TITLE:Pump Me Amadeus;
#SUBTITLE:;
#ARTIST:BanYa;
#TITLETRANSLIT:;
#SUBTITLETRANSLIT:;
#ARTISTTRANSLIT:;
#CREDIT:;
#BANNER:pma-bn.bmp;
#BACKGROUND:pma-bg.bmp;
#LYRICSPATH:;
#CDTITLE:;
#MUSIC:Pump Me Amadeus.mp3;
#OFFSET:-1.720;
#SAMPLESTART:18.632;
#SAMPLELENGTH:10.760;
#SELECTABLE:YES;
#BPMS:0.000=170.000;
#STOPS:;
#BGCHANGES:;
// cache tags:
#FIRSTBEAT:0.000;
#LASTBEAT:268.000;
#SONGFILENAME:Songs/cedric step/Pump Me Amadeus/pumpmeamadeus.sm;
#HASMUSIC:1;
#HASBANNER:1;
#MUSICLENGTH:101.659;
// end cache tags

//---------------dance-single - ----------------
#NOTES:
     dance-single:
     :
     Hard:
     9:
     0.663,0.725,0.295,0.128,0.197,429.000,30.000,13.000,0.000,0.000:
1001
0000
0000
0000
,
0110
0000
0000
0000
,
1001
0000
0000
0000
,
0011
1010
0011
1010
,
1000
0000
0001
0000
1000
0000
0001
0000
1000
0001
1000
0001
1000
0000
0000
0000
,
0100
0000
0010
0000
0100
0000
0010
0000
0100
0010
0100
0010
0100
0000
0000
0000
,
0100
0000
0001
0000
0100
0000
0001
0000
0100
0001
0100
0001
0100
0000
0000
0000
,
0010
0000
0001
0000
0010
0000
0001
0000
0010
0001
0010
0001
0010
0000
0000
0000
,
0100
0000
1000
0000
0100
0000
1000
0000
0100
1000
0100
1000
0100
0000
0000
0000
,
0010
0100
0010
0100
0010
0000
0000
0000
0010
0001
0010
0001
0010
0000
0000
0000
,
0001
1000
0000
0000
0000
0000
0001
1000
0000
0000
0000
0000
0001
1000
0000
0000
0000
0000
0001
1000
0000
0000
0000
0000
,
0001
1000
0000
0000
0000
0000
0100
0010
0000
0000
0000
0000
0220
0000
0000
0000
0000
0000
0000
0000
0000
0330
0000
0000
,
1000
0001
1000
0001
1000
0001
1000
0001
,
0100
0001
0100
0001
0100
0001
0100
0001
,
0010
0100
0010
0100
0010
0100
0010
0100
,
1000
0010
1000
0010
1000
0010
1000
0010
,
0100
0010
0100
0010
0100
0010
0100
0010
,
0001
0010
0001
0010
0001
0010
0001
0010
,
0001
0100
0001
0100
0001
0100
0001
0100
,
1000
0100
1000
0100
1000
0100
1000
0100
,
0010
0100
1000
0001
0010
0100
1000
0001
,
0010
0100
1000
0001
0010
0100
1000
0100
,
0001
1000
0100
0010
0001
1000
0100
0010
,
0001
1000
0100
0010
0001
1000
0100
0010
,
0001
1000
0001
0000
0000
0000
0000
0000
0100
0001
0100
0000
0000
0000
0000
0000
,
0100
0010
0100
0000
1000
0000
0010
0000
0001
0000
1000
0000
0001
0000
0000
0000
,
0000
0100
0001
0100
1000
0100
0001
0100
,
1000
0010
0001
0010
1000
0010
0001
0010
,
2000
0000
0000
0000
3100
0100
0100
0100
,
0200
0000
0301
0000
,
0001
1000
0001
0000
1000
0001
1000
0000
0001
1000
0001
0000
1000
0001
1000
0000
,
0001
1000
0001
1000
0001
1000
0001
1000
,
1001
1000
0100
0010
0100
1000
0001
1000
,
1100
0100
0010
0001
1000
0010
0100
0010
,
0011
0020
0000
0000
0130
1000
0100
1000
,
1100
0101
0011
1010
,
0100
0010
0001
0010
0100
1000
0100
0001
,
0010
0100
0010
1000
0010
0100
0001
0010
,
0200
2300
3020
0230
,
0302
0000
0000
0000
,
1003
0000
0000
0000
,
1000
0001
1000
0001
1000
0001
1000
0001
,
1000
0001
0100
0001
0100
0001
0100
0001
,
0100
0010
0100
0010
0100
0010
0100
0010
,
1000
0010
1000
0010
1000
0010
1000
0010
,
1000
0001
1000
0001
1000
0001
1000
0001
,
1000
0100
0001
0100
0001
0100
0001
0100
,
0001
0010
0001
0010
0001
0010
0001
0010
,
0011
1010
0011
1010
,
0100
0000
0001
0000
0100
0000
0001
0000
0100
0001
0100
0001
0100
0000
0000
0000
,
0001
1000
0001
1000
0001
1000
0001
0000
,
1000
0000
0100
0000
1000
0000
0100
0000
1000
0100
1000
0100
1000
0000
0000
0000
,
0100
0010
0100
0010
0100
0010
0100
0000
,
0001
0000
0100
0000
0001
0000
0100
0000
0001
0100
0001
0100
0001
0000
0000
0000
,
0100
0000
1000
0000
0100
0000
1000
0000
0100
1000
0100
1000
0100
0000
0000
0000
,
0100
0000
0001
0000
0100
0000
0001
0000
0100
0001
0100
0001
0100
0000
0000
0000
,
0100
0000
1000
0000
0100
0000
1000
0000
0100
1000
0100
1000
0100
1000
0100
0000
,
2100
0000
0000
0000
,
0000
0000
0000
3010
,
0012
0000
0000
0000
,
0000
0000
0000
0003
,
1000
1000
0000
1001
0000
0011
0000
1010
,
0000
1000
1000
0000
0000
0000
0000
0000
,
0010
0010
0000
0110
0000
1001
0000
0011
,
0000
0010
0010
0000
0000
0000
0000
0000
,
0100
0100
0000
0101
0000
0011
0000
1010
,
0000
0100
0200
0000
0000
0000
0000
0000
,
0300
0000
0000
0000
;

//---------------dance-single - ----------------
#NOTES:
     dance-single:
     :
     Medium:
     6:
     0.460,0.560,0.305,0.266,0.000,269.000,31.000,27.000,0.000,0.000:
0110
0000
0000
0000
,
0110
0000
0000
0000
,
0110
0000
0000
0000
,
0011
0000
1010
0000
,
1000
0001
1000
0001
1000
0001
1000
0000
,
0001
1000
0001
1000
0001
1000
0001
0000
,
1000
0001
1000
0001
1000
0001
1000
0000
,
0001
1000
0001
1000
0001
1000
0001
0000
,
1000
0100
0010
1000
0001
1000
0001
0000
,
0001
1000
0001
0000
0001
1000
0001
0000
,
0011
1010
0011
1010
,
0011
0220
0000
0330
,
0100
0100
0100
0100
,
0010
0010
0010
0010
,
0001
0001
0001
0001
,
1000
1000
1000
1000
,
0100
0100
0100
0100
,
0001
0001
0001
0001
,
0010
0010
0010
0010
,
0100
0100
0100
0100
,
0010
0001
0010
0000
0100
0010
0100
0000
,
1000
0100
1000
0000
0001
0010
0001
0010
,
0001
1000
0001
0000
1000
0001
1000
0000
,
0010
0100
0010
0000
1000
0100
1000
0100
,
2000
0000
3200
0000
,
0320
0000
0000
1000
,
1030
0100
0010
0001
0010
0100
1000
0000
,
0101
0101
0101
0101
,
0202
0000
0000
0303
,
0021
0000
0130
0000
,
1000
0001
1000
0001
,
1001
0110
1001
0110
,
0200
0000
0000
0000
0001
0001
0001
0001
,
0000
0000
0000
0000
0010
0010
0010
0010
,
0000
0000
0000
0000
1000
1000
1000
1300
,
0000
1010
0000
1100
0000
0011
0000
0110
,
0100
0001
0100
0010
0100
1000
0100
0010
,
0100
0001
0100
0010
0100
1000
0100
0010
,
0200
2300
3200
0320
,
0032
0023
0230
1300
,
0110
0000
0000
0000
,
0020
0000
0000
0000
,
0230
0000
0000
0000
,
0302
0000
0000
0000
,
2003
0000
0000
0000
,
3100
0001
0100
1000
,
0100
0010
0001
0010
,
1000
0100
1000
0001
,
1000
0101
1000
0101
,
1000
0100
1000
0100
1000
0100
1000
0000
,
0020
0000
0000
0030
,
0001
0010
0001
0010
0001
0010
0001
0000
,
0200
0000
0000
0300
,
1000
0100
0010
0001
0010
0100
1000
0000
,
1000
0100
0010
0001
0010
0100
1000
0000
,
1000
0100
0010
0001
0010
0100
1000
0000
,
1000
0100
0010
0001
0010
0100
1000
1000
,
2000
0000
0000
0000
,
0002
0000
3003
0010
,
0002
0000
0000
0000
,
2000
0000
3003
0000
,
0010
0010
0000
0001
0000
0010
0000
0100
,
0000
1000
1000
0000
0000
0000
0000
0000
,
0010
0010
0000
1000
0000
0100
0000
0010
,
0000
0001
0001
0000
0000
0000
0000
0000
,
0100
0010
0000
0110
0000
0011
0000
0110
,
0000
0100
0200
0000
0000
0000
0000
0000
,
0300
0000
0000
0000
;

//---------------dance-single - ----------------
#NOTES:
     dance-single:
     :
     Easy:
     4:
     0.306,0.494,0.049,0.295,0.000,183.000,5.000,30.000,0.000,0.000:
1000
0000
0000
0000
,
0001
0000
0000
0000
,
1000
0000
0000
0000
,
0001
0000
0100
0000
,
1000
0001
1000
0001
,
0100
0010
0100
0010
,
1000
0001
1000
0001
,
0100
0010
0100
0010
,
1000
0001
1002
0103
,
2001
3100
1002
0103
,
0200
0320
0230
0320
,
0230
0320
1030
0000
,
0002
0000
0000
0000
,
2003
0000
0000
0000
,
3020
0000
0000
0000
,
0230
0000
0000
0000
,
1300
1000
1000
1000
,
0100
0100
0100
0100
,
0010
0010
0010
0010
,
0001
0001
0001
0001
,
0100
0001
0100
0001
,
0100
0001
0100
1000
,
0100
0010
0100
0010
,
0100
0010
0100
0001
,
0002
0000
2003
0000
,
3200
0000
0010
0310
,
0220
0000
0000
0330
,
0010
0100
0010
0100
,
0020
0000
0000
0000
,
0002
0030
1003
0000
,
2000
0000
0000
0000
,
0100
0100
0100
3100
,
0001
1000
0001
1000
,
0010
0100
0010
0100
,
0001
0010
0001
0010
,
0100
1000
0100
0001
,
0010
0100
0010
0100
,
1000
0001
1000
0001
,
2002
0000
0000
0000
,
0000
0000
0000
0000
,
3003
0000
0000
0000
,
2000
0000
0000
0000
,
3200
0000
0000
0000
,
0320
0000
0000
0000
,
0032
0000
0000
0000
,
1003
1000
1000
1000
,
0100
0100
0100
0100
,
0010
0010
0010
0010
,
0001
0001
0001
0001
,
0001
0010
0001
0010
,
0000
0000
0000
0000
,
1000
0100
1000
0100
,
0000
0000
0000
0000
,
1000
0001
1000
0001
,
0010
1000
0010
1000
,
0100
0001
0100
0001
,
0010
0100
0010
0100
,
0020
0000
0000
0000
,
0000
0000
0000
0100
,
0200
0000
0000
0000
,
0000
0000
0000
0330
,
1000
0001
0000
0001
0000
0001
0000
0001
,
0000
0001
1000
0000
0000
0000
0000
0000
,
1000
0100
0000
0100
0000
0100
0000
0100
,
0000
0100
1000
0000
0000
0000
0000
0000
,
1000
0010
0000
0100
0000
0001
0000
0010
,
0000
0001
2000
0000
0000
0000
0000
0000
,
3000
0000
0000
0000
;

//---------------dance-single - ----------------
#NOTES:
     dance-single:
     :
     Beginner:
     2:
     0.222,0.264,0.059,0.138,0.000,138.000,6.000,14.000,0.000,0.000:
0100
0000
0000
0000
,
0100
0000
0000
0000
,
0100
0000
0000
0000
,
0100
0000
0100
0000
,
0100
0000
0001
0000
,
1000
0000
0010
0000
,
0100
0000
0001
0000
,
1000
0000
0100
0000
,
0010
0000
0001
0000
,
1000
0000
0001
0000
,
2000
0000
0000
0000
,
3000
0000
1001
0000
,
0010
0010
0010
0000
,
0100
0100
0100
0000
,
0001
0001
0001
0000
,
1000
1000
1000
0000
,
0010
0010
0010
0000
,
0100
0100
0100
0000
,
0001
0001
0001
0000
,
0100
0100
0100
0000
,
0020
0000
0030
0000
,
0100
0100
0100
0100
,
0200
0000
0300
0000
,
1000
1000
1000
1000
,
1000
0000
0001
0000
,
0010
0000
0100
0100
,
0200
0000
0300
0000
,
0010
0010
0010
0010
,
0010
0000
1000
0000
,
0001
0000
1000
0000
,
0002
0000
0003
0000
,
1000
1000
1000
1000
,
1000
0000
0000
0000
,
0100
0000
0000
0000
,
0010
0000
0100
0100
,
0200
0300
0200
0300
,
0100
0000
0010
0000
,
1000
0000
0001
0000
,
2000
0000
3000
0000
,
0002
0000
0003
0000
,
1001
0000
0000
0000
,
1000
0000
0000
0000
,
0100
0000
0000
0000
,
0010
0000
0000
0000
,
0001
0000
0000
0000
,
1000
1000
1000
0000
,
0100
0100
0100
0000
,
0010
0010
0010
0000
,
0001
0001
0001
0000
,
0001
0001
0001
0001
,
0000
0000
0000
0000
,
0100
0100
0100
0100
,
0100
0000
0000
0000
,
0010
0010
0010
0000
,
0100
0100
0100
0000
,
0001
0001
0001
0000
,
1000
1000
1000
0000
,
2002
0000
0000
0000
,
0000
0000
3003
0000
,
0220
0000
0000
0000
,
0000
0330
0000
0000
,
1001
0000
0000
0100
,
0010
0100
0000
0000
,
0110
0000
0000
0001
,
1000
0001
0000
0000
,
1000
0000
0001
0001
,
0001
0002
0000
0000
,
0003
0000
0000
0000
;
