#TITLE:Golden Horn;
#SUBTITLE:(Premium Version);
#ARTIST:Osamu Kubota;
#TITLETRANSLIT:;
#SUBTITLETRANSLIT:;
#ARTISTTRANSLIT:;
#CREDIT:;
#BANNER:goldenhornbn.png;
#BACKGROUND:goldenhorn.png;
#LYRICSPATH:;
#CDTITLE:reny.png;
#MUSIC:Golden Horn (DWI Edit).mp3;
#OFFSET:-2.259;
#SAMPLESTART:16.355;
#SAMPLELENGTH:20.600;
#SELECTABLE:YES;
#BPMS:0.000=80.000,19.000=160.000,350.000=80.000,359.500=10.000,360.000=80.000;
#STOPS:;
#BGCHANGES:;
// cache tags:
#FIRSTBEAT:16.000;
#LASTBEAT:360.000;
#SONGFILENAME:Songs/Community Keyboard Megapack - Volume 1/(Ren) Golden Horn/golden horn.sm;
#HASMUSIC:1;
#HASBANNER:1;
#MUSICLENGTH:150.943;
// end cache tags

//---------------dance-single - ----------------
#NOTES:
     dance-single:
     :
     Hard:
     10:
     0.814,0.924,0.292,0.133,0.924,796.000,44.000,20.000,0.000,0.000:  // measure 1
0000
0000
0000
0000
,  // measure 2
0000
0000
0000
0000
,  // measure 3
0000
0000
0000
0000
,  // measure 4
0000
0000
0000
0000
,  // measure 5
2001
0000
0000
0000
3200
0000
0000
0000
0320
0000
0000
0000
0031
0100
0001
1000
,  // measure 6
0001
0000
0010
0000
0000
0000
0001
0000
0000
0000
0000
0000
1000
0100
1000
0001
,  // measure 7
1000
0100
1000
0010
0100
0001
0010
0001
0100
0010
1000
0010
1000
0000
0010
0000
,  // measure 8
0000
0100
0000
0000
0000
0001
0100
0000
,  // measure 9
0101
0000
0000
0000
0001
1000
0100
1000
0010
0000
1000
0000
0000
0000
0001
0000
,  // measure 10
0000
0000
0000
0000
0010
0100
1000
0100
0010
0100
1000
0001
0010
0001
0100
0001
,  // measure 11
1000
0001
1000
0010
0100
0000
0010
0000
0000
0000
0100
0000
0000
0000
0000
0000
,  // measure 12
0000
0000
0001
0000
0010
0000
0000
0000
0011
0000
0000
0000
0100
0010
0001
0010
,  // measure 13
0100
0000
1000
0000
0000
0000
0001
0000
0000
0000
0000
0000
1000
0000
0010
1000
,  // measure 14
0000
0010
0100
0000
0010
0001
0000
0010
0100
0001
0010
1000
0001
0000
0010
0000
,  // measure 15
0000
0000
0000
0100
0000
0000
0010
0000
0001
0000
0010
0000
0100
0000
1000
0000
0001
0000
0100
0000
0010
0000
1000
0000
,  // measure 16
0001
0000
0000
0000
1000
0010
0100
0001
0100
0000
0001
0000
0000
0000
1000
0000
,  // measure 17
0000
0000
0000
0000
0000
0000
0000
0000
0000
0000
0000
0000
0001
0000
0000
0000
1000
0000
0000
0000
0000
0000
0000
0000
0010
0000
1000
0001
1000
0000
0010
0000
,  // measure 18
0100
0001
0010
0100
1000
0000
1000
0000
0000
0000
0101
0000
0000
0000
0000
0000
,  // measure 19
0000
0000
0000
0000
0000
0000
0000
0000
0002
0000
0000
0000
1003
0100
1000
0010
,  // measure 20
1000
0000
0001
0000
0000
0000
0010
0000
0000
0000
0000
0000
0001
0100
0001
1000
,  // measure 21
0001
0100
0001
0010
0100
1000
0010
1000
0001
1000
0100
0010
0001
0000
0010
0000
,  // measure 22
0000
0100
0000
0000
0000
1000
0100
0000
,  // measure 23
1100
0000
0000
0000
0100
0010
0100
1000
0100
0000
0001
0000
0000
0000
1010
0000
,  // measure 24
0000
0000
0000
0000
0010
0100
0001
0100
0010
0100
0001
1000
0100
1000
0010
0100
,  // measure 25
0001
1000
0010
1000
0001
0000
0010
0000
0000
0000
0100
0000
0000
0000
0000
0000
,  // measure 26
0000
0000
0010
0000
0100
0000
0000
0000
0110
0000
0000
0000
0001
1000
0100
0010
,  // measure 27
0100
0000
0010
0000
0000
0000
0001
0000
0000
0000
0000
0000
0010
0000
0010
0001
,  // measure 28
0000
1000
0001
0000
0100
0001
0000
1000
0001
0010
0100
1000
0010
0000
0100
0000
,  // measure 29
0000
0000
0000
0100
0000
0000
0010
0000
1000
0000
0010
0000
0100
0000
0001
0000
1000
0000
0100
0000
0010
0000
0001
0000
,  // measure 30
1000
0000
0000
0000
0001
1000
0010
0100
0001
0000
0010
0000
0000
0000
0001
0000
,  // measure 31
0000
0000
0000
0000
0000
0000
0000
0000
0000
0000
0000
0000
1000
0000
0000
0000
0001
0000
0000
0000
0000
0000
0000
0000
0100
0000
0001
1000
0001
0000
0010
0000
,  // measure 32
0100
1000
0010
0100
0001
0000
0001
0000
0000
0000
1100
0000
0002
0000
0000
0000
,  // measure 33
0000
0000
0000
0000
2003
0000
0000
0000
0000
0000
0000
0000
3001
0100
0001
1000
,  // measure 34
0001
0100
0001
1000
0001
0010
0100
1000
0010
0100
0001
0010
0100
0000
1000
0000
,  // measure 35
0001
0100
0010
1000
0100
0010
0001
0100
0010
1000
0100
1000
0001
0010
0001
0100
,  // measure 36
0010
1000
0010
0100
0001
1000
0100
0010
0001
0000
0100
0000
0010
1000
0100
1000
,  // measure 37
0100
1000
0001
0100
0001
0100
0010
0100
0001
1000
0100
0010
0001
1000
0010
0100
,  // measure 38
0001
0010
0100
0010
0001
0000
1000
0000
0010
0100
0001
1000
0001
0100
0001
0010
,  // measure 39
0001
0100
0010
1000
0001
0010
0100
1000
0010
0100
0010
1000
0100
0010
0001
1000
,  // measure 40
0010
0000
0100
0000
0001
0100
0010
1000
0010
0100
0001
1000
0100
1000
0001
0010
,  // measure 41
0001
1000
0100
1000
0001
0010
0001
1000
0100
1000
0010
0100
0001
0000
1000
0000
,  // measure 42
0010
0000
0100
0000
0001
0000
0010
0000
0100
0000
1000
0000
0010
0100
0001
0100
,  // measure 43
0010
1000
0001
1000
0010
0100
0001
0100
0010
1000
0001
1000
0001
0000
0010
0000
,  // measure 44
0100
0000
1000
0000
0010
0000
0100
0000
0001
0000
1000
0000
0100
1000
0001
1000
,  // measure 45
0100
0010
0100
1000
0100
1000
0001
1000
0100
0010
0100
1000
0001
0000
0100
0000
,  // measure 46
0010
0000
1000
0000
0001
0000
0010
0000
0100
0000
1000
0000
0001
0000
0100
0001
,  // measure 47
0000
1000
0001
0000
0010
0001
0000
0010
0100
0000
0100
1000
0000
0001
1000
0000
,  // measure 48
0010
0100
0000
0010
1000
0000
0001
1000
0000
1000
0100
0010
0001
0100
0010
0100
,  // measure 49
0001
0000
0010
0000
0000
0000
1100
0000
0000
0000
0000
0000
0001
1000
0001
0010
,  // measure 50
0001
0100
0001
1000
0001
0010
0001
0100
0001
0010
0001
1000
0001
0000
0010
0000
,  // measure 51
0000
0100
0000
0000
0010
0100
1001
0000
,  // measure 52
1010
0000
0000
0000
1000
0100
1000
0010
1000
0000
0010
0000
0000
0000
0101
0000
,  // measure 53
0000
0000
0000
0000
1000
0001
1000
0010
1000
0100
1000
0001
1000
0010
1000
0100
,  // measure 54
1000
0010
1000
0001
1000
0000
0010
0000
0000
0000
0100
0000
0000
0000
0000
0000
,  // measure 55
0100
0000
0010
0000
1001
0000
0000
0000
0011
0000
0000
0000
1000
0100
0001
0100
,  // measure 56
1000
0000
0001
0000
0000
0000
0110
0000
0000
0000
0000
0000
0010
0000
0001
0010
,  // measure 57
0000
0010
0100
0000
0100
1000
0000
1000
0001
0100
0010
1000
0001
0000
0010
0000
,  // measure 58
0000
0000
0000
0100
0000
0000
1000
0000
0001
0000
1000
0000
0010
0000
0100
0000
0001
0000
0010
0000
0100
0000
1000
0000
,  // measure 59
0100
0000
0000
0000
0010
0001
0100
0010
1000
0000
0010
0000
0000
0000
0101
0000
,  // measure 60
0000
0000
0000
0000
0000
0000
0000
0000
0110
0000
0000
0000
1000
0000
0000
0000
0001
0000
0000
0000
0000
0000
0000
0000
0010
0000
0100
1000
0001
0000
0100
0000
,  // measure 61
0010
1000
0001
0010
0100
0000
1000
0000
0000
0000
1001
0000
2000
0000
0000
0000
,  // measure 62
0000
0000
0000
0000
3002
0000
0000
0000
0000
0000
0000
0000
1003
0010
0100
0010
,  // measure 63
1000
0000
0010
0000
0000
0000
1001
0000
0000
0000
0000
0000
1000
0100
0001
0100
,  // measure 64
1000
0001
0100
1000
0100
0001
0010
1000
0010
0001
1000
0010
0001
0000
0010
0000
,  // measure 65
0000
1100
0000
0000
1010
0010
0101
0000
,  // measure 66
1001
0000
0000
0000
0001
0010
0100
0010
0001
0000
0010
0000
0000
0000
1001
0000
,  // measure 67
0000
0000
0000
0000
0001
0100
1000
0100
0001
1000
0100
0001
0100
1000
0010
0001
,  // measure 68
0010
1000
0001
0010
1000
0000
0010
0000
0000
0000
0101
0000
0000
0000
0000
0000
,  // measure 69
0011
0000
0010
0000
1100
0000
0000
0000
1001
0000
0000
0000
0000
0010
0000
0001
,  // measure 70
0010
0001
0000
0010
0000
0100
0010
0100
0000
1000
0000
0100
1000
0100
1000
0001
,  // measure 71
0000
0010
0100
1000
0000
1000
0100
0010
0001
1000
0010
0100
0001
0010
0001
0100
,  // measure 72
0010
1000
0001
0010
0001
0010
0100
1000
0010
0000
0000
0000
1000
0000
0000
0000
,  // measure 73
1001
0000
0000
0000
0001
1000
0010
1000
0001
1000
0010
1000
0001
1000
0010
1000
,  // measure 74
0001
1000
0010
1000
0001
1000
0010
1000
0001
1000
0010
1000
0001
1000
0010
1000
,  // measure 75
0100
0010
0100
1000
0100
0010
0100
1000
0100
0010
0100
1000
0100
0010
0100
1000
,  // measure 76
0100
0010
0100
1000
0100
0010
0100
1000
0100
0010
0100
1000
0002
0000
0000
0000
,  // measure 77
2003
0000
3002
0000
1003
0000
1001
0110
,  // measure 78
0100
1000
0010
0100
0001
0010
1100
0001
,  // measure 79
0100
0010
1010
0001
0011
1100
1000
0100
,  // measure 80
0001
0100
1000
0010
0101
1000
0100
0010
,  // measure 81
0011
1000
0101
1010
0001
0100
1000
0100
,  // measure 82
0001
0010
1001
0001
1000
0001
0110
0001
,  // measure 83
0110
0000
1001
0000
1000
0010
0100
0001
0010
0000
0010
0000
0100
0000
1000
0000
,  // measure 84
0001
0100
0010
1000
0001
0010
0100
1000
,  // measure 85
0010
0100
0010
1000
0100
0010
0001
1000
,  // measure 86
0010
0100
0001
0010
0001
1000
0100
1000
,  // measure 87
0010
0100
0001
0100
1000
0100
0001
1000
,  // measure 88
0010
0001
0010
2000
0000
3002
0000
0203
,  // measure 89
0000
0320
0000
2030
0000
3002
0000
0003
,  // measure 90
0000
0000
0000
0020
0000
0000
0000
0030
0000
0000
0000
0000
0000
0000
2002
0000
,  // measure 91
3003
0000
0000
0000
;
