#TITLE:Biasa;
#SUBTITLE:(usual);
#ARTIST:Identity;
#TITLETRANSLIT:;
#SUBTITLETRANSLIT:;
#ARTISTTRANSLIT:;
#CREDIT:;
#BANNER:Biasa-bn.jpg;
#BACKGROUND:Biasa-bg.jpg;
#LYRICSPATH:;
#CDTITLE:cdtitle.png;
#MUSIC:Biasa.mp3;
#OFFSET:-0.020;
#SAMPLESTART:82.480;
#SAMPLELENGTH:12.000;
#SELECTABLE:YES;
#BPMS:0.000=134.000,152.000=67.000,160.000=134.000;
#STOPS:;
#BGCHANGES:;
// cache tags:
#FIRSTBEAT:16.000;
#LASTBEAT:263.000;
#SONGFILENAME:Songs/toune 6/Biasa/Biasa.sm;
#HASMUSIC:1;
#HASBANNER:1;
#MUSICLENGTH:136.184;
// end cache tags

//---------------dance-single - ----------------
#NOTES:
     dance-single:
     :
     Hard:
     9:
     0.490,0.748,0.147,0.147,0.048,427.000,20.000,20.000,0.000,0.000:
0000
0000
0000
0000
,
0000
0000
0000
0000
,
0000
0000
0000
0000
,
0000
0000
0000
0000
,
0001
0000
0100
0100
0010
0000
0100
0000
,
0001
0000
0100
0010
0100
0000
0001
0000
,
1000
0000
0100
0001
0010
0000
0100
0000
,
1000
0000
0010
0100
0001
0000
0100
0000
,
0010
0000
0001
0010
0100
0000
0010
0000
,
0100
0000
0001
0100
0010
0000
0100
0000
,
1000
0000
0010
0100
0010
0000
0001
0000
,
0100
0000
0010
0100
0010
0000
0100
0000
,
2000
0000
0000
0010
0001
0010
0010
0001
,
3200
0000
0000
0010
1000
0010
1000
1000
,
0320
0000
0000
0100
0100
0001
0100
0001
,
0230
0001
0000
0010
0000
1000
0010
1000
,
0302
0000
0000
0100
0010
0100
0100
0010
,
2003
0000
0000
0100
0001
0010
0010
0100
,
3020
0000
0000
0100
0001
0100
0100
0001
,
2030
0000
0100
0000
0000
0000
0010
0000
0001
0000
0010
0000
0100
0000
0010
3000
,
1001
0010
0100
0010
0001
0010
0100
0010
,
1000
0100
0010
0100
0001
0010
0100
0001
,
0010
0100
1000
0100
0010
0100
0010
0001
,
0100
0010
0100
1000
0100
0010
0100
0010
,
1100
0010
0001
0100
0010
0100
0010
0001
,
0100
1000
0010
0100
0001
0100
1000
0010
,
0100
0001
0100
0010
0100
1000
0001
0100
,
0010
1000
0100
0010
0100
0001
0100
0010
,
0110
0010
0100
0010
1000
1000
0010
0100
,
2020
0000
0000
0000
0000
0000
0000
3030
,
1001
0010
0100
0010
0100
0000
0010
0000
,
1000
0100
0010
0001
0100
0000
0010
0000
,
0001
0100
0010
0100
0010
0000
0100
0000
,
0010
0100
1000
0100
0010
0000
0100
0000
,
0001
0100
0010
0100
0010
0000
0100
0000
,
1000
0010
0100
0010
0001
0000
0100
0000
,
0010
0100
0010
0001
0100
0000
0010
0000
,
0100
0001
0010
0100
0010
0000
0100
0000
,
2000
0000
0000
0010
0010
0001
0010
0010
3200
0000
0000
0010
1000
1000
0010
1000
,
0302
0000
0000
0100
1000
0100
0010
0100
0023
1000
0000
0100
1000
0100
1000
0130
,
1001
1010
0100
0010
0001
0100
0010
0100
,
1010
0101
0010
0100
1000
0100
0010
0100
,
1001
0110
0001
0010
0100
1000
0100
0010
,
2000
0000
0001
0000
3200
0000
0001
0000
0320
0000
1000
0000
0032
0000
1000
0003
,
1001
0010
0100
0001
0100
0010
0100
1000
,
0010
0001
0100
0010
0100
0001
0100
1000
,
0100
0010
0001
0100
0010
0100
1000
0001
,
0100
0010
0100
0001
1000
0100
0010
0100
,
0101
0010
0100
1000
0010
0100
0001
0100
,
0010
0100
1000
0010
0001
0100
0001
0010
,
0100
1000
0010
0100
0001
0100
0010
0100
,
0001
0100
1000
0010
0100
0001
0100
0010
,
1100
0010
0001
0100
0010
0001
0100
1000
,
0010
0100
0001
0100
0010
0001
0100
1000
,
0010
0100
0001
0100
0010
1000
0100
0001
,
0010
0100
0010
0100
0001
1000
0100
0010
,
1100
0010
0001
0100
0010
0100
1000
0010
,
0001
0100
0010
0100
0010
0001
1000
0100
,
0010
0100
0001
0100
0010
0100
0010
1000
,
0100
0010
0001
0100
1000
0010
0100
0010
,
0100
0001
0010
1000
0010
0100
0001
0100
,
1010
0100
0001
0100
0010
0100
1000
0100
,
0001
0010
0100
0001
0010
0100
1000
0100
,
0010
0100
0010
0100
0011
0101
1100
2020
,
0000
0000
0000
0000
,
0000
0000
0000
3030
;

//---------------dance-single - ----------------
#NOTES:
     dance-single:
     :
     Medium:
     7:
     0.370,0.531,0.110,0.140,0.000,319.000,15.000,19.000,0.000,0.000:
0000
0000
0000
0000
,
0000
0000
0000
0000
,
0000
0000
0000
0000
,
0000
0000
0000
0000
,
0001
0100
0010
0100
,
0001
0100
0100
0001
,
1000
0100
0010
0100
,
1000
0010
0001
0100
,
0010
0001
0100
0010
,
0100
0001
0010
0100
,
1000
0010
0010
0001
,
0100
0010
0010
0100
,
2000
0010
0001
0010
,
3200
0010
1000
1000
,
0320
0100
0100
0100
,
0230
0010
1000
0010
,
0302
0100
0010
0100
,
2003
0100
0001
0010
,
3020
0100
0001
0100
,
2030
0000
0000
0000
0100
0000
0000
0000
0001
0000
0000
0000
0100
0000
0000
3000
,
1001
0000
0100
0010
0001
0010
0100
0000
,
1000
0000
0010
0100
0001
0010
0100
0000
,
0010
0000
1000
0100
0010
0100
0010
0000
,
0100
0000
0100
1000
0100
0010
0100
0000
,
1100
0000
0001
0100
0010
0100
0010
0000
,
0100
0000
0010
0100
0001
0100
1000
0000
,
0100
0000
0100
0010
0100
1000
0001
0000
,
0010
0000
0100
0010
0100
0000
0100
0000
,
0110
0010
0100
0010
1000
1000
0010
0100
,
2020
0000
0000
0000
0000
0000
0000
3030
,
1001
0100
0100
0010
,
1000
0010
0100
0010
,
0001
0010
0010
0100
,
0010
1000
0010
0100
,
0001
0010
0010
0100
,
1000
0100
0001
0100
,
0010
0010
0100
0010
,
0100
0010
0010
0100
,
2000
0010
0010
0010
3200
0010
1000
0010
,
0302
0000
0010
0000
1000
0000
0010
0000
0023
0000
0100
0000
1000
0000
1000
0030
,
1001
0010
0100
0000
0001
0100
0010
0100
,
1010
0001
0010
0000
1000
0100
0010
0100
,
1001
0010
0001
0000
0100
1000
0100
0010
,
2000
0000
0000
0000
3200
0000
0000
0000
0320
0000
0000
0000
0032
0000
0000
0003
,
1001
0000
0100
0001
0100
0010
0100
0000
,
0010
0000
0100
0010
0100
0001
0100
0000
,
0100
0000
0001
0100
0010
0100
1000
0000
,
0100
0000
0100
0001
1000
0100
0010
0000
,
0101
0000
0100
1000
0010
0100
0001
0000
,
0010
0000
1000
0010
0001
0100
0001
0000
,
0100
0000
0010
0100
0001
0100
0010
0000
,
0001
0000
1000
0010
0100
0001
0100
0000
,
1100
0000
0001
0100
0010
0001
0100
0000
,
0010
0000
0001
0100
0010
0001
0100
0000
,
0010
0000
0001
0100
0010
1000
0100
0000
,
0010
0000
0010
0100
0001
1000
0100
0000
,
1100
0000
0001
0100
0010
0100
1000
0000
,
0001
0000
0010
0100
0010
0001
1000
0000
,
0010
0000
0001
0100
0010
0100
0010
0000
,
0100
0000
0001
0100
1000
0010
0100
0000
,
0100
0000
0010
1000
0010
0100
0001
0000
,
1010
0100
0001
0100
0010
0100
1000
0100
,
0001
0010
0100
0001
0010
0100
1000
0100
,
0010
0100
0010
0100
0011
0100
1100
0020
,
0000
0000
0000
0000
,
0000
0000
0000
0030
;
