#TITLE:MaxX AttaxX;
#SUBTITLE:;
#ARTIST:DM Ashura;
#TITLETRANSLIT:;
#SUBTITLETRANSLIT:;
#ARTISTTRANSLIT:;
#CREDIT:;
#BANNER:mxxaxx.jpg;
#BACKGROUND:mxxaxx-bg.jpg;
#LYRICSPATH:;
#CDTITLE:kcd.png;
#MUSIC:MaxX AttaxX.ogg;
#OFFSET:-5.978;
#SAMPLESTART:31.002;
#SAMPLELENGTH:13.640;
#SELECTABLE:YES;
#BPMS:0.000=325.500,128.000=162.750,133.000=325.500;
#STOPS:128.000=1.106
;
#BGCHANGES:;
// cache tags:
#FIRSTBEAT:0.000;
#LASTBEAT:464.000;
#SONGFILENAME:Songs/maxxx/MaxX AttaxX/mxxaxx.sm;
#HASMUSIC:1;
#HASBANNER:1;
#MUSICLENGTH:95.937;
// end cache tags

//---------------dance-single - ----------------
#NOTES:
     dance-single:
     :
     Hard:
     10:
     0.858,1.000,0.302,0.031,0.000,544.000,29.000,3.000,0.000,0.000:  // measure 1
1000
0100
0010
0001
,  // measure 2
0100
0000
0010
1000
0010
1000
0010
1000
,  // measure 3
0010
0100
0001
0010
,  // measure 4
0100
0000
1000
0001
1000
0001
1000
0001
,  // measure 5
1000
0010
0100
0001
,  // measure 6
1000
0000
0010
0100
0010
1000
0010
0100
,  // measure 7
0010
1000
0100
0010
,  // measure 8
0001
0000
1000
0010
1000
0100
1000
0010
,  // measure 9
1000
0000
0001
0010
0001
0000
0100
0010
,  // measure 10
0100
0000
0001
0010
0001
0010
0001
0010
,  // measure 11
0001
0000
0100
0010
0100
0000
0001
1000
,  // measure 12
0001
0000
0100
0010
0100
0010
0100
0010
,  // measure 13
0100
0000
0001
1000
0001
0000
0100
0010
,  // measure 14
0100
0000
0001
1000
0001
0010
0001
1000
,  // measure 15
0001
0100
0010
1000
,  // measure 16
0110
0000
1001
0000
,  // measure 17
0001
0000
1000
0100
1000
0100
0010
0001
,  // measure 18
0010
0000
0100
1000
0100
1000
0010
0100
,  // measure 19
0010
0000
1000
0001
1000
0001
0010
0100
,  // measure 20
0010
0000
1000
0100
1000
0100
0010
0001
,  // measure 21
0010
0000
0100
1000
0010
0100
0001
0010
,  // measure 22
0100
0000
1000
0001
0010
0100
1000
0010
,  // measure 23
0100
0000
0001
1000
0010
0100
0001
1000
,  // measure 24
0010
0000
0100
0001
0010
0100
1000
0010
,  // measure 25
0100
0000
0001
0010
0001
0010
0001
0010
,  // measure 26
0001
0100
0010
0100
0010
0100
0010
0100
,  // measure 27
0010
1000
0100
1000
0100
1000
0100
1000
,  // measure 28
0010
0100
0010
0100
0010
0100
0010
0100
,  // measure 29
0001
1000
0010
1000
0010
1000
0001
0000
,  // measure 30
0100
0010
1000
0010
1000
0010
0100
0001
,  // measure 31
0010
0100
1000
0001
0010
0100
1000
0001
,  // measure 32
0010
0100
1000
0001
0010
0100
1000
0001
,  // measure 33
0020
0100
0100
0100
,  // measure 34
0130
0000
1000
0000
0010
0100
0010
0000
,  // measure 35
1000
0000
0001
0000
0010
0100
0010
0000
,  // measure 36
0001
0000
1000
0000
0010
0100
0010
0000
,  // measure 37
1000
0000
0001
0010
0000
0001
0010
0000
,  // measure 38
0100
0000
1000
0000
0001
0010
0001
0000
,  // measure 39
0100
0000
0010
0000
1000
0001
1000
0000
,  // measure 40
0100
0000
0010
0000
0001
0100
0001
0000
,  // measure 41
1000
0000
0010
0100
0000
0010
0100
0000
,  // measure 42
0001
0000
0010
0000
0100
1000
0100
0000
,  // measure 43
0010
0000
0001
0000
1000
0010
1000
0000
,  // measure 44
0001
0000
0100
0000
0010
1000
0010
0000
,  // measure 45
0100
0000
0001
0010
0000
0001
0010
0000
,  // measure 46
0100
0000
1000
0000
0001
0010
0100
0000
,  // measure 47
1000
0000
0010
0000
0100
0001
0010
0000
,  // measure 48
0100
0000
1000
0000
0010
0100
0001
0000
,  // measure 49
1000
0000
0010
0100
0000
0010
0100
0000
,  // measure 50
0001
0000
1010
0000
0100
0010
0100
0000
,  // measure 51
0001
0000
0010
0000
0100
1000
0010
0000
,  // measure 52
0100
0000
0001
0000
1000
0010
0100
0000
,  // measure 53
0001
0000
1000
0010
0000
1000
0010
0000
,  // measure 54
0100
0000
0001
0000
0010
0100
1000
0000
,  // measure 55
0010
0000
0100
0000
0001
1000
0010
0000
,  // measure 56
0100
0000
0001
0000
1000
0010
0100
0000
,  // measure 57
0001
0000
1000
0010
0000
1000
0010
0000
,  // measure 58
0100
0000
0001
0000
0010
0100
1000
0000
,  // measure 59
0010
0000
0100
0000
0001
1000
0010
0000
,  // measure 60
0100
0000
0001
0000
1000
0010
0100
0000
,  // measure 61
0001
0000
1000
0010
0000
1000
0010
0000
,  // measure 62
0100
0000
0001
0000
0010
0000
0100
1000
,  // measure 63
0100
1000
0100
0000
0010
0000
0001
0100
,  // measure 64
0001
0100
0001
0000
1000
0000
0010
0100
,  // measure 65
0010
0000
1000
0001
0000
0001
1000
0000
,  // measure 66
0010
0100
0001
0011
,  // measure 67
1000
0100
0010
1001
,  // measure 68
0000
0001
0010
0101
,  // measure 69
1000
0010
0100
1001
,  // measure 70
0000
1000
0010
0101
,  // measure 71
1000
0010
0100
1010
,  // measure 72
0000
0001
0100
1010
,  // measure 73
0100
0001
0010
1100
,  // measure 74
0000
0001
1000
1100
,  // measure 75
0010
0100
0001
0011
,  // measure 76
0000
1000
0010
0101
,  // measure 77
1000
0010
0100
0011
,  // measure 78
0000
1000
0001
0110
,  // measure 79
1000
0010
0100
1010
,  // measure 80
0000
0001
0010
0110
,  // measure 81
0110
1000
0100
0101
,  // measure 82
0000
1000
0010
0101
,  // measure 83
0000
0010
0100
1010
,  // measure 84
0000
0001
0100
0001
,  // measure 85
0100
0001
0000
1000
,  // measure 86
0010
0100
0000
1001
,  // measure 87
0000
0001
0010
0100
,  // measure 88
0000
1000
0001
0101
,  // measure 89
0000
1000
0000
1100
,  // measure 90
0000
0010
0100
0001
,  // measure 91
0000
1100
0000
1100
,  // measure 92
0000
0001
0000
0101
,  // measure 93
0000
1000
0010
0100
,  // measure 94
0000
0001
0000
0001
,  // measure 95
0000
0010
0000
0010
,  // measure 96
0000
0100
0000
0100
,  // measure 97
0000
1000
0000
1000
,  // measure 98
0000
0000
0010
0000
0100
0000
0001
0010
,  // measure 99
0000
1000
0010
0000
0100
0000
0010
1000
,  // measure 100
0000
0010
0001
0000
0100
0000
0001
0010
,  // measure 101
0000
1000
0010
0000
0100
0000
0001
0000
,  // measure 102
0000
0000
0010
0000
0100
0000
1000
0100
,  // measure 103
0000
0001
0100
0000
0010
0000
1000
0100
,  // measure 104
0000
0001
0100
0000
0010
0000
1000
0010
,  // measure 105
0000
0001
0010
0000
0100
0000
1000
0000
,  // measure 106
0000
0000
0001
0000
0100
0000
0010
1000
,  // measure 107
0000
0010
0001
0000
1000
0000
0100
0001
,  // measure 108
0000
0100
1000
0000
0010
0000
0100
0001
,  // measure 109
0000
0100
1000
0000
0001
0000
0010
0000
,  // measure 110
0000
0000
0100
0000
1000
0000
0001
0010
,  // measure 111
0000
1000
0100
0000
0010
0000
0001
0100
,  // measure 112
0000
1000
0010
0000
0100
0000
0001
1000
,  // measure 113
0000
0100
0010
0000
0001
0000
1000
0000
,  // measure 114
0000
0220
0000
0000
,  // measure 115
0000
0000
0000
0000
,  // measure 116
0000
0330
0000
0000
;

//---------------dance-single - ----------------
#NOTES:
     dance-single:
     :
     Challenge:
     12:
     1.000,1.000,1.000,0.083,0.000,725.000,143.000,8.000,0.000,4.000:  // measure 1
1001
0110
1001
0110
,  // measure 2
1001
0000
1100
0010
1100
0010
1100
0010
,  // measure 3
1100
0101
0110
0101
,  // measure 4
0110
0000
1001
0100
1001
0100
1001
0100
,  // measure 5
1001
1100
0110
1100
,  // measure 6
0110
0000
0101
1000
0101
1000
0101
1000
,  // measure 7
0101
0011
1100
0011
,  // measure 8
0010
0010
0001
0001
0010
0010
0100
0100
,  // measure 9
1100
0000
1000
0100
0010
0001
1000
0100
,  // measure 10
0011
0000
0001
0010
0100
1000
0001
0010
,  // measure 11
1100
0000
0010
0001
0100
0010
1000
0100
,  // measure 12
1001
0000
0100
1000
0010
0100
0001
1000
,  // measure 13
0011
0000
0010
0001
1000
0010
0100
0001
,  // measure 14
1010
0000
0001
0010
0100
1000
0001
0010
,  // measure 15
1100
0000
0010
0001
0100
0010
1000
0100
,  // measure 16
0010
0010
0001
0001
0010
0010
0100
0100
,  // measure 17
1002
0000
0113
1000
0110
1000
0110
1000
,  // measure 18
0110
0000
0011
0100
0011
0100
0011
0100
,  // measure 19
0011
0000
1010
0001
1010
0001
1010
0001
,  // measure 20
1010
0000
0101
0010
0101
0010
0101
0010
,  // measure 21
0101
0000
0011
1000
0011
1000
0011
1000
,  // measure 22
0011
0000
1010
0001
1010
0001
1010
0001
,  // measure 23
1010
0000
0101
1000
0101
1000
0101
1000
,  // measure 24
0101
0000
1000
0001
1000
0001
1000
0001
,  // measure 25
1001
0000
0010
0100
0010
0100
0010
0100
,  // measure 26
0010
0000
0100
1000
0010
0100
0001
0010
,  // measure 27
1100
0000
0010
0100
0010
0100
0010
0100
,  // measure 28
0010
0000
0100
0010
0001
1000
0100
0010
,  // measure 29
1100
0000
0010
0001
0100
0010
1000
0100
,  // measure 30
0011
0000
0010
0001
0100
0010
1000
0100
,  // measure 31
0110
0000
0001
0100
0011
0000
0010
0100
,  // measure 32
0101
0000
0010
0100
1100
0000
0010
0100
,  // measure 33
0120
2000
3002
2003
,  // measure 34
3002
0030
1003
0000
1000
0100
0010
0000
,  // measure 35
0100
0000
1100
0000
1000
0100
0010
0000
,  // measure 36
0100
0000
1100
0000
1000
0100
0010
0000
,  // measure 37
0001
0000
0011
0000
0000
0011
0000
0000
,  // measure 38
0011
0000
0011
0000
0001
0010
0100
0000
,  // measure 39
0010
0000
0011
0000
0001
0010
0100
0000
,  // measure 40
0010
0000
0011
0000
0001
0010
0100
0000
,  // measure 41
0010
0000
0011
0000
0000
0011
0000
0000
,  // measure 42
0011
0000
0110
0000
0010
0100
1000
0000
,  // measure 43
0100
0000
0110
0000
0010
0100
1000
0000
,  // measure 44
0100
0000
0110
0000
0010
0100
1000
0000
,  // measure 45
0001
0100
0010
0000
0000
1001
0000
0000
,  // measure 46
0110
0000
1001
0000
1000
0001
0100
0000
,  // measure 47
0010
0000
0110
0000
0100
0001
0010
0000
,  // measure 48
0100
0000
1100
0000
1000
0100
1000
0000
,  // measure 49
0100
1000
0100
0010
0001
1000
0010
0100
,  // measure 50
0001
1000
1010
0000
1000
0000
0101
0000
,  // measure 51
0100
0010
1000
0000
0001
0000
0110
0000
,  // measure 52
0010
0100
1000
0000
0001
0000
0110
0000
,  // measure 53
0100
0001
0010
0100
1000
0001
0010
0100
,  // measure 54
1000
0100
0011
0000
0100
0000
0110
0000
,  // measure 55
0010
0001
0100
0000
0010
0000
1001
0000
,  // measure 56
1000
0001
0100
0000
0010
0000
1001
0000
,  // measure 57
1000
0100
0001
0100
1000
0010
0001
0010
,  // measure 58
1000
0100
0011
0000
1001
0000
0011
0000
,  // measure 59
1000
0100
0011
0000
0101
0000
1010
0000
,  // measure 60
1000
0100
1010
0000
0101
0000
0110
0000
,  // measure 61
0010
0100
1000
0001
0100
0010
1000
0001
,  // measure 62
0100
0010
1010
0000
1100
0000
0011
0000
,  // measure 63
0100
0010
0101
0000
1010
0000
1001
0000
,  // measure 64
1000
0010
0101
0000
1001
0000
0110
0000
,  // measure 65
0100
0001
0010
0100
1000
0100
0010
0001
,  // measure 66
0010
0100
0001
0100
0010
0001
0100
0010
,  // measure 67
1000
0100
0010
0100
1000
0001
0100
0010
,  // measure 68
0100
0001
0010
1000
0010
0001
1000
0010
,  // measure 69
0001
0010
1000
0100
0001
0100
1000
0001
,  // measure 70
0010
1000
0010
0100
0001
0100
0010
0001
,  // measure 71
0100
0010
0001
0010
1000
0100
0010
1000
,  // measure 72
0010
0100
1000
0010
0100
1000
0100
0010
,  // measure 73
1000
0100
0010
0100
0010
0001
0010
0100
,  // measure 74
0010
0001
0010
0100
0010
1000
0010
0100
,  // measure 75
1000
0010
0001
0010
1000
0100
0010
0100
,  // measure 76
1000
0001
0100
0010
0100
0001
0100
0010
,  // measure 77
0100
1000
0100
0010
1000
0010
0100
0010
,  // measure 78
1000
0100
0010
0100
0001
0100
0010
0001
,  // measure 79
0100
0010
0100
1000
0100
0010
0001
0010
,  // measure 80
1000
0100
0010
0100
0001
0100
0010
0100
,  // measure 81
0010
0001
0100
0010
0100
0001
1000
0010
,  // measure 82
0100
0001
0010
1000
0010
0001
1000
0010
,  // measure 83
0001
0010
1000
0100
0010
0001
0010
0100
,  // measure 84
0001
0100
0010
0001
0100
0010
0001
0010
,  // measure 85
1000
0100
0010
1000
0010
0100
1000
0010
,  // measure 86
0100
0001
1000
0010
0100
0001
1000
0010
,  // measure 87
1000
0001
0010
0100
1000
0001
0010
0100
,  // measure 88
0001
0100
0010
0001
1000
0100
0010
0001
,  // measure 89
1000
0010
0100
0001
1000
0010
0100
0001
,  // measure 90
1000
0100
0010
0100
0001
0100
0010
0001
,  // measure 91
1000
0010
0100
1000
0100
0010
1000
0100
,  // measure 92
0010
0100
1000
0001
0100
0010
0100
0001
,  // measure 93
0010
1000
0010
0001
1000
0010
0001
0010
,  // measure 94
1000
0100
0001
0100
1000
0001
0100
1000
,  // measure 95
0100
0001
0010
1000
0010
0001
1000
0100
,  // measure 96
0001
0100
0010
0001
0100
0010
1000
0100
,  // measure 97
0010
0001
0100
0010
1000
0100
0010
0100
,  // measure 98
0010
0100
0110
0000
1000
0000
0101
0000
,  // measure 99
0100
0110
1000
1001
,  // measure 100
0001
1100
1000
1100
,  // measure 101
0010
0000
0100
0001
0100
0010
0100
1000
,  // measure 102
0100
0010
0011
0000
0010
0000
0110
0000
,  // measure 103
0100
1100
1000
0101
,  // measure 104
0001
0110
0100
0110
,  // measure 105
0010
0000
1000
0001
0100
0010
1000
0001
,  // measure 106
0100
0010
1010
0000
1000
0000
1001
0000
,  // measure 107
0001
0011
0010
0110
,  // measure 108
0100
1100
1000
1001
,  // measure 109
0010
0000
0100
0010
0100
1000
0100
0010
,  // measure 110
0100
0010
1100
0000
0010
0000
0101
0000
,  // measure 111
1000
0011
0100
0011
,  // measure 112
1000
0011
0100
1001
,  // measure 113
1000
0000
0100
0001
0100
1000
0010
0001
,  // measure 114
0010
1000
0220
0000
0000
0000
0000
0000
,  // measure 115
0000
0000
0000
0000
,  // measure 116
0000
0000
0000
0000
,  // measure 117
0330
0000
0000
0000
;
