#TITLE:Pokemon HaraHara Relay;
#SUBTITLE:(TV Edit);
#ARTIST:Rikako Aikawa and Korasu;
#TITLETRANSLIT:;
#SUBTITLETRANSLIT:;
#ARTISTTRANSLIT:;
#CREDIT:Kyon;
#BANNER:Pokemon HaraHara Relay (TV Edit).png;
#BACKGROUND:Pokemon HaraHara Relay (TV Edit)-bg.png;
#LYRICSPATH:Pokemon HaraHara Relay (TV Edit).lrc;
#CDTITLE:Dj DMA Original Simfile.png;
#MUSIC:Pokemon HaraHara Relay (TV Edit).mp3;
#OFFSET:0.040;
#SAMPLESTART:53.505;
#SAMPLELENGTH:12.000;
#SELECTABLE:YES;
#BPMS:0.000=155.100;
#STOPS:;
#BGCHANGES:0.000=Pokemon HaraHara Relay (TV Edit).avi=1.000=1=1=0,
209.000=Pokemon HaraHara Relay (TV Edit)-bg.png=1.000=1=0=1,
99999=-nosongbg-=1.000=0=0=0 // don't automatically add -songbackground-
;
// cache tags:
#FIRSTBEAT:3.000;
#LASTBEAT:207.000;
#SONGFILENAME:Songs/juju step2/Pokemon HaraHara Relay (TV Edit)/Pokemon HaraHara Relay (TV Edit).sm;
#HASMUSIC:1;
#HASBANNER:1;
#MUSICLENGTH:81.626;
// end cache tags

//---------------dance-single - ----------------
#NOTES:
     dance-single:
     :
     Easy:
     3:
     0.210,0.285,0.086,0.086,0.000,106.000,7.000,7.000,0.000,0.000:
0000
0000
0000
0000
,
0000
0000
0000
0000
,
0000
0000
0000
0000
,
0000
0000
0000
0000
,
0000
0000
0000
0000
,
0010
0000
0001
0000
,
0010
0000
0010
0000
,
0010
0000
0001
0000
,
1000
0000
0001
0000
,
2000
0000
0000
3001
,
0010
0101
0000
2000
,
0000
0000
0000
3001
,
0010
0001
0000
2000
,
0000
0000
0000
3001
,
0010
0100
0000
0002
,
0000
0000
0000
1003
,
0010
1000
0000
0010
,
0100
0020
0000
0130
,
0001
0000
0000
1000
,
0000
0001
0000
0010
,
0000
0001
0000
0010
,
0000
0001
0000
0010
,
0000
0100
0000
0010
,
0000
0100
0000
0020
,
0000
0230
0000
0301
,
0010
0001
0000
1000
,
0010
0000
0000
0100
,
0000
0000
0000
0010
,
0000
0000
0000
0100
,
0100
0010
0010
0001
,
0001
1000
1000
0010
,
0000
0000
0000
0100
,
0100
0010
0010
0100
,
0010
0100
0000
0010
,
0001
0000
0000
0001
,
0000
0000
0000
1001
,
0000
0000
0000
0110
,
0000
0000
0000
0110
,
0000
0000
0000
1001
,
0000
0000
0010
0000
,
0100
0000
0010
0000
,
0100
0000
0010
0000
,
0001
0000
0010
0001
,
0010
0001
0010
0100
,
0010
0100
0010
0100
,
0010
0001
0010
1000
,
0010
1000
0010
1000
,
0100
1000
0000
0100
,
0000
0000
0100
0000
,
0010
0000
0100
0000
,
0110
0000
0010
0000
,
0100
0000
0001
1001
;

//---------------dance-single - ----------------
#NOTES:
     dance-single:
     :
     Hard:
     7:
     0.469,0.571,0.282,0.086,0.043,238.000,23.000,7.000,0.000,0.000:
0000
0000
0000
1001
,
0000
0000
0000
1000
,
0000
0000
0000
0001
,
0000
0000
0000
0100
,
0000
0000
0000
1000
,
0100
0001
1000
1000
,
0100
0001
0010
1000
,
0100
0010
1000
0100
,
0001
0000
0100
0000
1000
0000
1000
0100
,
1000
0010
0100
1000
0100
1000
1100
0000
,
0100
0000
1010
0000
0000
0000
0001
0100
,
0001
0100
0010
0100
0010
0100
1010
0000
,
0100
0000
1000
0000
0000
0000
0001
1000
,
0001
1000
0001
0100
0001
0010
1010
0000
,
0100
0000
1010
0000
0000
0000
1000
0001
,
1000
0000
1000
0100
1000
0100
0001
0000
,
0100
0101
0000
0100
,
0010
0000
0100
0100
0100
0000
0010
0000
,
1000
0100
0000
0000
0000
0000
0001
0100
,
1000
0000
1000
0100
1000
0100
1000
0010
,
1000
0000
0010
0000
1000
0100
1000
0100
0000
0000
0000
0000
0100
0000
0010
0000
,
0100
0000
0010
0000
2000
0000
0000
0000
3001
0000
0000
0000
0100
0010
0100
0010
,
0100
0010
0100
0010
0100
0000
0100
1000
,
0100
0000
1000
0000
0010
1000
0010
1000
0010
0000
0000
0000
0100
0000
0001
0000
,
0100
0001
0010
0100
0010
0000
1001
0000
,
0100
0000
1000
1000
1000
0000
0110
0000
,
0100
0010
0000
0000
0000
0000
0010
1000
,
0010
1000
0020
0000
1030
0000
0100
0010
,
0100
0000
0010
0000
0001
0000
0010
0000
0001
0000
0000
0000
0010
1000
0010
0000
,
0010
1000
0100
1000
0100
0000
2000
0000
,
3001
0000
0001
0010
0001
0010
0100
1000
,
0100
0000
0100
0010
0100
0000
0010
1000
,
0010
1000
0100
1000
0100
0000
0010
0000
,
0100
0000
0010
0010
0010
0000
0110
0000
,
1000
0001
0000
0000
0000
0000
2000
0000
,
0000
0000
0000
3002
,
0000
0000
0000
0203
,
0000
0000
0000
0320
,
0000
0000
0000
1030
,
1100
0100
0110
0010
,
0011
0001
0101
0100
,
0110
0010
0100
1000
,
1000
0100
0010
0100
0100
1000
1000
0000
,
0100
0000
1000
0010
0100
0000
0010
0000
,
0100
0000
0010
0001
0100
0000
0010
0000
,
0110
1000
0110
0001
,
0110
0001
0101
1001
,
0010
0001
0001
0010
0010
0000
0110
0000
,
0100
0010
0010
0100
,
0100
0010
0010
0100
,
0110
1000
1000
0001
,
0001
0000
1000
0100
1000
0000
1001
0000
;

//---------------dance-single - ----------------
#NOTES:
     dance-single:
     :
     Challenge:
     8:
     0.585,0.602,0.319,0.110,0.116,299.000,26.000,9.000,0.000,0.000:
0000
0000
0000
1001
,
0000
0000
0000
0001
,
0000
0000
0000
1000
,
0000
0000
0000
0010
,
0000
0000
0000
0000
0000
0000
0001
0010
,
0001
0000
1000
0001
1000
0000
0001
0010
,
0001
0000
1000
0100
1000
0000
0010
0100
,
0010
0000
0100
0010
0100
0000
1000
0100
,
1000
0000
0001
0010
0001
0010
0001
0010
,
0001
0100
0010
0001
0010
0001
0011
0000
,
0010
0000
0101
0000
0000
0000
1000
0010
,
1000
0010
0100
0010
0100
0010
0101
0000
,
0010
0000
0001
0000
0000
0000
1000
0001
,
1000
0001
1000
0010
1000
0100
0101
0000
,
0010
0000
0101
0000
0000
0000
0001
1000
,
0001
0000
0001
0010
0001
0010
1000
0000
,
0010
0000
0000
0000
1010
0000
0000
0000
0000
0000
0000
0000
0010
0100
0010
0000
,
0100
0000
0010
0000
0001
0010
0001
0000
0010
0000
0100
0010
0100
0010
0001
0000
,
0001
0010
0001
0000
1000
0010
1000
0000
0010
0000
1000
0000
1000
0000
0010
0000
,
0001
0010
0001
0010
0001
0010
0001
0100
,
0001
0000
0100
0000
0001
0010
0001
0010
0000
0000
0000
0000
0010
0000
0100
0000
,
0010
0000
0100
0000
0002
0000
1000
0000
1003
0000
0000
0000
0010
0100
0010
0100
,
0010
0000
0100
0000
0010
0000
0100
0000
0010
0000
0000
0000
0010
0001
0010
0000
,
0010
0000
0001
0000
0100
0001
0100
0001
0100
0000
0000
0000
0010
0000
1000
0000
,
0010
1000
0100
0010
0100
0000
1001
0000
,
0010
0000
0001
0001
0001
0000
0110
0000
,
0100
0110
0000
0000
0000
0000
0100
0001
,
0100
0000
0001
0000
0200
0000
0001
0000
0301
0000
0000
0000
0010
0100
0010
0100
,
0010
0000
0100
0000
1000
0000
0100
0000
1000
0000
0000
0000
0100
0001
0100
0000
,
0100
0001
0010
0001
0010
0000
0002
0000
,
1003
0000
1000
0100
1000
0100
0010
0001
,
0010
0000
0010
0100
0010
0000
0100
0001
,
0100
0000
0001
0000
0010
0000
0001
0010
0002
0000
0000
0000
0103
0000
0000
0000
,
0010
0000
0100
0100
0100
0000
0110
0000
,
0001
1001
0000
2002
0000
3003
0010
0001
,
0010
0001
0010
0100
0010
0100
2000
0000
,
0010
0000
0001
0000
0001
0000
3010
0100
,
0010
0000
0010
0001
0010
0001
0200
0000
,
0001
0010
0010
0301
,
0011
0010
0110
0100
,
1100
1000
1010
0010
,
0110
0100
0010
0001
,
0001
0000
0010
0000
0100
0000
0010
0000
0010
0000
0001
0000
0001
0010
0001
0000
,
0010
0000
0010
0000
0001
0010
0100
0000
0010
0000
0000
0000
0100
0000
0010
0000
,
0100
0010
0100
1000
0010
0000
0100
0000
,
0110
0001
0110
1000
,
0110
1000
1010
1001
,
0100
1000
1000
0100
0100
0000
0210
0000
,
0010
0000
0310
0000
0100
0000
0010
0001
,
0010
0000
0100
0010
0100
0000
0010
0000
,
0110
0000
0001
0100
0001
0000
1000
0010
,
1000
0000
0001
0010
0001
1000
1001
0000
;

//---------------dance-single - ----------------
#NOTES:
     dance-single:
     :
     Medium:
     6:
     0.410,0.475,0.306,0.086,0.000,202.000,25.000,7.000,0.000,0.000:
0000
0000
0000
0000
,
0000
0000
0000
0000
,
0000
0000
0000
0100
,
0000
0000
0000
1000
,
0000
0000
0000
0010
,
0000
0100
0000
0010
,
0000
0100
0000
0010
,
0000
0001
0000
1000
,
0000
0000
0100
0000
0010
0000
0010
1000
,
0010
0000
1000
0010
1000
0000
1010
0000
,
1000
0000
0011
0000
0000
0000
0100
1000
,
0100
0000
0001
1000
0001
0000
0011
0000
,
1000
0000
0010
0000
0000
0000
0100
0010
,
0100
0000
0100
1000
0100
0000
0011
0000
,
1000
0000
0011
0000
0000
0000
0010
0100
,
0010
0000
0010
1000
0010
1000
0100
0000
,
1000
1100
0000
1000
,
0001
0000
1000
1000
1000
0000
0001
0000
,
0010
0010
0000
0000
0000
0000
0100
1000
,
0010
0000
0010
1000
0010
0000
0010
0001
,
0010
0000
0010
0001
0010
0000
1000
0001
,
1000
0001
1000
0000
1100
0000
1000
0001
,
1000
0000
1000
0001
1000
0000
1000
0010
,
1000
0000
0001
0010
0001
0000
1000
0100
,
1000
0000
0001
1000
0001
0000
0110
0000
,
1000
0000
0010
0010
0010
0000
1001
0000
,
1000
0001
0000
0000
0000
0000
0001
0010
,
0001
0010
0001
0000
0011
0000
1000
0001
,
1000
0001
0100
0001
0100
0000
0001
0010
,
0001
0010
1000
0010
1000
0000
0010
0000
,
0110
0000
0100
0001
0100
0000
1000
0010
,
1000
0000
1000
0001
1000
0000
0001
0010
,
0001
0010
1000
0010
1000
0000
0001
0000
,
1000
0000
0001
0001
0001
0000
1001
0000
,
0010
0100
0000
0000
0000
0000
0020
0000
,
0000
0000
0000
0230
,
0000
0000
0000
2300
,
0000
0000
0000
3002
,
0000
0000
0000
0013
,
1010
0000
1001
0000
,
0101
0000
1100
0000
,
1001
0001
1000
0010
,
0010
0000
0001
0020
0000
0000
1030
0000
,
1000
0000
0010
0001
1000
0000
0001
0000
,
1000
0000
0001
0100
1000
0000
0001
0000
,
1001
0010
1001
0100
,
1001
0100
1100
0110
,
0001
0100
0100
0001
0001
0000
2002
0000
,
0000
3003
0001
1000
,
1000
0001
0001
1000
,
1001
0010
0010
0100
,
0100
0000
0010
1000
0010
0000
0110
0000
;
