#TITLE:unFe;
#SUBTITLE:;
#ARTIST:Futanari Mozambique;
#TITLETRANSLIT:;
#SUBTITLETRANSLIT:;
#ARTISTTRANSLIT:;
#CREDIT:lolipo;
#BANNER:unfe-bn.png;
#BACKGROUND:unfe-bg.png;
#LYRICSPATH:;
#CDTITLE:;
#MUSIC:unFE.ogg;
#OFFSET:0.009;
#SAMPLESTART:71.393;
#SAMPLELENGTH:16.420;
#SELECTABLE:YES;
#DISPLAYBPM:190.000;
#BPMS:0.000=190.000,144.000=210.000,160.000=230.000,168.000=240.000,176.000=250.000,184.000=260.000,192.000=270.000,200.000=300.000,208.000=190.000;
#STOPS:;
#BGCHANGES:;
// cache tags:
#FIRSTBEAT:32.000;
#LASTBEAT:392.000;
#SONGFILENAME:Songs/SPEEEDCOOOORE 4/unFe - [Lolipo]/unFe.sm;
#HASMUSIC:1;
#HASBANNER:1;
#MUSICLENGTH:121.258;
// end cache tags

//---------------dance-single - lolipo----------------
#NOTES:
     dance-single:
     lolipo:
     Challenge:
     13:
     0.933,1.000,0.173,0.058,0.800,752.000,21.000,7.000,0.000,2.000:
0000
0000
0000
0000
,
0000
0000
0000
0000
,
0000
0000
0000
0000
,
0000
0000
0000
0000
,
0000
0000
0000
0000
,
0000
0000
0000
0000
,
0000
0000
0000
0000
,
0000
0000
0000
0000
,
1000
0100
0010
0001
1000
0000
0001
0000
0100
0000
0040
0030
0100
0000
0004
0003
,
0010
0000
0000
0000
0100
0000
0000
0000
0000
0000
0000
0000
4000
3000
0000
0000
1010
0000
0000
0000
0000
0000
0110
0000
0000
0000
0000
0000
0101
0000
0000
0000
,
0001
1000
0001
0010
0100
0000
0010
0000
0110
0000
0000
1100
0000
0000
4000
3000
,
0001
0000
0100
0000
0000
0000
0100
0000
0010
0000
4000
3000
0100
0000
4000
3000
,
0010
0000
0000
0000
0100
0000
0001
0000
0100
0000
0000
0001
0040
0030
0004
0003
,
0100
0010
1000
0000
0001
0000
0010
0100
1000
0000
0000
0001
0000
0000
0010
0000
,
0001
1000
0010
0100
0001
0000
1000
0000
0100
0000
1000
0000
0010
0000
0100
0000
,
0001
0000
1000
0010
1000
0000
0000
0000
0010
0000
0010
0000
0100
0000
0000
0000
,
0001
1000
0001
0010
0100
1000
0010
0100
,
0001
1000
0001
0010
0100
0000
1000
0001
1000
0000
0010
0000
0100
0000
0001
0000
,
1000
0010
1000
0001
0010
0000
0100
1000
0001
0000
1000
0000
0010
0000
0100
0000
,
0001
0010
0100
1000
0001
0000
1000
0010
1000
0000
0001
0000
0100
0000
0001
0000
,
1000
0000
0000
0000
0000
0000
0000
0000
0000
0000
0000
0000
0010
0000
0000
0000
0000
0000
0000
0000
0000
0000
0000
0000
1000
0000
0000
0000
0000
0000
0000
0000
0000
0000
0000
0000
0100
0000
0000
0000
0000
0000
0000
0000
0000
0000
0000
0000
0010
0000
0000
0000
0000
0000
0000
0000
0000
0000
0001
0000
0000
0000
0000
0000
0000
0000
0000
1000
0000
0000
0000
0000
0000
0000
0000
0000
0000
0010
0000
0000
0000
0000
0000
0000
0000
0000
0100
0000
0000
0000
0000
0000
0000
0000
0000
0000
0001
0000
0000
0000
0000
0000
0000
0000
0000
0000
0000
0000
1000
0000
0000
0000
0000
0000
0000
0000
0000
0000
0000
0000
0100
0000
0000
0000
0000
0000
0000
0000
0000
0000
0000
0000
1000
0000
0000
0000
0000
0000
0000
0000
0000
0000
0000
0000
0010
0000
0000
0000
0000
0000
0000
0000
0000
0000
0000
0000
0100
0000
0000
0000
0000
0000
0000
0000
0000
0000
0000
0000
0001
0000
0000
0000
0000
0000
0000
0000
0000
0000
0000
0000
1000
0000
0000
0000
0000
0000
0000
0000
0000
0000
0000
0000
,
0100
0000
0000
0010
0000
0000
0001
0000
1000
0000
0001
0000
0100
0000
0000
0010
0000
0000
0100
0000
0000
0000
0000
0000
0001
0000
0000
1000
0000
0000
0001
0000
0000
0010
0000
0000
0100
0000
0000
0000
0000
0000
1000
0000
0000
0000
0000
0000
,
0010
0100
0010
1000
0001
1000
0100
0010
0001
1000
0001
0010
0100
1000
0001
0100
,
0010
0000
0000
0000
0000
0000
0000
0000
0000
0000
0000
0000
0100
0000
0000
0000
0000
0000
0010
0000
0000
0000
0000
0000
1000
0000
0000
0100
0000
0000
0010
0000
0001
0000
1000
0000
0001
0000
0000
0000
0000
0000
0100
0000
0000
0000
0000
0000
,
0001
1000
0001
0000
0010
0000
0001
0000
0100
0000
0010
0000
0000
0000
0000
0000
,
1000
0010
0100
0001
,
4000
3001
0010
0100
,
1000
0000
1010
0000
0000
0000
0101
0000
0110
0000
0000
1010
0000
0000
1001
0000
,
0001
1000
0010
0100
0010
0000
1000
0100
0010
0000
0001
0000
1000
0100
1000
0001
,
0100
0000
0000
0001
0000
0000
0010
0000
0000
0001
0000
0000
0100
0000
0000
0010
0000
0000
1000
0001
1000
0001
0000
0000
,
1000
0100
1000
0001
0100
0000
0001
1000
0010
0000
1000
0000
0100
0000
0010
0000
,
0001
0000
1000
0000
0001
0000
0100
0010
0100
0000
0001
0000
0010
0000
0100
0000
,
1000
0010
0100
0001
0100
0000
0010
1000
0100
0000
0010
0000
0001
0000
1000
0000
,
0100
0000
1000
0000
0010
0000
0100
0001
0100
0000
0010
0000
1000
0000
0100
0000
,
0010
0001
1000
0001
0100
0000
0010
1000
0100
0000
0010
0001
1000
0000
0001
1000
,
0001
1001
1101
1111
,
1000
0001
1000
0010
0100
0000
0001
1000
0001
0000
0010
0000
0001
0000
0100
0000
,
0010
0100
0001
1000
0100
1000
0100
0010
,
0001
1000
0001
0010
0100
0000
1000
0001
1000
0000
0001
0000
0100
0000
0010
0000
,
1000
0000
0100
0000
1000
0000
0010
0100
0001
0000
1000
0000
0010
0000
0100
0000
,
0001
1000
0001
0010
0100
0000
1000
0001
1000
0000
0010
0000
0100
0000
0001
0000
,
0010
0000
0001
0000
1000
0000
0010
0100
0010
0000
1000
0000
0100
0000
0010
0000
,
0001
1000
0001
0010
0100
0000
1000
0010
0100
0000
0001
0000
0100
0000
0010
0000
,
1000
0000
0100
0000
1000
0000
0001
0010
0001
0000
0100
0000
0010
0000
1000
0000
,
0001
1000
0001
0010
0100
0000
1000
0001
1000
0000
0001
0000
0010
0000
0100
0000
,
0010
0001
0100
0010
1000
0001
1000
0010
,
1000
0001
1000
0100
0010
0000
0001
1000
0001
0000
0010
0000
0001
0000
1000
0000
,
0010
0000
1000
0000
0010
0000
0100
0001
0100
0000
0001
0000
0010
0000
0100
0000
,
1000
0010
1000
0001
0100
0000
0001
1000
0001
0000
1000
0000
0010
0000
0100
0000
,
0010
0000
1000
0000
0001
0000
1000
0010
1000
0000
0001
0000
0010
0000
0100
0000
,
1000
0001
1000
0100
0010
0000
0001
1000
0001
0000
0100
0000
0001
0000
1000
0000
,
0004
0000
0000
0000
,
0103
0000
0000
0000
,
0000
0000
0000
0000
,
0001
0001
0000
0000
0000
0000
0000
0000
,
1000
1000
0100
0100
0000
0000
0000
0000
,
1000
0100
1000
0000
0001
0000
0010
0000
0100
1000
0100
1000
0010
0000
0100
0000
,
0001
0000
1000
0000
0001
0000
0010
0000
0001
1000
0001
1000
0010
0000
0000
0000
,
0100
0100
0001
0001
0100
0100
0010
0010
,
1000
0000
1010
0000
0101
0001
2000
3000
,
0010
0100
0001
0100
0010
1000
0001
1000
,
0100
0000
0000
0010
0000
0000
0001
0000
0000
0000
0000
0000
1000
0000
0000
0000
0000
0000
0100
0000
0000
0000
0000
0000
1000
0000
0000
0000
0000
0000
0001
0000
1000
0000
0001
0000
0200
0000
0000
0000
0000
0000
0300
0000
0000
0000
0000
0000
,
0001
0100
0001
0100
0001
0100
0010
1000
,
1001
0000
0000
0000
0101
0000
0001
0000
1000
0100
1000
0001
0010
0000
0000
0000
,
0001
0001
0100
0000
0010
0010
1000
0000
,
0100
0100
0010
0010
0001
0000
1001
0000
,
1000
0000
1000
0000
0010
0000
0000
0000
0100
0000
0100
0000
0001
0000
1000
0010
,
1000
0000
0100
0010
0000
0000
0001
0000
1000
0000
0010
0000
1000
0000
0000
0000
,
0001
0000
1000
0000
0010
0000
0100
0000
0001
0000
1000
0000
0010
0100
0001
1000
,
0010
1000
0100
1000
0100
0010
0001
1000
,
0010
0100
0001
1000
0100
0010
0001
1000
0010
1000
0001
0010
0100
1000
0001
0100
,
0020
0000
0000
0030
,
1000
0000
0001
0100
0000
0010
1000
0000
0001
0100
0010
1000
,
0100
0000
1000
0100
0000
1000
0100
0000
0010
0001
0000
0100
,
0010
0000
1000
0001
0000
0100
0010
0000
1000
0001
0010
0001
,
2000
0000
0000
3000
0000
0000
0000
0000
0001
0000
0000
0000
2000
0000
0000
3000
0000
0000
0000
0000
0001
0000
0000
0000
4000
0000
0000
3000
0000
0000
0000
0000
0010
0000
0000
0000
0100
0000
0000
0000
0000
0000
0000
0000
0001
0000
0000
0000
,
1000
0000
0100
0010
0000
0100
1000
0000
0100
0010
0001
0100
,
0010
0000
0100
0010
0000
0100
0010
0000
1000
0001
0000
1000
,
0100
0000
1000
0010
0000
1000
0100
0000
1000
0010
0100
0001
,
0010
0000
0001
0010
0000
0001
0010
0000
0001
0010
0000
0001
,
1000
0000
0000
0000
0001
0100
0010
1000
,
0001
0100
0010
1000
0001
0100
0010
1000
,
0001
0010
0100
1000
0010
1000
0001
0010
0100
0000
1000
0000
0010
0000
0100
0000
,
0001
1000
0010
0100
0001
1000
0010
0100
,
0001
1000
0100
0000
1000
0100
0010
0001
,
1000
0100
0010
0001
1000
0100
0010
0001
,
1000
0100
0010
0000
0001
0100
0010
1000
,
0001
0100
0010
1000
0001
0100
0010
1000
,
0001
0010
0001
1000
0200
0000
0300
0000
1000
0000
1000
0000
0001
0000
0000
0000
,
0010
0010
0100
0000
1000
1000
0100
0100
,
0010
0000
0011
0000
0001
0001
0100
0000
,
0010
0000
0010
0000
1000
0000
0000
0000
0001
0000
1000
0010
0000
0000
1000
0000
,
0100
0100
0010
0000
0001
0010
0100
1000
,
0010
0000
0100
0000
0001
0010
0100
1000
0001
0000
0010
0000
0100
0000
1000
0000
,
0001
0000
0010
0000
0100
0000
1000
0000
0001
0010
0100
0010
0001
0100
0010
0100
,
0001
0010
0100
0010
0001
0100
0010
0100
0001
0010
0100
1000
0001
0010
0100
1000
,
0010
0000
0000
0000
0000
0000
0000
0000
0000
0000
0000
0000
0100
0000
0000
0000
0000
0000
0000
0000
0000
0000
0000
0000
0010
0000
0000
0000
0000
0000
0000
0000
0000
0000
0000
0000
0100
0000
0000
0000
0000
0000
0000
0000
0000
0000
0000
0000
0001
0000
0000
0000
0000
0000
0000
0000
0000
0000
1000
0000
0000
0000
0000
0000
0000
0000
0000
0001
0000
0000
0000
0000
0000
0000
0000
0000
0000
0010
0000
0000
0000
0000
0000
0000
0000
0000
0100
0000
0000
0000
0000
0000
0000
0000
0000
0000
2000
0000
0000
0000
0000
0000
0000
0000
0000
0000
0000
0000
0000
0000
0000
0000
0000
0000
0000
0000
0000
0000
0000
0000
0000
0000
0000
0000
0000
0000
0000
0000
0000
0000
0000
0000
0000
0000
0000
0000
0000
0000
0000
0000
0000
0000
0000
0000
0000
0000
0000
0000
0000
0000
0000
0000
0000
0000
0000
0000
0000
0000
0000
0000
0000
0000
0000
0000
0000
0000
0000
0000
0000
0000
0000
0000
0000
0000
0000
0000
0000
0000
0000
0000
0000
0000
0000
0000
0000
0000
0000
0000
0000
0000
0000
0000
,
0000
0000
0000
0000
,
3000
0000
0000
0000
;
